Register · 
Username: Password:
 ·  Forgot password?

(Rock) [CD] Queen - Innuendo - 1994, FLAC (image+.cue), lossless

Reply to topic
DL-List and Torrent activity [Update пиров]
Size:  339 MB   |    Registered:  2 months   |    Completed:  0 times

Seeder not seen: Never

 
   
 
 
 
Author Message

manic-manic ®

Gender:

Longevity: 6 years 3 months

Posts: 14161

Post 18-Nov-2019 15:03

[Quote]

Queen / Innuendo
Жанр: Rock
Носитель: CD
Страна-производитель диска (релиза): USA
Год издания: 1994
Издатель (лейбл): EMI
Номер по каталогу: HCD 5249 07
Страна исполнителя (группы): UK
Аудиокодек: FLAC (*.flac)
Тип рипа: image+.cue
Продолжительность: 00:53:45
Источник: собственный рип
Наличие сканов в содержимом раздачи: да
Треклист:
01. Innuendo [06:31]
02. I'm Going Slightly Mad [04:22]
03. Headlong [04:38]
04. I Can't Live With You [04:33]
05. Don't Try So Hard [03:39]
06. Ride The Wild Wind [04:42]
07. All God's People [04:22]
08. These Are The Days Of Our Lives [04:15]
09. Delilah [03:35]
10. The Hitman [04:56]
11. Bijou [03:36]
12. The Show Must Go On [04:31]

Лог создания рипа

Exact Audio Copy V1.0 beta 3 from 29. August 2011
Отчёт EAC об извлечении, выполненном 17. ноября 2019, 22:34
Queen / Innuendo
Дисковод: Optiarc DVD RW AD-7280S Adapter: 1 ID: 0
Режим чтения : ДостоверностьИспользование точного потока : ДаОтключение кэша аудио : ДаИспользование указателей C2 : Нет
Коррекция смещения при чтении : 48Способность читать области Lead-in и Lead-out : НетЗаполнение пропущенных сэмплов тишиной : ДаУдаление блоков с тишиной в начале и конце : НетПри вычислениях CRC использовались нулевые сэмплы : ДаИнтерфейс : Встроенный Win32-интерфейс для Win NT/2000
Выходной формат : Пользовательский кодировщикВыбранный битрейт : 768 kBit/sКачество : ВысокийДобавление ID3-тега : НетУтилита сжатия : C:\Program Files (x86)\Exact Audio Copy\FLAC\FLAC.EXEДополнительные параметры : -8 -V -T "ARTIST=%artist%" -T "TITLE=%title%" -T "ALBUM=%albumtitle%" -T "DATE=%year%" -T "TRACKNUMBER=%tracknr%" -T "GENRE=%genre%" -T "COMMENT=%comment%" -T "BAND=%albuminterpret%" -T "ALBUMARTIST=%albuminterpret%" -T "COMPOSER=%composer%" %haslyrics%--tag-from-file=LYRICS="%lyricsfile%"%haslyrics% -T "DISCNUMBER=%cdnumber%" -T "TOTALDISCS=%totalcds%" -T "TOTALTRACKS=%numtracks%" %hascover%--picture="%coverfile%"%hascover% %source% -o %dest%
TOC извлечённого CD
Трек | Старт | Длительность | Начальный сектор | Конечный сектор --------------------------------------------------------------------- 1 | 0:00.00 | 6:31.00 | 0 | 29324 2 | 6:31.00 | 4:22.02 | 29325 | 48976 3 | 10:53.02 | 4:38.73 | 48977 | 69899 4 | 15:32.00 | 4:33.25 | 69900 | 90399 5 | 20:05.25 | 3:39.00 | 90400 | 106824 6 | 23:44.25 | 4:42.50 | 106825 | 128024 7 | 28:27.00 | 4:22.00 | 128025 | 147674 8 | 32:49.00 | 4:15.25 | 147675 | 166824 9 | 37:04.25 | 3:35.50 | 166825 | 182999 10 | 40:40.00 | 4:56.25 | 183000 | 205224 11 | 45:36.25 | 3:36.52 | 205225 | 221476 12 | 49:13.02 | 4:31.73 | 221477 | 241874
Характеристики диапазона извлечения и сообщения об ошибках
Выбранный диапазон
Имя файла D:\РАЗДАЧИ\Queen-Innuendo (1994)\Queen - Innuendo.wav
Пиковый уровень 93.6 % Скорость извлечения 7.5 X Качество диапазона 100.0 % CRC теста 449D382D CRC копии 449D382D Копирование... OK
Ошибок не произошло
AccurateRip: сводка
Трек 1 : извлечено точно (доверие 3) [68715D4E] (AR v2)Трек 2 : извлечено точно (доверие 3) [92DB7AEF] (AR v2)Трек 3 : извлечено точно (доверие 3) [CE71029D] (AR v2)Трек 4 : извлечено точно (доверие 3) [64FA1FB1] (AR v2)Трек 5 : извлечено точно (доверие 3) [F9ED276A] (AR v2)Трек 6 : извлечено точно (доверие 3) [FCA2C8B0] (AR v2)Трек 7 : извлечено точно (доверие 3) [A3D5AB59] (AR v2)Трек 8 : извлечено точно (доверие 3) [9DCEC43B] (AR v2)Трек 9 : извлечено точно (доверие 3) [2884D76A] (AR v2)Трек 10 : извлечено точно (доверие 3) [B6D8F72E] (AR v2)Трек 11 : извлечено точно (доверие 3) [DC544B1C] (AR v2)Трек 12 : извлечено точно (доверие 3) [46040585] (AR v2)
Все треки извлечены точно
Конец отчёта
==== Контрольная сумма отчёта 3B0E5A0FA17A0BF4A45B0F23B2EE2CFFE68AD15AE6C4D7CFBF696C7556FBE2F9 ====
[ru-zerkalo.org]_t_5807179
Torrent: Registered ·  [ 2019-11-18 15:03 ] ·  4d986c7b1f6903c8a432f142201754e3ff5f998d

14 KB

Status: checked
Completed: 0 times
Size: 339 MB
Rating: 
(Votes: 0)
Say thanks: 0  Thanks
 
Похожие темы
[Profile] [PM]
Display posts from previous:    
Reply to topic

The time now is: Today 02:16

All times are GMT + 7 Hours



You cannot post new topics in this forum
You cannot reply to topics in this forum
You cannot edit your posts in this forum
You cannot delete your posts in this forum
You cannot vote in polls in this forum
You cannot attach files in this forum
You can download files in this forum