Register · 
Username: Password:
 ·  Forgot password?

(JRock) [CD] DADAROMA - dadaism #5 - 2019, FLAC (tracks+.cue), lossless

Reply to topic
DL-List and Torrent activity [Update пиров]
Size:  238 MB   |    Registered:  1 month 13 days   |    Completed:  0 times

Seeder not seen: Never

 
   
 
 
 
Author Message

kadSM ®

Gender:

Longevity: 6 years 3 months

Posts: 19717

Post 07-Dec-2019 01:52

[Quote]

DADAROMA / dadaism #5
Жанр: JRock
Носитель: CD
Страна-производитель диска (релиза): Japan
Год издания: 2019
Издатель (лейбл): Timely Records
Номер по каталогу: TRCL - 0208
Страна исполнителя (группы): Japan
Аудиокодек: FLAC (*.flac)
Тип рипа: tracks+.cue
Продолжительность: 00:31:38
Источник: собственный рип
Наличие сканов в содержимом раздачи: нет
Треклист:
1.Twinkle Twinkle Little Star
2.嫣然
3.ケイドロ
4. 歌舞伎町のオンナ
5. ピエロのうた
6.「DAY BY DAY」
7.「ポルノグラフ」〜piano ver.〜

Лог создания рипа

Exact Audio Copy V1.3 from 2. September 2016
EAC extraction logfile from 3. December 2019, 21:19
DADAROMA / dadaism#5
Used drive : PIONEER BD-RW BDR-209D Adapter: 1 ID: 0
Read mode : SecureUtilize accurate stream : YesDefeat audio cache : YesMake use of C2 pointers : No
Read offset correction : 667Overread into Lead-In and Lead-Out : NoFill up missing offset samples with silence : YesDelete leading and trailing silent blocks : NoNull samples used in CRC calculations : YesUsed interface : Native Win32 interface for Win NT & 2000Gap handling : Appended to previous track
Used output format : User Defined EncoderSelected bitrate : 128 kBit/sQuality : HighAdd ID3 tag : NoCommand line compressor : C:\Program Files (x86)\Exact Audio Copy\Flac\flac.exeAdditional command line options : -V -8 -T "Genre=%genre%" -T "Artist=%artist%" -T "Title=%title%" -T "Album=%albumtitle%" -T "Date=%year%" -T "Tracknumber=%tracknr%" -T "Comment=%comment%" %source%
TOC of the extracted CD
Track | Start | Length | Start sector | End sector --------------------------------------------------------- 1 | 0:00.00 | 4:10.03 | 0 | 18752 2 | 4:10.03 | 4:08.20 | 18753 | 37372 3 | 8:18.23 | 3:58.07 | 37373 | 55229 4 | 12:16.30 | 3:49.57 | 55230 | 72461 5 | 16:06.12 | 5:37.48 | 72462 | 97784 6 | 21:43.60 | 4:15.29 | 97785 | 116938 7 | 25:59.14 | 5:38.61 | 116939 | 142349
Track 1
Filename D:\Flac\Новая папка\01 Twinkle Twinkle Little Star.wav
Pre-gap length 0:00:02.00
Peak level 98.9 % Extraction speed 4.6 X Track quality 100.0 % Test CRC 354F293F Copy CRC 354F293F Copy OK
Track 2
Filename D:\Flac\Новая папка\02 嫣然.wav
Pre-gap length 0:00:01.00
Peak level 98.9 % Extraction speed 5.1 X Track quality 100.0 % Test CRC B24A3DE5 Copy CRC B24A3DE5 Copy OK
Track 3
Filename D:\Flac\Новая папка\03 ケイドロ.wav
Peak level 99.2 % Extraction speed 5.5 X Track quality 100.0 % Test CRC 88E9A64B Copy CRC 88E9A64B Copy OK
Track 4
Filename D:\Flac\Новая папка\04 歌舞伎町のオンナ.wav
Pre-gap length 0:00:01.00
Peak level 98.9 % Extraction speed 5.1 X Track quality 99.9 % Test CRC 986A76CD Copy CRC 986A76CD Copy OK
Track 5
Filename D:\Flac\Новая папка\05 ピエロのうた.wav
Pre-gap length 0:00:01.00
Peak level 99.0 % Extraction speed 6.0 X Track quality 99.9 % Test CRC A4CC5F33 Copy CRC A4CC5F33 Copy OK
Track 6
Filename D:\Flac\Новая папка\06 「DAY BY DAY」.wav
Pre-gap length 0:00:02.00
Peak level 98.9 % Extraction speed 6.7 X Track quality 100.0 % Test CRC C064B72F Copy CRC C064B72F Copy OK
Track 7
Filename D:\Flac\Новая папка\07 「ポルノグラフ」〜piano ver.〜.wav
Pre-gap length 0:00:02.00
Peak level 97.9 % Extraction speed 7.3 X Track quality 100.0 % Test CRC 4F45A54F Copy CRC 4F45A54F Copy OK
No errors occurred
End of status report
==== Log checksum D466101EB3BB862B2F40B9D8ED44453F7AE00003D2EEEB59A64000BF4A088501 ====

Содержание индексной карты (.CUE)

REM GENRE JRockREM DATE 2019REM DISCID 4F076A07REM COMMENT "ExactAudioCopy v1.3"PERFORMER "DADAROMA"TITLE "dadaism#5"REM COMPOSER ""FILE "01 Twinkle Twinkle Little Star.wav" WAVE TRACK 01 AUDIO TITLE "Twinkle Twinkle Little Star" PERFORMER "DADAROMA" REM COMPOSER "" INDEX 01 00:00:00 TRACK 02 AUDIO TITLE "嫣然" PERFORMER "DADAROMA" REM COMPOSER "" INDEX 00 04:09:03FILE "02 嫣然.wav" WAVE INDEX 01 00:00:00FILE "03 ケイドロ.wav" WAVE TRACK 03 AUDIO TITLE "ケイドロ" PERFORMER "DADAROMA" REM COMPOSER "" INDEX 01 00:00:00 TRACK 04 AUDIO TITLE "歌舞伎町のオンナ" PERFORMER "DADAROMA" REM COMPOSER "" INDEX 00 03:57:07FILE "04 歌舞伎町のオンナ.wav" WAVE INDEX 01 00:00:00 TRACK 05 AUDIO TITLE "ピエロのうた" PERFORMER "DADAROMA" REM COMPOSER "" INDEX 00 03:48:57FILE "05 ピエロのうた.wav" WAVE INDEX 01 00:00:00 TRACK 06 AUDIO TITLE "「DAY BY DAY」" PERFORMER "DADAROMA" REM COMPOSER "" INDEX 00 05:35:48FILE "06 「DAY BY DAY」.wav" WAVE INDEX 01 00:00:00 TRACK 07 AUDIO TITLE "「ポルノグラフ」.piano ver.." PERFORMER "DADAROMA" REM COMPOSER "" INDEX 00 04:13:29FILE "07 「ポルノグラフ」.piano ver...wav" WAVE INDEX 01 00:00:00
[ru-zerkalo.org]_t_5815098
Torrent: Registered ·  [ 2019-12-07 01:52 ] ·  3ec31e008e5f204f2be6481b781223c24099d143

20 KB

Status: checked
Completed: 0 times
Size: 238 MB
Rating: 
(Votes: 0)
Say thanks: 0  Thanks
 
Похожие темы
[Profile] [PM]
Display posts from previous:    
Reply to topic

The time now is: Today 11:49

All times are GMT + 7 Hours



You cannot post new topics in this forum
You cannot reply to topics in this forum
You cannot edit your posts in this forum
You cannot delete your posts in this forum
You cannot vote in polls in this forum
You cannot attach files in this forum
You can download files in this forum