Register · 
Username: Password:
 ·  Forgot password?

(Progressive | Pop Rock) [WEB] Deckchair Poets - Searchin\' for a Lemon Squeezer - 2015, FLAC (tracks), lossless

Reply to topic
DL-List and Torrent activity [Update пиров]
Size:  348 MB   |    Registered:  1 month 10 days   |    Completed:  0 times

Seeder not seen: Never

 
   
 
 
 
Author Message

ANTON1404 ®

Gender:

Longevity: 6 years 3 months

Posts: 18913

Post 09-Dec-2019 20:19

[Quote]



Deckchair Poets

Searchin' for a Lemon Squeezer




• Жанр: Progressive | Pop Rock
• Носитель: WEB
• Год издания: 2015
• Издатель: Angel Air
• Страна: UK
• Аудиокодек: FLAC (*.flac)
• Тип рипа: tracks
• Продолжительность: 00:47:19
internet
• Наличие сканов: front
Tracklist:
01 - Deckchair Poem 1 (00:01:35)
02 - Jennifer Brown (00:00:23)
03 - Bad Is Bad (00:03:13)
04 - My Heartbreaker (00:03:41)
05 - We're All Chasing Peter Pan (00:03:00)
06 - God Loves an Idiot (00:03:56)
07 - People (00:00:28)
08 - Educating Rita (00:03:38)
09 - Everybody Wants to Live in America (00:04:39)
10 - Marmite (00:00:15)
11 - Quick Joey Small (00:02:48)
12 - The Bus Goes On (00:01:36)
13 - Jerk (00:04:33)
14 - We Like Tarts (00:03:00)
15 - I'm Gonna Tear Your Playhouse Down (00:03:55)
16 - Silicon Boobs (00:01:20)
17 - Just Life (00:05:12)
-
-

• Лог DRM •

foobar2000 1.3.9 / Замер динамического диапазона (DR) 1.1.1Дата отчёта: 2019-12-09 12:44:57
--------------------------------------------------------------------------------Анализ: Deckchair Poets / Searchin' for a Lemon Squeezer--------------------------------------------------------------------------------
DR Пики RMS Продолжительность трека--------------------------------------------------------------------------------DR12 -0.02 дБ -16.32 дБ 1:36 01-Deckchair Poem 1DR7 0.00 дБ -7.85 дБ 0:24 02-Jennifer BrownDR7 -0.01 дБ -8.26 дБ 3:13 03-Bad Is BadDR7 -0.01 дБ -8.95 дБ 3:42 04-My HeartbreakerDR7 -0.01 дБ -8.90 дБ 3:00 05-We're All Chasing Peter PanDR6 -0.01 дБ -7.15 дБ 3:56 06-God Loves an IdiotDR10 -0.56 дБ -13.22 дБ 0:29 07-PeopleDR6 -0.01 дБ -7.62 дБ 3:38 08-Educating RitaDR7 -0.01 дБ -8.51 дБ 4:40 09-Everybody Wants to Live in AmericaDR8 -0.07 дБ -11.59 дБ 0:16 10-MarmiteDR7 0.00 дБ -8.08 дБ 2:48 11-Quick Joey SmallDR9 -0.01 дБ -9.55 дБ 1:36 12-The Bus Goes OnDR6 -0.01 дБ -6.99 дБ 4:34 13-JerkDR6 -0.01 дБ -7.96 дБ 3:00 14-We Like TartsDR9 -0.01 дБ -10.43 дБ 3:55 15-I'm Gonna Tear Your Playhouse DownDR8 -0.01 дБ -8.55 дБ 1:20 16-Silicon BoobsDR6 -0.01 дБ -7.32 дБ 5:12 17-Just Life--------------------------------------------------------------------------------
Количество треков: 17Реальные значения DR: DR8
Частота: 44100 ГцКаналов: 2Разрядность: 16Битрейт: 1008 кбит/сКодек: FLAC================================================================================
-

• Лог проверки качества •

-----------------------
DON'T MODIFY THIS FILE
-----------------------
PERFORMER: auCDtect Task Manager, ver. 1.5.1RC3 build 1.5.1.4Copyright (c) 2008-2010 y-soft. All rights reservedhttp://y-soft.org
ANALYZER: auCDtect: CD records authenticity detector, version 0.8.2Copyright (c) 2004 Oleg Berngardt. All rights reserved.Copyright (c) 2004 Alexander Djourik. All rights reserved.
FILE: 17.flac Size: 39435100 Hash: A8D44304CA0E5DEC335EF6903745EA06 Accuracy: -m8 Conclusion: CDDA 100% Signature: A60FB86D0FAF1BFCDB85F80659AB0857A18D525CFILE: 16.flac Size: 10271702 Hash: 55FE19FDA408818F4EB0778373FD51C5 Accuracy: -m8 Conclusion: CDDA 100% Signature: 84F0BA0A121D872AD78961AF7A29AF9EF852FE82FILE: 15.flac Size: 27542373 Hash: 534B668313C4036CCA86CF3BA726E90B Accuracy: -m8 Conclusion: CDDA 100% Signature: F48B227CC782563DA1F294C84C725904CF064AD6FILE: 14.flac Size: 23531684 Hash: 51445F9677FCC455E290C6782FAE31DA Accuracy: -m8 Conclusion: CDDA 100% Signature: 7D346D3A74E08B23E297A2B4821131FA34D03031FILE: 13.flac Size: 37156452 Hash: 84A2B0FFAEA5841F2FFC49EF83A9DB11 Accuracy: -m8 Conclusion: CDDA 100% Signature: F3298F1AD92226A478B3AECE60939A02437992C1FILE: 12.flac Size: 11996211 Hash: CF4047264651599391AF857D42F33D58 Accuracy: -m8 Conclusion: CDDA 100% Signature: E6D92C7FA4D422FFCE271B1A82CF143FF45107F2FILE: 11.flac Size: 21688264 Hash: 9041B7B9A53885DB195DC8DE0952026F Accuracy: -m8 Conclusion: CDDA 100% Signature: D7E0081125A46BD5EAC8D0CEDCE3F2ADDD93EBDBFILE: 10.flac Size: 1650147 Hash: 6072D3364F1C1A4C799B88BAAF2ABD98 Accuracy: -m8 Conclusion: CDDA 100% Signature: FA6B1BEB77C0AFA6D3683E31976D54A030B105A9FILE: 09.flac Size: 37597383 Hash: EE24FC5997F294B042990760825CE0E1 Accuracy: -m8 Conclusion: CDDA 100% Signature: E129DA8994F0E31AB59F489EABF7F51CC0E539C2FILE: 08.flac Size: 27929733 Hash: F50B8343CE802D033A9F73DEF199F426 Accuracy: -m8 Conclusion: CDDA 100% Signature: C626BAA5992B982307F683ED7425319819A57B98FILE: 07.flac Size: 3195190 Hash: 6DC69325B5B49CF617CA5C02CC4D5029 Accuracy: -m8 Conclusion: CDDA 99% Signature: 2F29D740E38DD460396F07C9C36658CBB01824F5FILE: 06.flac Size: 32285453 Hash: E1010CCA865586CA4E6EB5EFAB6C9ABC Accuracy: -m8 Conclusion: CDDA 100% Signature: 29BCF2F373F75D30879B3ED2B08599FC94B49535FILE: 05.flac Size: 23329382 Hash: 0D1CA5223BC763E47AB893C0D379BE8C Accuracy: -m8 Conclusion: CDDA 100% Signature: 5AC00BCED0B7DF89C867A05177286DB2E3F39744FILE: 04.flac Size: 27745373 Hash: 8069BDB0A704A89C38AD021ABABD2675 Accuracy: -m8 Conclusion: CDDA 100% Signature: E4FE9D606A2A50B51D0D8403E8458954FCBEBDEAFILE: 03.flac Size: 25384999 Hash: FA79C90849B2B7C17BB22C407C3DBD4A Accuracy: -m8 Conclusion: CDDA 100% Signature: 27CDF81CB6360C0D73EA37E718A6B50247F213F9FILE: 02.flac Size: 3184537 Hash: A46320003ECF840A1E16320F1090856C Accuracy: -m8 Conclusion: CDDA 100% Signature: CF4E1294B00AE99AA5E76281458E179B100B0D75FILE: 01.flac Size: 9923370 Hash: 040729675152F5F45097CC37E836CC0D Accuracy: -m8 Conclusion: CDDA 100% Signature: C4BC1070CF00DF86404A426E8ECC4EF883A70C7D
-

• Band •

-[url=out.php?url=http%3A%2F%2Fwww.deckchairpoets.com%2F&p=78441462&t=5815527&f=1703&u=24462375] [/url]
[ru-zerkalo.org]_t_5817620
Torrent: Registered ·  [ 2019-12-09 20:19 ] ·  358bbf85b37dbc95c594d002f8991d13b6f6829b

15 KB

Status: checked
Completed: 0 times
Size: 348 MB
Rating: 
(Votes: 0)
Say thanks: 0  Thanks
 
Похожие темы
[Profile] [PM]
Display posts from previous:    
Reply to topic

The time now is: Today 11:43

All times are GMT + 7 Hours



You cannot post new topics in this forum
You cannot reply to topics in this forum
You cannot edit your posts in this forum
You cannot delete your posts in this forum
You cannot vote in polls in this forum
You cannot attach files in this forum
You can download files in this forum