Register · 
Username: Password:
 ·  Forgot password?

(Acoustic Rock) [WEB] Maiden United - The Barrel House Tapes - 2019, FLAC (tracks), lossless

Reply to topic
DL-List and Torrent activity [Update пиров]
Size:  286 MB   |    Registered:  1 month 9 days   |    Completed:  0 times

Seeder not seen: Never

 
   
 
 
 
Author Message

kadSM ®

Gender:

Longevity: 6 years 3 months

Posts: 19677

Post 09-Dec-2019 23:26

[Quote]



Maiden United

The Barrel House Tapes




• Жанр: Acoustic Rock
• Носитель: WEB
• Год издания: 2019
• Издатель: Yazmine Park
• Страна: Netherlands | UK
• Аудиокодек: FLAC (*.flac)
• Тип рипа: tracks
• Продолжительность: 00:47:23
internet
• Наличие сканов: front
Tracklist:
01 - Tavern the Last Bow (00:01:15)
02 - The Number of the Beast (00:03:14)
03 - Back in the Village (00:04:27)
04 - Alexander the Great (00:05:15)
05 - Wasting Love (00:05:46)
06 - Powerslave (00:05:09)
07 - Stranger in a Strange Land (00:04:16)
08 - Phantom of the Opera (00:05:31)
09 - Montsegur (00:06:00)
10 - Sanctuary (00:02:36)
11 - Caught Somewhere in Time (Bonus Track) (00:03:50)
-
-

• Лог DRM •

foobar2000 1.4.2 / Dynamic Range Meter 1.1.1log date: 2019-12-09 18:25:51
--------------------------------------------------------------------------------Analyzed: Maiden uniteD / The Barrel House Tapes--------------------------------------------------------------------------------
DR Peak RMS Duration Track--------------------------------------------------------------------------------DR10 -5.10 dB -17.52 dB 1:15 01-Tavern the Last BowDR9 -0.35 dB -11.62 dB 3:14 02-The Number of the BeastDR9 0.00 dB -10.27 dB 4:28 03-Back in the VillageDR9 -3.85 dB -15.33 dB 5:15 04-Alexander the GreatDR7 -0.85 dB -9.57 dB 5:47 05-Wasting LoveDR8 -0.10 dB -11.99 dB 5:10 06-PowerslaveDR9 -1.00 dB -11.27 dB 4:17 07-Stranger in a Strange LandDR8 -0.35 dB -10.04 dB 5:31 08-Phantom of the OperaDR9 -0.52 dB -12.39 dB 6:00 09-MontsegurDR11 -0.35 dB -12.66 dB 2:36 10-SanctuaryDR6 -2.50 dB -11.30 dB 3:50 11-Caught Somewhere in Time (Bonus Track)--------------------------------------------------------------------------------
Number of tracks: 11Official DR value: DR9
Samplerate: 44100 HzChannels: 2Bits per sample: 16Bitrate: 840 kbpsCodec: FLAC================================================================================
-

• Лог проверки качества •

-----------------------
DON'T MODIFY THIS FILE
-----------------------
PERFORMER: auCDtect Task Manager, ver. 1.6.0 RC1 build 1.6.0.1Copyright (c) 2008-2010 y-soft. All rights reservedhttp://y-soft.org
ANALYZER: auCDtect: CD records authenticity detector, version 0.8.2Copyright (c) 2004 Oleg Berngardt. All rights reserved.Copyright (c) 2004 Alexander Djourik. All rights reserved.
FILE: 11 - Caught Somewhere in Time (Bonus Track).flac Size: 24552107 Hash: 9366B6A1F40AC4A5F922A1C84D47022D Accuracy: -m8 Conclusion: CDDA 100% Signature: F98C571116366591D37FD451C4B6955129E2911CFILE: 10 - Sanctuary.flac Size: 16978555 Hash: B5A76C0C7DC0B1BA1D94E3137175AD07 Accuracy: -m8 Conclusion: CDDA 100% Signature: 5F23CFDA22A1C1F7423875FCFA9C14A4CCEB5DD7FILE: 09 - Montsegur.flac Size: 38514840 Hash: 130B8CB6ED5E0B75B3E5AC38DACBF079 Accuracy: -m8 Conclusion: CDDA 100% Signature: 4B185C5B2FBA01CC67A9F5548C9222E59E55DD88FILE: 08 - Phantom of the Opera.flac Size: 34937426 Hash: 7A7DE4365938BC28CAB551825D8AC602 Accuracy: -m8 Conclusion: CDDA 100% Signature: A5A2AF03A539445FF96A847B7A90F852B40DE9D4FILE: 07 - Stranger in a Strange Land.flac Size: 27266291 Hash: 3293C0696124186F127615D0E226A313 Accuracy: -m8 Conclusion: CDDA 100% Signature: F973588B14F25FAB5CA4C868A9B6AF64B5572020FILE: 06 - Powerslave.flac Size: 26921788 Hash: FCF8B969555028706D7989F70C376EA1 Accuracy: -m8 Conclusion: CDDA 99% Signature: C391D2C51805CEB1DCD5424B7A1D251003625955FILE: 05 - Wasting Love.flac Size: 41460037 Hash: 8310DA9097C7AB0657DDEC0AB1B2110E Accuracy: -m8 Conclusion: CDDA 100% Signature: 77F899035D38066570C2561D3A857294B5182F74FILE: 04 - Alexander the Great.flac Size: 29318845 Hash: 8AC80C2253EA7720D5613FFFB5B86293 Accuracy: -m8 Conclusion: CDDA 100% Signature: F92C6A74CC42ACC55D79EF012CD1A4D27FA7060BFILE: 03 - Back in the Village.flac Size: 30859925 Hash: E0E8F52759F9DC4BA81D32E9E037A17B Accuracy: -m8 Conclusion: CDDA 100% Signature: 397BFBB4E275EA358A67A94B06E7F6596F6F5F9CFILE: 02 - The Number of the Beast.flac Size: 21208208 Hash: 9D78CE61F44AC933080A976D832ADB08 Accuracy: -m8 Conclusion: CDDA 100% Signature: 880310FC04C5363A4DC12469FE9DA6C4F8B8BEBEFILE: 01 - Tavern the Last Bow.flac Size: 7468436 Hash: 51A1733E602EE5F0082B83C189A529F6 Accuracy: -m8 Conclusion: CDDA 100% Signature: 19C9B77C3DF4D58CF4D2CB2A4A983E31A5F03F91
-[url=out.php?url=http%3A%2F%2Fwww.maidenunited.com%2F&p=78469168&t=5817628&f=1705&u=24462375] [/url]
[ru-zerkalo.org]_t_5817721
Torrent: Registered ·  [ 2019-12-09 23:26 ] ·  703dc5962b9d17a088d2f4160762e63811dcf326

12 KB

Status: checked
Completed: 0 times
Size: 286 MB
Rating: 
(Votes: 0)
Say thanks: 0  Thanks
 
Похожие темы
[Profile] [PM]
Display posts from previous:    
Reply to topic

The time now is: Today 02:11

All times are GMT + 7 Hours



You cannot post new topics in this forum
You cannot reply to topics in this forum
You cannot edit your posts in this forum
You cannot delete your posts in this forum
You cannot vote in polls in this forum
You cannot attach files in this forum
You can download files in this forum