Register · 
Username: Password:
 ·  Forgot password?

(Classic Rock) [CD] Mott The Hoople - All The Young Dudes [Columbia, CK 31750, USA, 199...] - 1972, FLAC (tracks+.cue), lossless

Reply to topic
DL-List and Torrent activity [Update пиров]
Size:  261 MB   |    Registered:  1 month 9 days   |    Completed:  0 times

Seeder not seen: Never

 
   
 
 
 
Author Message

manic-manic ®

Gender:

Longevity: 6 years 3 months

Posts: 14161

Post 10-Dec-2019 01:30

[Quote]

Mott The Hoople / All The Young Dudes
Жанр: Classic Rock
Носитель: CD
Страна-производитель диска (релиза): USA
Год издания: 1972/199...
Издатель (лейбл): Columbia
Номер по каталогу: CK 31750
Страна исполнителя (группы): UK
Аудиокодек: FLAC (*.flac)
Тип рипа: tracks+.cue
Продолжительность: 00:40:57
Источник: isaidwoof
Наличие сканов в содержимом раздачи: да

Reissue. With IFPI code.
Треклист:
01. Sweet Jane
02. Moma's Little Jewel
03. All The Young Dudes
04. Sucker
05. Jerkin' Crocus
06. One Of The Boys
07. Soft Ground
08. Ready For Love / After Lights
09. Sea Diver

Лог создания рипа

Exact Audio Copy V1.0 beta 3 from 29. August 2011
EAC extraction logfile from 7. December 2013, 23:21
Mott the Hoople / All the Young Dudes [1987 Columbia Records]
Used drive : LITE-ON CD-RW SOHR-5238S Adapter: 1 ID: 0
Read mode : SecureUtilize accurate stream : YesDefeat audio cache : YesMake use of C2 pointers : No
Read offset correction : 6Overread into Lead-In and Lead-Out : NoFill up missing offset samples with silence : YesDelete leading and trailing silent blocks : NoNull samples used in CRC calculations : YesUsed interface : Native Win32 interface for Win NT & 2000Gap handling : Appended to previous track
Used output format : User Defined EncoderSelected bitrate : 1024 kBit/sQuality : HighAdd ID3 tag : NoCommand line compressor : C:\Program Files\Exact Audio Copy\FLAC\FLAC.EXEAdditional command line options : -8 -V -T "ARTIST=%artist%" -T "TITLE=%title%" -T "ALBUM=%albumtitle%" -T "DATE=%year%" -T "TRACKNUMBER=%tracknr%" -T "GENRE=%genre%" -T "COMMENT=%comment%" %source% -o %dest%
TOC of the extracted CD
Track | Start | Length | Start sector | End sector --------------------------------------------------------- 1 | 0:00.00 | 4:21.20 | 0 | 19594 2 | 4:21.20 | 4:26.65 | 19595 | 39609 3 | 8:48.10 | 3:32.10 | 39610 | 55519 4 | 12:20.20 | 5:00.55 | 55520 | 78074 5 | 17:21.00 | 4:01.67 | 78075 | 96216 6 | 21:22.67 | 6:46.40 | 96217 | 126706 7 | 28:09.32 | 3:19.38 | 126707 | 141669 8 | 31:28.70 | 6:47.52 | 141670 | 172246 9 | 38:16.47 | 2:55.00 | 172247 | 185371
Track 1
Filename C:\Mott the Hoople - All the Young Dudes [1987 Columbia Records]\01 - Sweet Jane.wav
Pre-gap length 0:00:02.00
Peak level 100.0 % Extraction speed 5.2 X Track quality 99.9 % Test CRC 6EDAF9E3 Copy CRC 6EDAF9E3 Accurately ripped (confidence 3) [8414EDB0] (AR v1) Copy OK
Track 2
Filename C:\Mott the Hoople - All the Young Dudes [1987 Columbia Records]\02 - Momma's Little Jewel.wav
Pre-gap length 0:00:02.15
Peak level 100.0 % Extraction speed 6.0 X Track quality 100.0 % Test CRC 6DEA2739 Copy CRC 6DEA2739 Accurately ripped (confidence 3) [FF82039C] (AR v1) Copy OK
Track 3
Filename C:\Mott the Hoople - All the Young Dudes [1987 Columbia Records]\03 - All the Young Dudes.wav
Peak level 100.0 % Extraction speed 5.8 X Track quality 99.9 % Test CRC E64C8BB3 Copy CRC E64C8BB3 Accurately ripped (confidence 3) [5CD04BA9] (AR v1) Copy OK
Track 4
Filename C:\Mott the Hoople - All the Young Dudes [1987 Columbia Records]\04 - Sucker.wav
Pre-gap length 0:00:02.20
Peak level 100.0 % Extraction speed 7.3 X Track quality 100.0 % Test CRC 62D27831 Copy CRC 62D27831 Accurately ripped (confidence 3) [176451DF] (AR v1) Copy OK
Track 5
Filename C:\Mott the Hoople - All the Young Dudes [1987 Columbia Records]\05 - Jerkin' Crocus.wav
Pre-gap length 0:00:02.08
Peak level 100.0 % Extraction speed 7.6 X Track quality 100.0 % Test CRC F2468D07 Copy CRC F2468D07 Accurately ripped (confidence 3) [F333EFD2] (AR v1) Copy OK
Track 6
Filename C:\Mott the Hoople - All the Young Dudes [1987 Columbia Records]\06 - One of the Boys.wav
Pre-gap length 0:00:02.00
Peak level 100.0 % Extraction speed 8.4 X Track quality 100.0 % Test CRC FABFB58F Copy CRC FABFB58F Accurately ripped (confidence 3) [2A6A03D1] (AR v1) Copy OK
Track 7
Filename C:\Mott the Hoople - All the Young Dudes [1987 Columbia Records]\07 - Soft Ground.wav
Pre-gap length 0:00:02.20
Peak level 100.0 % Extraction speed 7.2 X Track quality 99.9 % Test CRC 0B5922BF Copy CRC 0B5922BF Accurately ripped (confidence 3) [AFDC9B15] (AR v1) Copy OK
Track 8
Filename C:\Mott the Hoople - All the Young Dudes [1987 Columbia Records]\08 - Ready for Love - After Lights.wav
Pre-gap length 0:00:01.55
Peak level 100.0 % Extraction speed 8.6 X Track quality 99.9 % Test CRC 5EC4B9DB Copy CRC 5EC4B9DB Accurately ripped (confidence 3) [E78A84BC] (AR v1) Copy OK
Track 9
Filename C:\Mott the Hoople - All the Young Dudes [1987 Columbia Records]\09 - Sea Diver.wav
Pre-gap length 0:00:02.00
Peak level 94.9 % Extraction speed 8.6 X Track quality 100.0 % Test CRC 86F465D5 Copy CRC 86F465D5 Accurately ripped (confidence 3) [5C64F156] (AR v1) Copy OK
All tracks accurately ripped
No errors occurred
End of status report
==== Log checksum 5A29F73722D0B91FEAC1019504D9BD0CE23FFED22DF8955D1FEB8AE582B5A3C8 ====

Содержание индексной карты (.CUE)

REM GENRE "Rock"REM DATE "1972"REM DISCID 7109A709REM COMMENT "ExactAudioCopy v1.0b3"PERFORMER "Mott the Hoople"TITLE "All the Young Dudes"FILE "01 - Sweet Jane.wav" WAVE TRACK 01 AUDIO TITLE "Sweet Jane" PERFORMER "Mott the Hoople" INDEX 01 00:00:00 TRACK 02 AUDIO TITLE "Momma's Little Jewel" PERFORMER "Mott the Hoople" INDEX 00 04:19:05FILE "02 - Momma's Little Jewel.wav" WAVE INDEX 01 00:00:00FILE "03 - All the Young Dudes.wav" WAVE TRACK 03 AUDIO TITLE "All the Young Dudes" PERFORMER "Mott the Hoople" INDEX 01 00:00:00 TRACK 04 AUDIO TITLE "Sucker" PERFORMER "Mott the Hoople" INDEX 00 03:29:65FILE "04 - Sucker.wav" WAVE INDEX 01 00:00:00 TRACK 05 AUDIO TITLE "Jerkin' Crocus" PERFORMER "Mott the Hoople" INDEX 00 04:58:47FILE "05 - Jerkin' Crocus.wav" WAVE INDEX 01 00:00:00 TRACK 06 AUDIO TITLE "One of the Boys" PERFORMER "Mott the Hoople" INDEX 00 03:59:67FILE "06 - One of the Boys.wav" WAVE INDEX 01 00:00:00 TRACK 07 AUDIO TITLE "Soft Ground" PERFORMER "Mott the Hoople" INDEX 00 06:44:20FILE "07 - Soft Ground.wav" WAVE INDEX 01 00:00:00 TRACK 08 AUDIO TITLE "Ready for Love / After Lights" PERFORMER "Mott the Hoople" INDEX 00 03:17:58FILE "08 - Ready for Love - After Lights.wav" WAVE INDEX 01 00:00:00 INDEX 02 04:25:55 TRACK 09 AUDIO TITLE "Sea Diver" PERFORMER "Mott the Hoople" INDEX 00 06:45:52FILE "09 - Sea Diver.wav" WAVE INDEX 01 00:00:00

AccurateRip

[CUETools log; Date: 09.12.2019 19:06:11; Version: 2.1.5][CTDB TOCID: wBfKV8LqN_b1.Woq9WyP7u2QRgg-] found.Track | CTDB Status 1 | (35/38) Accurately ripped 2 | (35/38) Accurately ripped 3 | (35/38) Accurately ripped 4 | (35/38) Accurately ripped 5 | (35/38) Accurately ripped 6 | (35/38) Accurately ripped 7 | (35/38) Accurately ripped 8 | (35/38) Accurately ripped 9 | (35/38) Accurately ripped[AccurateRip ID: 000df645-0067553e-7109a709] found.Track [ CRC | V2 ] Status 01 [8414edb0|82a02db9] (03+02/37) Accurately ripped 02 [ff82039c|38e54a9c] (03+02/34) Accurately ripped 03 [5cd04ba9|76c20b49] (03+02/37) Accurately ripped 04 [176451df|db286c01] (03+02/37) Accurately ripped 05 [f333efd2|90630d25] (03+02/38) Accurately ripped 06 [2a6a03d1|dfff785f] (03+02/37) Accurately ripped 07 [afdc9b15|6fd0ba4f] (03+02/36) Accurately ripped 08 [e78a84bc|8e2bc4b3] (03+02/37) Accurately ripped 09 [5c64f156|27698dc2] (03+02/36) Accurately rippedOffsetted by -1481: 01 [573d82cf] (03/37) Accurately ripped 02 [b8a44719] (03/34) Accurately ripped 03 [88ce98b5] (03/37) Accurately ripped 04 [bcc10cd9] (03/37) Accurately ripped 05 [c556bf11] (03/38) Accurately ripped 06 [94ce38d6] (03/37) Accurately ripped 07 [2bd3817b] (03/36) Accurately ripped 08 [97b7bbba] (03/37) Accurately ripped 09 [cd66c7b8] (03/36) Accurately rippedOffsetted by 945: 01 [20c7de39] (04/37) Accurately ripped 02 [dba22ca4] (03/34) Accurately ripped 03 [d1968e18] (05/37) Accurately ripped 04 [c13caed5] (03/37) Accurately ripped 05 [9e8e413b] (03/38) Accurately ripped 06 [a18ed984] (03/37) Accurately ripped 07 [488ff5bf] (02/36) Accurately ripped 08 [2e5a7b0e] (03/37) Accurately ripped 09 [b1ee66a4] (03/36) Accurately ripped
Track Peak [ CRC32 ] [W/O NULL] [ LOG ] -- 100,0 [75F24DFD] [D737DD61] 01 100,0 [6EDAF9E3] [29DADDAB] CRC32 02 100,0 [6DEA2739] [101915AE] CRC32 03 100,0 [E64C8BB3] [5A63D350] CRC32 04 100,0 [62D27831] [9976A1AD] CRC32 05 100,0 [F2468D07] [50FC5844] CRC32 06 100,0 [FABFB58F] [A1C31B7D] CRC32 07 100,0 [0B5922BF] [439A1D5E] CRC32 08 100,0 [5EC4B9DB] [0DA54CC8] CRC32 09 94,9 [86F465D5] [706B029B] CRC32
[ru-zerkalo.org]_t_5817738
Torrent: Registered ·  [ 2019-12-10 01:30 ] ·  8af083d25e7201d8abcbeec62b914eae76bf8626

12 KB

Status: checked
Completed: 0 times
Size: 261 MB
Rating: 
(Votes: 0)
Say thanks: 0  Thanks
 
Похожие темы
[Profile] [PM]
Display posts from previous:    
Reply to topic

The time now is: Today 02:17

All times are GMT + 7 Hours



You cannot post new topics in this forum
You cannot reply to topics in this forum
You cannot edit your posts in this forum
You cannot delete your posts in this forum
You cannot vote in polls in this forum
You cannot attach files in this forum
You can download files in this forum