Register · 
Username: Password:
 ·  Forgot password?

(Power Noise, Deconstructed Club) [WEB][Mixtape] Maral - Mahur Club [l. Astral Plane Recordings] - 2019, FLAC (tracks), lossless

Reply to topic
DL-List and Torrent activity [Update пиров]
Size:  170 MB   |    Registered:  1 month 8 days   |    Completed:  0 times

Seeder not seen: Never

 
   
 
 
 
Author Message

manic-manic ®

Gender:

Longevity: 6 years 4 months

Posts: 14246

Post 12-Jan-2020 19:27

[Quote]

Maral
"Mahur Club" [Mixtape] 2019
_________________________________
ЖАНРЫ: Power Noise | Deconstructed Club | Reggaeton
MARAL (currently): United States (Los Angeles, CA)
ИЗДАТЕЛЬ: Astral Plane Recordings (USA)
НОМЕР ПО КАТАЛОГУ: APR 121
ИСТОЧНИК: # сомнительный
ФОРМАТ: WEB | Album
КОДЕК: FLAC (*.flac)
ТИП РИПА: tracks
БИТРЕЙТ: lossless
.
track listing
01. Lori Lullaby (01:44)
02. Joonie's Jam (02:28)
03. Avesta Khani Reggaeton (03:04)
04. In This Place (هیچ) (01:37)
05. The Empty Edit (02:05)
06. Oi (01:45)
07. Lorestan Reggaeton (00:48)
08. Setar Shred (01:58)
09. Mahur Club (03:08)
10. So Glad I Found U (02:10)
11. Coy Dub (02:28)
12. Don't Trip on Your Way Down (02:21)
13. (Un)easy (01:09)
14. Try / Again (01:39)
15. The Wind Will Carry Us (02:00)
total length (00:30:18)

—DON'T MODIFY THIS FILE

-----------------------
DON'T MODIFY THIS FILE
-----------------------
PERFORMER: auCDtect Task Manager, ver. 1.6.0 RC1 build 1.6.0.1Copyright (c) 2008-2010 y-soft. All rights reserved
ANALYZER: auCDtect: CD records authenticity detector, version 0.8.2Copyright (c) 2004 Oleg Berngardt. All rights reserved.Copyright (c) 2004 Alexander Djourik. All rights reserved.
FILE: 15. The Wind Will Carry Us.flac Size: 11970547 Hash: 04C6BF6FC82BE9A3FB394AE824E805B1 Accuracy: -m0 Conclusion: CDDA 100% Signature: 4BB0AAABEABFE80C082B84381A3F4520A51243A4FILE: 14. Try _ Again.flac Size: 11391364 Hash: 52726ABFA3AE27524F94DED2B0DB338D Accuracy: -m0 Conclusion: MPEG 95% Signature: 9F73146452FB8530D063100188645F7C94728148FILE: 13. (Un)easy.flac Size: 6179424 Hash: 978EE5AFF76D88744B50FF907623AD84 Accuracy: -m0 Conclusion: CDDA 100% Signature: 671973ACBD86F950C290B56F2C02FE57603F995AFILE: 12. Don't Trip on Your Way Down.flac Size: 14762137 Hash: F29B0F3EEEDC96B490AE69DD99973364 Accuracy: -m0 Conclusion: MPEG 95% Signature: E12BCB5595FD2D5261E915F823B26A1979E9988EFILE: 11. Coy Dub.flac Size: 16660832 Hash: BC8830E56F35448AFEA913B5F4BA3B63 Accuracy: -m0 Conclusion: MPEG 95% Signature: 80149DEB4F1C7B277816704ECFB3B1981D54D1B8FILE: 10. So Glad I Found U.flac Size: 13351847 Hash: 26A2815AB6FBB1EE2BB32CE65C1C73F9 Accuracy: -m0 Conclusion: CDDA 100% Signature: 22EDAB942C551DBBB5A803035C6E1DCF5F98E0EAFILE: 09. Mahur Club.flac Size: 16908376 Hash: 9CDA549D10CF457C18814A4FA363AA15 Accuracy: -m0 Conclusion: MPEG 95% Signature: E9A1342FF110B2312B867EB97254E762CB51E0FCFILE: 08. Setar Shred.flac Size: 11423558 Hash: 73C04F0E879230AC983B4E6C19232134 Accuracy: -m0 Conclusion: MPEG 95% Signature: 6E1908A5C6A4CDE53F932FEC7352A64C85BE5220FILE: 07. Lorestan Reggaeton.flac Size: 3992253 Hash: 4C0B2E1A820DC5322EF84FD255A816DC Accuracy: -m0 Conclusion: CDDA 100% Signature: 9523E52EF89F2FA7BE8E404C162CA2A25CE93DD5FILE: 06. Oi.flac Size: 8562993 Hash: 27251749EF77ED0A9E009CFEF3293DF6 Accuracy: -m0 Conclusion: MPEG 95% Signature: F63B039BCA06B0F2810F3D34565EEA7765B4DD55FILE: 05. The Empty Edit.flac Size: 12510946 Hash: 955683FA7797D2F29249B84010E02411 Accuracy: -m0 Conclusion: MPEG 95% Signature: 6127D022C2CDF3FC256652B98EA30E0C155A6728FILE: 04. In This Place (هیچ).flac Size: 9178293 Hash: A6421BDB2937A5ADD8583DBADD27DED3 Accuracy: -m0 Conclusion: CDDA 100% Signature: 1E79AC7FCC9F26FF154CCAB54BE662508548A548FILE: 03. Avesta Khani Reggaeton.flac Size: 16952374 Hash: 97EAE83FAB554E41F20353AD6F781710 Accuracy: -m0 Conclusion: MPEG 95% Signature: E717D8EC385357C00B15B325574B89A3D9620B8BFILE: 02. Joonie's Jam.flac Size: 13716092 Hash: 1DF7D8A96CD11F8E403FB5EE48755118 Accuracy: -m0 Conclusion: MPEG 95% Signature: 4FE24B735FD9B2A6D4B8116E6A9230D0C584131FFILE: 01. Lori Lullaby.flac Size: 8773245 Hash: 2706CE106557C70DF61D8ED3DD0F6AB2 Accuracy: -m0 Conclusion: CDDA 100% Signature: 134AA16D00BA11AA83C2FBB735C17A91077621E9

DR

foobar2000 1.3.9 / Dynamic Range Meter 1.1.1log date: 2019-11-29 07:22:24
--------------------------------------------------------------------------------Analyzed: Maral / Mahur Club--------------------------------------------------------------------------------
DR Peak RMS Duration Track--------------------------------------------------------------------------------DR4 0.00 dB -6.55 dB 1:43 01-Lori LullabyDR5 0.00 dB -6.62 dB 2:27 02-Joonie's JamDR5 -0.02 dB -6.50 dB 3:04 03-Avesta Khani ReggaetonDR5 -0.02 dB -5.67 dB 1:37 04-In This Place (هیچ)DR5 0.00 dB -7.30 dB 2:05 05-The Empty EditDR5 0.00 dB -5.86 dB 1:45 06-OiDR5 0.00 dB -6.23 dB 0:48 07-Lorestan ReggaetonDR7 0.00 dB -7.91 dB 1:58 08-Setar ShredDR5 0.00 dB -6.58 dB 3:07 09-Mahur ClubDR5 0.00 dB -6.55 dB 2:09 10-So Glad I Found UDR10 0.00 dB -12.26 dB 2:27 11-Coy DubDR7 -0.02 dB -7.77 dB 2:20 12-Don't Trip on Your Way DownDR5 0.00 dB -6.77 dB 1:09 13-(Un)easyDR4 0.00 dB -6.13 dB 1:39 14-Try / AgainDR8 0.00 dB -9.68 dB 1:59 15-The Wind Will Carry Us--------------------------------------------------------------------------------
Number of tracks: 15Official DR value: DR6
Samplerate: 44100 HzChannels: 2Bits per sample: 16Bitrate: 799 kbpsCodec: FLAC================================================================================
[ru-zerkalo.org]_t_5813358
Torrent: Registered ·  [ 2020-01-12 19:23 ] ·  4d97cbdd815c590ae0ef1ecf387056bd20e18730

15 KB

Status: checked
Completed: 0 times
Size: 170 MB
Rating: 
(Votes: 0)
Say thanks: 0  Thanks
 
Похожие темы
[Profile] [PM]
Display posts from previous:    
Reply to topic

The time now is: Today 03:18

All times are GMT + 7 Hours



You cannot post new topics in this forum
You cannot reply to topics in this forum
You cannot edit your posts in this forum
You cannot delete your posts in this forum
You cannot vote in polls in this forum
You cannot attach files in this forum
You can download files in this forum