Register · 
Username: Password:
 ·  Forgot password?

(Nu Jazz) [CD] Ishmael Ensemble - A State of Flow - 2019, FLAC (tracks+.cue), lossless

Reply to topic
DL-List and Torrent activity [Update пиров]
Size:  324 MB   |    Registered:  1 month 5 days   |    Completed:  0 times

Seeder not seen: Never

 
   
 
 
 
Author Message

Makci ®

Gender:

Longevity: 6 years 4 months

Posts: 12865

Post 15-Jan-2020 19:00

[Quote]

Ishmael Ensemble. "A State of Flow"
.
Жанры. Nu Jazz, House, Jazz Fusion
Страна [currently]. UK (Bristol, City of Bristol)
Издатель. Seven Songs (UK)
Номер по каталогу. SEVS 004
Год издания. 2019
Носитель. CD
Аудиокодек. FLAC (*.flac)
Тип рипа. tracks+.cue
Источник. redacted.ch
Продолжительность. 00:54:16
.
Треклист
01. .The Chapel .[04:39]
02. .Full Circle (feat. Holysseus Fly) .[04:24]
03. .Siren! .[02:49]
04. .Lapwing .[05:02]
05. .Yellow House (feat. Yama Warashi) .[03:24]
06. .The River (feat. Yazz Ahmed) .[05:17]
07. .First Light .[04:33]
08. .Waterfall (feat. Holysseus Fly) .[04:06]
09. .Surge .[06:12]
10. .Yellow Dub .[05:02]
11. .Tunnels .[03:19]
12. .The River (Reprise) .[05:33]

eac

Exact Audio Copy V1.1 from 23. June 2015
EAC extraction logfile from 13. October 2019, 5:33
Ishmael Ensemble / A State Of Flow
Used drive : TSSTcorpCDDVDW SH-S223B Adapter: 1 ID: 0
Read mode : SecureUtilize accurate stream : YesDefeat audio cache : YesMake use of C2 pointers : No
Read offset correction : 6Overread into Lead-In and Lead-Out : NoFill up missing offset samples with silence : YesDelete leading and trailing silent blocks : NoNull samples used in CRC calculations : YesUsed interface : Native Win32 interface for Win NT & 2000Gap handling : Appended to previous track
Used output format : User Defined EncoderSelected bitrate : 1024 kBit/sQuality : HighAdd ID3 tag : NoCommand line compressor : C:\Program Files (x86)\Exact Audio Copy\Flac\flac.exeAdditional command line options : -8 -V -T "ARTIST=%artist%" -T "TITLE=%title%" -T "ALBUM=%albumtitle%" -T "DATE=%year%" -T "TRACKNUMBER=%tracknr%" -T "GENRE=%genre%" -T "PERFORMER=%albuminterpret%" -T "COMPOSER=%composer%" %haslyrics%--tag-from-file=LYRICS="%lyricsfile%"%haslyrics% -T "ALBUMARTIST=%albumartist%" -T "DISCNUMBER=%cdnumber%" -T "TOTALDISCS=%totalcds%" -T "TOTALTRACKS=%numtracks%" -T "COMMENT=%comment%" %source% -o %dest%
TOC of the extracted CD
Track | Start | Length | Start sector | End sector --------------------------------------------------------- 1 | 0:00.00 | 4:38.58 | 0 | 20907 2 | 4:38.58 | 4:23.21 | 20908 | 40653 3 | 9:02.04 | 2:48.15 | 40654 | 53268 4 | 11:50.19 | 5:02.00 | 53269 | 75918 5 | 16:52.19 | 3:23.37 | 75919 | 91180 6 | 20:15.56 | 5:16.55 | 91181 | 114935 7 | 25:32.36 | 4:32.57 | 114936 | 135392 8 | 30:05.18 | 4:05.51 | 135393 | 153818 9 | 34:10.69 | 6:11.74 | 153819 | 181717 10 | 40:22.68 | 5:01.49 | 181718 | 204341 11 | 45:24.42 | 3:18.59 | 204342 | 219250 12 | 48:43.26 | 5:32.10 | 219251 | 244160
Track 1
Filename C:\Users\DJ\EAC Rips\Ishmael Ensemble-A State Of Flow(Special Edition CD) 2019 FLAC\01 - The Chapel.wav
Pre-gap length 0:00:02.00
Peak level 99.8 % Extraction speed 4.9 X Track quality 100.0 % Test CRC 490532D8 Copy CRC 490532D8 Track not present in AccurateRip database Copy OK
Track 2
Filename C:\Users\DJ\EAC Rips\Ishmael Ensemble-A State Of Flow(Special Edition CD) 2019 FLAC\02 - Full Circle(Feat. Holysseus Fly).wav
Peak level 99.9 % Extraction speed 4.4 X Track quality 99.9 % Test CRC 0D1537F4 Copy CRC 0D1537F4 Track not present in AccurateRip database Copy OK
Track 3
Filename C:\Users\DJ\EAC Rips\Ishmael Ensemble-A State Of Flow(Special Edition CD) 2019 FLAC\03 - Siren!.wav
Peak level 97.7 % Extraction speed 5.3 X Track quality 100.0 % Test CRC 2E730759 Copy CRC 2E730759 Track not present in AccurateRip database Copy OK
Track 4
Filename C:\Users\DJ\EAC Rips\Ishmael Ensemble-A State Of Flow(Special Edition CD) 2019 FLAC\04 - Lapwing.wav
Peak level 99.9 % Extraction speed 6.1 X Track quality 100.0 % Test CRC 8344481C Copy CRC 8344481C Track not present in AccurateRip database Copy OK
Track 5
Filename C:\Users\DJ\EAC Rips\Ishmael Ensemble-A State Of Flow(Special Edition CD) 2019 FLAC\05 - Yellow House(Feat. Yama Warashi).wav
Peak level 99.9 % Extraction speed 4.7 X Track quality 99.9 % Test CRC 667D5BAA Copy CRC 667D5BAA Track not present in AccurateRip database Copy OK
Track 6
Filename C:\Users\DJ\EAC Rips\Ishmael Ensemble-A State Of Flow(Special Edition CD) 2019 FLAC\06 - The River(Feat. Yazz Ahmed).wav
Peak level 99.9 % Extraction speed 5.7 X Track quality 99.9 % Test CRC 9FBF6B34 Copy CRC 9FBF6B34 Track not present in AccurateRip database Copy OK
Track 7
Filename C:\Users\DJ\EAC Rips\Ishmael Ensemble-A State Of Flow(Special Edition CD) 2019 FLAC\07 - First Light.wav
Peak level 94.2 % Extraction speed 7.0 X Track quality 100.0 % Test CRC A01E095D Copy CRC A01E095D Track not present in AccurateRip database Copy OK
Track 8
Filename C:\Users\DJ\EAC Rips\Ishmael Ensemble-A State Of Flow(Special Edition CD) 2019 FLAC\08 - Waterfall(Feat. Holysseus Fly).wav
Peak level 99.8 % Extraction speed 5.8 X Track quality 99.9 % Test CRC 98D7361A Copy CRC 98D7361A Track not present in AccurateRip database Copy OK
Track 9
Filename C:\Users\DJ\EAC Rips\Ishmael Ensemble-A State Of Flow(Special Edition CD) 2019 FLAC\09 - Surge.wav
Peak level 99.8 % Extraction speed 7.9 X Track quality 100.0 % Test CRC C6F0069D Copy CRC C6F0069D Track not present in AccurateRip database Copy OK
Track 10
Filename C:\Users\DJ\EAC Rips\Ishmael Ensemble-A State Of Flow(Special Edition CD) 2019 FLAC\10 - Yellow Dub.wav
Peak level 99.7 % Extraction speed 8.1 X Track quality 100.0 % Test CRC 9D8ED707 Copy CRC 9D8ED707 Track not present in AccurateRip database Copy OK
Track 11
Filename C:\Users\DJ\EAC Rips\Ishmael Ensemble-A State Of Flow(Special Edition CD) 2019 FLAC\11 - Tunnels.wav
Peak level 98.8 % Extraction speed 7.8 X Track quality 100.0 % Test CRC 96EC6D7D Copy CRC 96EC6D7D Track not present in AccurateRip database Copy OK
Track 12
Filename C:\Users\DJ\EAC Rips\Ishmael Ensemble-A State Of Flow(Special Edition CD) 2019 FLAC\12 - The River(Reprise).wav
Peak level 99.7 % Extraction speed 8.6 X Track quality 100.0 % Test CRC BF5E156B Copy CRC BF5E156B Track not present in AccurateRip database Copy OK
None of the tracks are present in the AccurateRip database
No errors occurred
End of status report
---- CUETools DB Plugin V2.1.6
[CTDB TOCID: 3Bw2kXbUyhJjWlf9TvM0sEDiKV4-] disk not present in databaseSubmit result: 3Bw2kXbUyhJjWlf9TvM0sEDiKV4- has been uploaded
==== Log checksum 18BEC44459F3848ECD95EE0353C3AC4A0BBEAC6874BAB3CC0A47EED2F07A436A ====

.cue

REM GENRE "Nu Jazz"REM DATE 2019REM DISCID 890CB70CREM COMMENT "ExactAudioCopy v1.1"PERFORMER "Ishmael Ensemble"TITLE "A State of Flow"FILE "01. The Chapel.wav" WAVE TRACK 01 AUDIO TITLE "The Chapel" PERFORMER "Ishmael Ensemble" INDEX 01 00:00:00FILE "02. Full Circle (feat. Holysseus Fly).wav" WAVE TRACK 02 AUDIO TITLE "Full Circle (feat. Holysseus Fly)" PERFORMER "Ishmael Ensemble" INDEX 01 00:00:00FILE "03. Siren!.wav" WAVE TRACK 03 AUDIO TITLE "Siren!" PERFORMER "Ishmael Ensemble" INDEX 01 00:00:00FILE "04. Lapwing.wav" WAVE TRACK 04 AUDIO TITLE "Lapwing" PERFORMER "Ishmael Ensemble" INDEX 01 00:00:00FILE "05. Yellow House (feat. Yama Warashi).wav" WAVE TRACK 05 AUDIO TITLE "Yellow House (feat. Yama Warashi)" PERFORMER "Ishmael Ensemble" INDEX 01 00:00:00FILE "06. The River (feat. Yazz Ahmed).wav" WAVE TRACK 06 AUDIO TITLE "The River (feat. Yazz Ahmed)" PERFORMER "Ishmael Ensemble" INDEX 01 00:00:00FILE "07. First Light.wav" WAVE TRACK 07 AUDIO TITLE "First Light" PERFORMER "Ishmael Ensemble" INDEX 01 00:00:00FILE "08. Waterfall (feat. Holysseus Fly).wav" WAVE TRACK 08 AUDIO TITLE "Waterfall (feat. Holysseus Fly)" PERFORMER "Ishmael Ensemble" INDEX 01 00:00:00FILE "09. Surge.wav" WAVE TRACK 09 AUDIO TITLE "Surge" PERFORMER "Ishmael Ensemble" INDEX 01 00:00:00FILE "10. Yellow Dub.wav" WAVE TRACK 10 AUDIO TITLE "Yellow Dub" PERFORMER "Ishmael Ensemble" INDEX 01 00:00:00FILE "11. Tunnels.wav" WAVE TRACK 11 AUDIO TITLE "Tunnels" PERFORMER "Ishmael Ensemble" INDEX 01 00:00:00FILE "12. The River (Reprise).wav" WAVE TRACK 12 AUDIO TITLE "The River (Reprise)" PERFORMER "Ishmael Ensemble" INDEX 01 00:00:00
[ru-zerkalo.org]_t_5828134
Torrent: Registered ·  [ 2020-01-15 19:00 ] ·  22791926e7fbdc5f356ac5c3fd8c40690cf25a78

14 KB

Status: checked
Completed: 0 times
Size: 324 MB
Rating: 
(Votes: 0)
Say thanks: 0  Thanks
 
Похожие темы
[Profile] [PM]
Display posts from previous:    
Reply to topic

The time now is: Today 03:48

All times are GMT + 7 Hours



You cannot post new topics in this forum
You cannot reply to topics in this forum
You cannot edit your posts in this forum
You cannot delete your posts in this forum
You cannot vote in polls in this forum
You cannot attach files in this forum
You can download files in this forum