Register · 
Username: Password:
 ·  Forgot password?

(Psychedelic, Post Industrial) [CD] Psychic TV - Hex Sex • The Singles Pt. One - 1994, FLAC (image+.cue), lossless

Reply to topic
DL-List and Torrent activity [Update пиров]
Size:  457 MB   |    Registered:  1 month 11 days   |    Completed:  0 times

Seeder not seen: Never

 
   
 
 
 
Author Message

god56 ®

Gender:

Longevity: 6 years 5 months

Posts: 26304

Post 17-Jan-2020 20:25

[Quote]

Genesis P. Orridge & Psychic TV
Hex Sex
• The Singles - Pt. One
- Жанр: Psychedelic, Post Industrial
Носитель: CD
Страна-производитель диска: USA
Год издания: 1994
Издатель (лейбл): Cleopatra
Номер по каталогу: CLEO65082
Страна исполнителя (группы): UK, USA
Аудиокодек: FLAC (*.flac)
Тип рипа: image+.cue
Продолжительность: 01:07:51
Источник: собственный рип
Наличие сканов в содержимом раздачи: да-Треклист:
1. Roman P.
2. Good Vibrations
3. Hex Sex
4. Interzone
5. Godstar
6. Je T'Aime
7. Supermale
8. United 94
9. Papal Breakdance
10. Magick Defends Itself
11. Love War Riot
12. Eve Ov Destruction-

EAC log

Exact Audio Copy V0.99 prebeta 5 from 4. May 2009
Отчёт EAC об извлечении, выполненном 8. января 2020, 22:03
Psychic TV / Hex Sex (The Singles Pt 1)
Дисковод: Optiarc DVD RW AD-5240S Adapter: 4 ID: 0
Режим чтения : ДостоверностьИспользование точного потока : ДаОтключение кэша аудио : ДаИспользование указателей C2 : Нет
Коррекция смещения при чтении : 48Способность читать области Lead-in и Lead-out : НетЗаполнение пропущенных сэмплов тишиной : ДаУдаление блоков с тишиной в начале и конце : НетПри вычислениях CRC использовались нулевые сэмплы : ДаИнтерфейс : Встроенный Win32-интерфейс для Win NT/2000
Выходной формат : Пользовательский кодировщикВыбранный битрейт : 1024 kBit/sКачество : ВысокийДобавление ID3-тэга : НетУтилита сжатия : C:\Program Files\Exact Audio Copy\FLAC\FLAC.EXEДополнительные параметры : -6 -V -T "ARTIST=%a" -T "TITLE=%t" -T "ALBUM=%g" -T "DATE=%y" -T "TRACKNUMBER=%n" -T "GENRE=%m" -T "COMMENT=%e" %s -o %d
TOC извлечённого CD
Трек | Старт | Длительность | Начальный сектор | Конечный сектор --------------------------------------------------------------------- 1 | 0:00.00 | 3:53.52 | 0 | 17526 2 | 3:53.52 | 3:57.70 | 17527 | 35371 3 | 7:51.47 | 2:15.05 | 35372 | 45501 4 | 10:06.52 | 3:13.65 | 45502 | 60041 5 | 13:20.42 | 3:44.43 | 60042 | 76884 6 | 17:05.10 | 6:27.50 | 76885 | 105959 7 | 23:32.60 | 8:04.60 | 105960 | 142319 8 | 31:37.45 | 6:00.10 | 142320 | 169329 9 | 37:37.55 | 5:57.60 | 169330 | 196164 10 | 43:35.40 | 7:27.00 | 196165 | 229689 11 | 51:02.40 | 7:21.57 | 229690 | 262821 12 | 58:24.22 | 9:26.68 | 262822 | 305339
Характеристики диапазона извлечения и сообщения об ошибках
Выбранный диапазон
Имя файла M:\AudioRip\Psychic TV - Hex Sex (The Singles Pt 1).wav
Пиковый уровень 98.8 % Качество диапазона 100.0 % CRC теста 4E2D67BF CRC копии 4E2D67BF Копирование... OK
Ошибок не произошло
AccurateRip: сводка
Трек 1 точное извлечение (доверие 5) [9E59AA9C]Трек 2 точное извлечение (доверие 5) [98544D39]Трек 3 точное извлечение (доверие 5) [3D8F41E6]Трек 4 точное извлечение (доверие 5) [1F452A22]Трек 5 точное извлечение (доверие 5) [0668FBC6]Трек 6 точное извлечение (доверие 5) [336AAFAE]Трек 7 точное извлечение (доверие 5) [B6CFDF5B]Трек 8 точное извлечение (доверие 5) [925F4F3F]Трек 9 точное извлечение (доверие 5) [ED334C1C]Трек 10 точное извлечение (доверие 5) [769516E8]Трек 11 точное извлечение (доверие 4) [F0046840]Трек 12 точное извлечение (доверие 4) [DC39BB6B]
Все треки извлечены точно
Конец отчёта

CUE

REM GENRE PsychedelicREM DATE 1994REM DISCID 9E0FE70CREM COMMENT "ExactAudioCopy v0.99pb5"PERFORMER "Psychic TV"TITLE "Hex Sex (The Singles Pt 1)"FILE "Psychic TV - Hex Sex (The Singles Pt 1).flac" WAVE TRACK 01 AUDIO TITLE "Roman P." PERFORMER "Psychic TV" INDEX 01 00:00:00 TRACK 02 AUDIO TITLE "Good Vibrations" PERFORMER "Psychic TV" INDEX 00 03:51:65 INDEX 01 03:53:52 TRACK 03 AUDIO TITLE "Hex Sex" PERFORMER "Psychic TV" INDEX 00 07:50:07 INDEX 01 07:51:47 TRACK 04 AUDIO TITLE "Interzone" PERFORMER "Psychic TV" INDEX 00 10:04:67 INDEX 01 10:06:52 TRACK 05 AUDIO TITLE "Godstar" PERFORMER "Psychic TV" INDEX 00 13:18:47 INDEX 01 13:20:42 TRACK 06 AUDIO TITLE "Je T'aime" PERFORMER "Psychic TV" INDEX 00 17:04:07 INDEX 01 17:05:10 TRACK 07 AUDIO TITLE "Supermale" PERFORMER "Psychic TV" INDEX 00 23:30:72 INDEX 01 23:32:60 TRACK 08 AUDIO TITLE "United 94" PERFORMER "Psychic TV" INDEX 00 31:37:10 INDEX 01 31:37:45 TRACK 09 AUDIO TITLE "Papal Breakdance" PERFORMER "Psychic TV" INDEX 00 37:36:15 INDEX 01 37:37:55 TRACK 10 AUDIO TITLE "Magick Defends Itself" PERFORMER "Psychic TV" INDEX 00 43:35:00 INDEX 01 43:35:40 TRACK 11 AUDIO TITLE "Love War Riot" PERFORMER "Psychic TV" INDEX 00 51:00:57 INDEX 01 51:02:40 TRACK 12 AUDIO TITLE "Eve Ov Destruction" PERFORMER "Psychic TV" INDEX 00 58:22:35 INDEX 01 58:24:22
-
[ru-zerkalo.org]_t_5833001
Torrent: Registered ·  [ 2020-01-17 20:25 ] ·  64a2c3ab482e4e42fd7f2f87f8befee89b18a8b2

19 KB

Status: checked
Completed: 0 times
Size: 457 MB
Rating: 
(Votes: 0)
Say thanks: 0  Thanks
 
Похожие темы
[Profile] [PM]
Display posts from previous:    
Reply to topic

The time now is: Today 07:01

All times are GMT + 7 Hours



You cannot post new topics in this forum
You cannot reply to topics in this forum
You cannot edit your posts in this forum
You cannot delete your posts in this forum
You cannot vote in polls in this forum
You cannot attach files in this forum
You can download files in this forum