Register · 
Username: Password:
 ·  Forgot password?

Могучий МакГурк / The Mighty McGurk (Джон Уотерс / John Waters) [1947, США, драма, комедия, DVDRip] VO (Алексей Багичев) + Original Eng

Reply to topic
DL-List and Torrent activity [Update пиров]
Size:  1.46 GB   |    Registered:  1 month 11 days   |    Completed:  0 times

Seeder not seen: Never

 
   
 
 
 
Author Message

Andrew1225 ®

Gender:

Longevity: 6 years 5 months

Posts: 17878

Post 17-Jan-2020 21:30

[Quote]

Могучий МакГурк / The Mighty McGurk
Страна: США
Студия: Metro-Goldwyn-Mayer (MGM)
Жанр: драма, комедия
Год выпуска: 1947
Продолжительность: 01:25:30
Перевод: Одноголосый закадровый - Алексей Багичев
Субтитры: нет
Оригинальная аудиодорожка: английский
Режиссер: Джон Уотерс / John Waters
Композитор: Дэвид Снелл / David Snell
В ролях: Уоллес Бири / Wallace Beery ... Roy "Slag" McGurk
Дин Стокуэлл / Dean Stockwell ... Nipper
Эдвард Арнольд / Edward Arnold ... Mike Glenson
Элин МакМэон / Aline MacMahon ... Mamie Steeple
Кэмерон Митчелл / Cameron Mitchell ... Johnny Burden
Дороти Патрик / Dorothy Patrick ... Caroline Glenson
Обри Мэтер / Aubrey Mather ... Milbane
Моррис Анкрум / Morris Ankrum ... Fowles
Клинтон Сандберг / Clinton Sundberg ... Flexter
Чарльз Джуделс / Charles Judels ... First Brewer

Описание: Рой МакГурк, бывший чемпион по боксу, живущий в воспоминаниях о прошлой славе, проводит свои дни и ночи в качестве вышибалы в заведении Майка Гленсона. Но когда МакГурк натыкается на осиротевшего мальчишку Ниппера и соглашается помочь ему найти родственника, его жизнь приобретает совершенно новый смысл...--БОЛЬШОЕ СПАСИБО:
Перевод и озвучивание фильма - Алексей Багичев
Работа со звуком и реавторинг DVD - [url=profile.php?mode=viewprofile&u=8012233]AlekceyR76[/url]
Также Большое Спасибо всем, кто принял участие в появлении перевода и озвучки к этому фильму:
Магда, Lafajet, jasenka, yanaelisa, voostorg, елена 22, surzhoks, GalaUkr, Ugo927, борюська, killer snowman, Mc-Nabbs, bvedargh
--Сэмпл: http://sendfile.su/1541674
Качество видео: DVDRip
Формат видео: AVI
Видео: XviD, 640x480 (1.33:1), 23.976 fps, 2044 Kbps
Аудио 1: AC3, 48.0 KHz, 2 ch., 192 Kbps (русский одноголосый закадровый перевод) - Алексей Багичев
Аудио 2: AC3, 48.0 KHz, 2 ch., 192 Kbps (оригинальная английская звуковая дорожка)

MediaInfo

Общее
Полное имя : Z:\РАЗДАЧИ\The Mighty McGurk 1947\The Mighty McGurk (1947).avi
Формат : AVI
Формат/Информация : Audio Video Interleave
Размер файла : 1,46 Гбайт
Продолжительность : 1 ч. 25 м.
Общий поток : 2442 Кбит/сек
Программа кодирования : VirtualDubMod 1.5.10.3 | www.virtualdub-fr.org || (build 2550/release)
Библиотека кодирования : VirtualDubMod build 2550/release
Видео
Идентификатор : 0
Формат : MPEG-4 Visual
Профиль формата : Advanced Simple@L5
Параметр BVOP формата : 2
Параметр QPel формата : Нет
Параметр GMC формата : Без точки перехода
Параметр матрицы формата : Default (H.263)
Идентификатор кодека : XVID
Идентификатор кодека/Подсказка : XviD
Продолжительность : 1 ч. 25 м.
Битрейт : 2044 Кбит/сек
Ширина : 640 пикселей
Высота : 480 пикселей
Соотношение сторон : 4:3
Частота кадров : 23,976 (24000/1001) кадра/сек
Цветовое пространство : YUV
Субдискретизация насыщенности : 4:2:0
Битовая глубина : 8 бит
Тип развёртки : Прогрессивная
Метод сжатия : С потерями
Бит/(Пиксели*Кадры) : 0.277
Размер потока : 1,22 Гбайт (84%)
Библиотека кодирования : XviD 73
Аудио #1
Идентификатор : 1
Формат : AC-3
Формат/Информация : Audio Coding 3
Параметр Endianness формата : Big
Идентификатор кодека : 2000
Продолжительность : 1 ч. 25 м.
Вид битрейта : Постоянный
Битрейт : 192 Кбит/сек
Каналы : 2 канала
Расположение каналов : Front: L R
Частота : 48,0 КГц
Частота кадров : 31,250 кадров/сек (1536 spf)
Битовая глубина : 16 бит
Метод сжатия : С потерями
Размер потока : 117 Мбайт (8%)
Выравнивание : Разделение по промежуткам
Продолжительность промежутка : 42 мс. (1,00 видеокадр)
Время предзагрузки промежутка : 500 мс.
ServiceKind/String : Complete Main
Аудио #2
Идентификатор : 2
Формат : AC-3
Формат/Информация : Audio Coding 3
Параметр Endianness формата : Big
Идентификатор кодека : 2000
Продолжительность : 1 ч. 25 м.
Вид битрейта : Постоянный
Битрейт : 192 Кбит/сек
Каналы : 2 канала
Расположение каналов : Front: L R
Частота : 48,0 КГц
Частота кадров : 31,250 кадров/сек (1536 spf)
Битовая глубина : 16 бит
Метод сжатия : С потерями
Размер потока : 117 Мбайт (8%)
Выравнивание : Разделение по промежуткам
Продолжительность промежутка : 42 мс. (1,00 видеокадр)
Время предзагрузки промежутка : 500 мс.
ServiceKind/String : Complete Main
[ru-zerkalo.org]_t_5836666
Torrent: Registered ·  [ 2020-01-17 21:30 ] ·  bded7717061b6a32b72924c8328365144ba3e319

15 KB

Status: checked
Completed: 0 times
Size: 1.46 GB
Rating: 
(Votes: 0)
Say thanks: 0  Thanks
 
Похожие темы
[Profile] [PM]
Display posts from previous:    
Reply to topic

The time now is: Today 08:18

All times are GMT + 7 Hours



You cannot post new topics in this forum
You cannot reply to topics in this forum
You cannot edit your posts in this forum
You cannot delete your posts in this forum
You cannot vote in polls in this forum
You cannot attach files in this forum
You can download files in this forum