Register · 
Username: Password:
 ·  Forgot password?

Jan Blomqvist • Berlin Live [2018, Deep House, Tech House, Techno, HDTV, 720p]

Reply to topic
DL-List and Torrent activity [Update пиров]
Size:  5.66 GB   |    Registered:  1 month 10 days   |    Completed:  0 times

Seeder not seen: Never

 
   
 
 
 
Author Message

god56 ®

Gender:

Longevity: 6 years 5 months

Posts: 26304

Post 18-Jan-2020 12:20

[Quote]

Jan Blomqvist
Berlin Live


Жанр: Deep House, Tech House, Techno
Продолжительность: 01:01:27
Год выпуска: 2018
Качество: HDTV
Разрешение видео/развертка: 720p
Контейнер: TS
Видео кодек: H.264
Аудио кодек: AC3
Видео: MPEG4 Video (H264) 1280x720 50fps 12.1 Mb/s
Аудио: Dolby AC3 48000Hz 6ch 448kbps

Треклист

01. A Bridge Over Novocaine
02. The Space In Between
03. Elephant Shunned
04. Drift
05. Empty Floor
06. Our Broken Mind Embassy
07. Winter Roads
08. More
09. The Space In Between (Ben Bohmer Remix)
10. Maybe Not

Отчёт MediaInfo / BDInfo

GeneralID : 1 (0x1)Complete name : F:\Jan Blomqvist - Berlin Live 2018.tsFormat : MPEG-TSFile size : 5.66 GiBDuration : 1 h 1 minOverall bit rate mode : VariableOverall bit rate : 13.2 Mb/s
VideoID : 5111 (0x13F7)Menu ID : 1 (0x1)Format : AVCFormat/Info : Advanced Video CodecFormat profile : High@L4Format settings : CABAC / 4 Ref FramesFormat settings, CABAC : YesFormat settings, ReFrames : 4 framesCodec ID : 27Duration : 1 h 1 minBit rate : 12.1 Mb/sWidth : 1 280 pixelsHeight : 720 pixelsDisplay aspect ratio : 16:9Frame rate : 50.000 FPSColor space : YUVChroma subsampling : 4:2:0Bit depth : 8 bitsScan type : ProgressiveBits/(Pixel*Frame) : 0.262Stream size : 5.19 GiB (92%)
AudioID : 5116 (0x13FC)Menu ID : 1 (0x1)Format : AC-3Format/Info : Audio Coding 3Commercial name : Dolby DigitalCodec ID : 6Duration : 1 h 1 minBit rate mode : ConstantBit rate : 448 kb/sChannel(s) : 6 channelsChannel layout : L R C LFE Ls RsSampling rate : 48.0 kHzFrame rate : 31.250 FPS (1536 SPF)Bit depth : 16 bitsCompression mode : LossyStream size : 197 MiB (3%)Language : Multiple languagesService kind : Complete Main
Мои раздачи ®">

Скриншоты Мои раздачи ®


[url=tracker.php?rid=9539252]http:///forum/tracker.php?rid=9539252[/url]
[ru-zerkalo.org]_t_5748567
Torrent: Registered ·  [ 2020-01-18 12:13 ] ·  9cdf7efdb42118e97c7e00876d96ceb29ebe6067

15 KB

Status: checked
Completed: 0 times
Size: 5.66 GB
Rating: 
(Votes: 0)
Say thanks: 0  Thanks
 
Похожие темы
[Profile] [PM]
Display posts from previous:    
Reply to topic

The time now is: Today 08:22

All times are GMT + 7 Hours



You cannot post new topics in this forum
You cannot reply to topics in this forum
You cannot edit your posts in this forum
You cannot delete your posts in this forum
You cannot vote in polls in this forum
You cannot attach files in this forum
You can download files in this forum