Register · 
Username: Password:
 ·  Forgot password?

Дракула / Dracula (Джон Бэдэм / John Badham) [1979, США, Великобритания, триллер, ужасы, драма, BDRip] [EUR] AVO (Виктор Махонько)

Reply to topic
DL-List and Torrent activity [Update пиров]
Size:  1.46 GB   |    Registered:  1 month 7 days   |    Completed:  0 times

Seeder not seen: Never

 
   
 
 
 
Author Message

Andrew1225 ®

Gender:

Longevity: 6 years 5 months

Posts: 17878

Post 21-Jan-2020 23:00

[Quote]

Дракула / Dracula
Страна: США, Великобритания
Жанр: триллер, ужасы, драма
Год выпуска: 1979
Продолжительность: 01:49:04
Перевод: Авторский (одноголосый закадровый) Виктор Махонько
Субтитры: нет
Режиссер: Джон Бэдэм / John Badham
В ролях: Фрэнк Ланджелла, Лоуренс Оливье, Дональд Презенс, Кейт Неллиган, Тревор Ив, Жан Френсис, Джанин Дувицкий, Тони Хейгарт, Тедди Тернер
Описание: Граф Дракула плывёт из Трансильвании в Англию, по пути уничтожая команду. Прибыв, его корабль терпит крушение, а сам Дракула, единственный выживший, обнаружен на берегу Миной — дочерью хозяина находящейся неподалёку психиатрической больницы. Вскоре граф познакомится с её подругой Люси, и, несмотря на наличие у той жениха Джонатана, пустит все свои чары на завоевание не столько сердца, сколько тела и разума девушки...

Сэмпл: http://multi-up.com/1251987
Качество видео: BDRip ( Blu-ray disc 1080p)
Формат видео: AVI
Видео: XviD 73, 720x304, (2,35:1), 23,976 fps, 1719 Кбит/с, 8 бит, 0.32 bit/pixel
Аудио: Русский (АС3, 2 ch (Front: L R), 48,0 KHz, 192 Kbps)

MediaInfo

ОбщееПолное имя : D:\Фильмы на трекер\Дракула (триллер, ужасы 1979 год).aviФормат : AVIФормат/Информация : Audio Video InterleaveРазмер файла : 1,46 ГбайтПродолжительность : 1 ч. 49 м.Общий поток : 1921 Кбит/секПрограмма кодирования : VirtualDubMod 1.5.10.2 (build 2540/release)Библиотека кодирования : VirtualDubMod build 2540/release
ВидеоИдентификатор : 0Формат : MPEG-4 VisualПрофиль формата : Advanced Simple@L5Параметр BVOP формата : 2Параметр QPel формата : НетПараметр GMC формата : Без точки переходаПараметр матрицы формата : ВыборочнаяИдентификатор кодека : XVIDИдентификатор кодека/Подсказка : XviDПродолжительность : 1 ч. 49 м.Битрейт : 1719 Кбит/секШирина : 720 пикселейВысота : 304 пикселяСоотношение сторон : 2,35:1Частота кадров : 23,976 (23976/1000) кадра/секЦветовое пространство : YUVСубдискретизация насыщенности : 4:2:0Битовая глубина : 8 битТип развёртки : ПрогрессивнаяМетод сжатия : С потерямиБит/(Пиксели*Кадры) : 0.328Размер потока : 1,31 Гбайт (90%)Библиотека кодирования : XviD 73
АудиоИдентификатор : 1Формат : AC-3Формат/Информация : Audio Coding 3Расширение режима : CM (complete main)Параметр Endianness формата : BigИдентификатор кодека : 2000Продолжительность : 1 ч. 49 м.Вид битрейта : ПостоянныйБитрейт : 192 Кбит/секКаналы : 2 каналаРасположение каналов : Front: L RЧастота : 44,1 КГцЧастота кадров : 28,711 кадров/сек (1536 spf)Метод сжатия : С потерямиРазмер потока : 150 Мбайт (10%)Выравнивание : Разделение по промежуткамПродолжительность промежутка : 42 мс. (1,00 видеокадр)Время предзагрузки промежутка : 500 мс.

Скриншот c названием фильма

Скриншоты

[ru-zerkalo.org]_t_5838565
Torrent: Registered ·  [ 2020-01-21 23:00 ] ·  f7608e91233b0eba053fc91411751074487a3c1e

15 KB

Status: checked
Completed: 0 times
Size: 1.46 GB
Rating: 
(Votes: 0)
Say thanks: 0  Thanks
 
Похожие темы
[Profile] [PM]
Display posts from previous:    
Reply to topic

The time now is: Today 07:23

All times are GMT + 7 Hours



You cannot post new topics in this forum
You cannot reply to topics in this forum
You cannot edit your posts in this forum
You cannot delete your posts in this forum
You cannot vote in polls in this forum
You cannot attach files in this forum
You can download files in this forum