Register · 
Username: Password:
 ·  Forgot password?

[TR24][OF] Jorn - Heavy Rock Radio II - Executing the Classic - 2020 (Hard Rock / Heavy Metal)

Reply to topic
DL-List and Torrent activity [Update пиров]
Size:  831 MB   |    Registered:  1 month 4 days   |    Completed:  2 times

Seeder not seen: 25 days

 
   
 
 
 
Author Message

ANTON1404 ®

Gender:

Longevity: 6 years 5 months

Posts: 19072

Post 24-Jan-2020 14:33

[Quote]

Jorn - Heavy Rock Radio II - Executing the Classics- Формат / Источник записи: [TR24][OF]
Наличие водяных знаков: Нет
Год издания: 2020-01-24
Жанр: Hard Rock / Heavy Metal
Издатель-лейбл: Frontiers Records s.r.l.
Продолжительность: 01:11:11
Наличие сканов: Нет
Контейнер: FLAC (*.flac)
Тип рипа: tracks
Разрядность: 24/44.1
Формат: PCM
Количество каналов: 2.0
Источник: интернет

Треклист:
01. Lonely Nights (3:49)
02. Winning (3:46)
03. New York Minute (6:41)
04. Needles and Pins (4:11)
05. Love (3:27)
06. I Do Believe in You (4:36)
07. Night Life (4:07)
08. Bad Attitude (4:49)
09. Quinn the Eskimo (The Mighty Quinn) (5:17)
10. Mystery (4:00)
11. The Rhythm of the Heat (3:35)
12. Hotel California (Bonus Track Remastered) (6:30)
13. The Final Frontier (Bonus Track - Radio Edit) (4:06)
14. Die Young (Bonus Track - Radio Edit) (4:08)
15. Naked City (Bonus Track - Radio Edit) (3:22)
16. Ride Like the Wind (Bonus Track - Remastered) (4:47)

Лог проверки качества

foobar2000 1.5 / Замер динамического диапазона (DR) 1.1.1Дата отчёта: 2020-01-24 08:58:47
--------------------------------------------------------------------------------Анализ: Jorn / Heavy Rock Radio II - Executing The Classics--------------------------------------------------------------------------------
DR Пики RMS Продолжительность трека--------------------------------------------------------------------------------DR9 -0.09 дБ -10.50 дБ 3:49 01-Lonely NightsDR9 -0.60 дБ -10.81 дБ 3:46 02-WinningDR9 -0.10 дБ -11.42 дБ 6:41 03-New York MinuteDR10 -0.10 дБ -12.30 дБ 4:11 04-Needles and PinsDR9 -0.10 дБ -11.24 дБ 3:27 05-LoveDR9 -0.10 дБ -9.47 дБ 4:36 06-I Do Believe in YouDR10 -0.10 дБ -12.14 дБ 4:07 07-Night LifeDR9 -0.79 дБ -11.22 дБ 4:49 08-Bad AttitudeDR10 -0.10 дБ -11.88 дБ 5:17 09-Quinn the Eskimo (The Mighty Quinn)DR10 -0.05 дБ -11.45 дБ 4:00 10-MysteryDR9 -0.03 дБ -10.60 дБ 3:35 11-The Rhythm of the HeatDR7 -3.30 дБ -11.22 дБ 6:30 12-Hotel California (Bonus Track Remastered)DR9 -1.64 дБ -12.00 дБ 4:06 13-The Final Frontier (Bonus Track - Radio Edit)DR8 -1.62 дБ -10.49 дБ 4:08 14-Die Young (Bonus Track - Radio Edit)DR8 -2.83 дБ -12.31 дБ 3:22 15-Naked City (Bonus Track - Radio Edit)DR8 -1.60 дБ -11.18 дБ 4:47 16-Ride Like the Wind (Bonus Track - Remastered)--------------------------------------------------------------------------------
Количество треков: 16Реальные значения DR: DR9
Частота: 44100 ГцКаналов: 2Разрядность: 24Битрейт: 1656 кбит/сКодек: FLAC================================================================================
[ru-zerkalo.org]_t_5840083
Torrent: Registered ·  [ 2020-01-24 14:33 ] ·  eceeb89817316fafb518eeebbee93f84649e86f4

18 KB

Status: checked
Completed: 2 times
Size: 831 MB
Rating: 
(Votes: 0)
Say thanks: 1  Thanks   (list)
 
Похожие темы
[Profile] [PM]
Display posts from previous:    
Reply to topic

The time now is: Today 07:30

All times are GMT + 7 Hours



You cannot post new topics in this forum
You cannot reply to topics in this forum
You cannot edit your posts in this forum
You cannot delete your posts in this forum
You cannot vote in polls in this forum
You cannot attach files in this forum
You can download files in this forum