Register · 
Username: Password:
 ·  Forgot password?

[TR24][OF] Kokomo - s/t - 2013 (Post-Metal / Post-Rock)

Reply to topic
DL-List and Torrent activity [Update пиров]
Size:  578 MB   |    Registered:  1 month 4 days   |    Completed:  1 time

Seeder not seen: 9 days

 
   
 
 
 
Author Message

ANTON1404 ®

Gender:

Longevity: 6 years 5 months

Posts: 19072

Post 24-Jan-2020 14:33

[Quote]

Kokomo / s/t- Дата релиза: March 29, 2013
Жанр: Post-Metal / Post-Rock
Страна исполнителя (группы): Germany, Duisburg
Продолжительность: 00:51:53
Наличие сканов: нет
-Источник (релизер): Bandcamp-
1. Kaputt Finker (07:47)
2. They Seem To Be Dead Set (09:45)
3. Tauben Im Gras (08:22)
4. Ein Dachs Hat Zweifel (14:28)

5. Deconstructure (06:17)
6. Le Trieste (05:13)
-Формат записи / Источник записи: [TR24][OF]
Контейнер: FLAC (*.flac)
Тип рипа: tracks
Разрядность: 24bit / 44kHz
Количество каналов: 2.0
Формат: PCM
- -[url=tracker.php?pid=38812251] [/url]-

DR

foobar2000 1.4.3 / Замер динамического диапазона (DR) 1.1.1Дата отчёта: 2020-01-24 08:33:26
--------------------------------------------------------------------------------Анализ: Kokomo / s/t--------------------------------------------------------------------------------
DR Пики RMS Продолжительность трека--------------------------------------------------------------------------------DR5 -0.11 дБ -5.66 дБ 7:47 01-Kaputt FinkerDR5 -0.11 дБ -6.38 дБ 9:45 02-They Seem To Be Dead SetDR5 -0.10 дБ -6.00 дБ 8:22 03-Tauben Im GrasDR5 -0.10 дБ -7.67 дБ 14:28 04-Ein Dachs Hat ZweifelDR6 -0.10 дБ -6.85 дБ 6:17 05-DeconstructureDR6 -0.10 дБ -8.00 дБ 5:13 06-Le Trieste--------------------------------------------------------------------------------
Количество треков: 6Реальные значения DR: DR5
Частота: 44100 ГцКаналов: 2Разрядность: 24Битрейт: 1538 кбит/сКодек: FLAC================================================================================

MediaInfo

Общее
Полное имя : F:\Раздачи\Kokomo\Kokomo - s-t (2013)\01. Kaputt Finker.flac
Формат : FLAC
Формат/Информация : Free Lossless Audio Codec
Размер файла : 91,3 Мбайт
Продолжительность : 7 м. 47 с.
Режим общего битрейта : Переменный
Общий поток : 1638 Кбит/сек
Альбом : s/t
Альбом/Исполнитель : Kokomo
Трек : Kaputt Finker
Трек/Положение : 1
Исполнитель : Kokomo
Жанр : Post-Metal / Post-Rock / Instrumental
Дата записи : 2013
Обложка : Yes
Тип обложки : Cover (front)
MIME-тип обложки : image/jpeg
Аудио
Формат : FLAC
Формат/Информация : Free Lossless Audio Codec
Продолжительность : 7 м. 47 с.
Вид битрейта : Переменный
Битрейт : 1637 Кбит/сек
Каналы : 2 канала
Расположение каналов : Front: L R
Частота : 44,1 КГц
Битовая глубина : 24 бит
Размер потока : 91,1 Мбайт (100%)
Библиотека кодирования : libFLAC 1.3.1 (UTC 2014-11-25)
Общее
Полное имя : F:\Раздачи\Kokomo\Kokomo - s-t (2013)\02. They Seem To Be Dead Set.flac
Формат : FLAC
Формат/Информация : Free Lossless Audio Codec
Размер файла : 109 Мбайт
Продолжительность : 9 м. 45 с.
Режим общего битрейта : Переменный
Общий поток : 1565 Кбит/сек
Альбом : s/t
Альбом/Исполнитель : Kokomo
Трек : They Seem To Be Dead Set
Трек/Положение : 2
Исполнитель : Kokomo
Жанр : Post-Metal / Post-Rock / Instrumental
Дата записи : 2013
Обложка : Yes
Тип обложки : Cover (front)
MIME-тип обложки : image/jpeg
Аудио
Формат : FLAC
Формат/Информация : Free Lossless Audio Codec
Продолжительность : 9 м. 45 с.
Вид битрейта : Переменный
Битрейт : 1563 Кбит/сек
Каналы : 2 канала
Расположение каналов : Front: L R
Частота : 44,1 КГц
Битовая глубина : 24 бит
Размер потока : 109 Мбайт (100%)
Библиотека кодирования : libFLAC 1.3.1 (UTC 2014-11-25)
Общее
Полное имя : F:\Раздачи\Kokomo\Kokomo - s-t (2013)\03. Tauben Im Gras.flac
Формат : FLAC
Формат/Информация : Free Lossless Audio Codec
Размер файла : 95,9 Мбайт
Продолжительность : 8 м. 22 с.
Режим общего битрейта : Переменный
Общий поток : 1601 Кбит/сек
Альбом : s/t
Альбом/Исполнитель : Kokomo
Трек : Tauben Im Gras
Трек/Положение : 3
Исполнитель : Kokomo
Жанр : Post-Metal / Post-Rock / Instrumental
Дата записи : 2013
Обложка : Yes
Тип обложки : Cover (front)
MIME-тип обложки : image/jpeg
Аудио
Формат : FLAC
Формат/Информация : Free Lossless Audio Codec
Продолжительность : 8 м. 22 с.
Вид битрейта : Переменный
Битрейт : 1600 Кбит/сек
Каналы : 2 канала
Расположение каналов : Front: L R
Частота : 44,1 КГц
Битовая глубина : 24 бит
Размер потока : 95,7 Мбайт (100%)
Библиотека кодирования : libFLAC 1.3.0 (UTC 2013-05-26)
Общее
Полное имя : F:\Раздачи\Kokomo\Kokomo - s-t (2013)\04. Ein Dachs Hat Zweifel.flac
Формат : FLAC
Формат/Информация : Free Lossless Audio Codec
Размер файла : 150 Мбайт
Продолжительность : 14 м. 28 с.
Режим общего битрейта : Переменный
Общий поток : 1450 Кбит/сек
Альбом : s/t
Альбом/Исполнитель : Kokomo
Трек : Ein Dachs Hat Zweifel
Трек/Положение : 4
Исполнитель : Kokomo
Жанр : Post-Metal / Post-Rock / Instrumental
Дата записи : 2013
Обложка : Yes
Тип обложки : Cover (front)
MIME-тип обложки : image/jpeg
Аудио
Формат : FLAC
Формат/Информация : Free Lossless Audio Codec
Продолжительность : 14 м. 28 с.
Вид битрейта : Переменный
Битрейт : 1449 Кбит/сек
Каналы : 2 канала
Расположение каналов : Front: L R
Частота : 44,1 КГц
Битовая глубина : 24 бит
Размер потока : 150 Мбайт (100%)
Библиотека кодирования : libFLAC 1.3.0 (UTC 2013-05-26)
Общее
Полное имя : F:\Раздачи\Kokomo\Kokomo - s-t (2013)\05. Deconstructure.flac
Формат : FLAC
Формат/Информация : Free Lossless Audio Codec
Размер файла : 73,5 Мбайт
Продолжительность : 6 м. 17 с.
Режим общего битрейта : Переменный
Общий поток : 1634 Кбит/сек
Альбом : s/t
Альбом/Исполнитель : Kokomo
Трек : Deconstructure
Трек/Положение : 5
Исполнитель : Kokomo
Жанр : Post-Metal / Post-Rock / Instrumental
Дата записи : 2013
Обложка : Yes
Тип обложки : Cover (front)
MIME-тип обложки : image/jpeg
Аудио
Формат : FLAC
Формат/Информация : Free Lossless Audio Codec
Продолжительность : 6 м. 17 с.
Вид битрейта : Переменный
Битрейт : 1631 Кбит/сек
Каналы : 2 канала
Расположение каналов : Front: L R
Частота : 44,1 КГц
Битовая глубина : 24 бит
Размер потока : 73,4 Мбайт (100%)
Библиотека кодирования : libFLAC 1.3.0 (UTC 2013-05-26)
Общее
Полное имя : F:\Раздачи\Kokomo\Kokomo - s-t (2013)\06. Le Trieste.flac
Формат : FLAC
Формат/Информация : Free Lossless Audio Codec
Размер файла : 57,5 Мбайт
Продолжительность : 5 м. 13 с.
Режим общего битрейта : Переменный
Общий поток : 1541 Кбит/сек
Альбом : s/t
Альбом/Исполнитель : Kokomo
Трек : Le Trieste
Трек/Положение : 6
Исполнитель : Kokomo
Жанр : Post-Metal / Post-Rock / Instrumental
Дата записи : 2013
Обложка : Yes
Тип обложки : Cover (front)
MIME-тип обложки : image/jpeg
Аудио
Формат : FLAC
Формат/Информация : Free Lossless Audio Codec
Продолжительность : 5 м. 13 с.
Вид битрейта : Переменный
Битрейт : 1538 Кбит/сек
Каналы : 2 канала
Расположение каналов : Front: L R
Частота : 44,1 КГц
Битовая глубина : 24 бит
Размер потока : 57,4 Мбайт (100%)
Библиотека кодирования : libFLAC 1.3.0 (UTC 2013-05-26)
Общее
Полное имя : F:\Раздачи\Kokomo\Kokomo - s-t (2013)\cover.jpg
Формат : JPEG
Размер файла : 352 Кбайт
Изображения
Формат : JPEG
Ширина : 716 пикселей
Высота : 720 пикселей
Цветовое пространство : YUV
Субдискретизация насыщенности : 4:4:4
Битовая глубина : 8 бит
Метод сжатия : С потерями
Размер потока : 352 Кбайт (100%)

Об альбоме

ALL SONGS WRITTEN AND PERFORMED BY KOKOMO
RECORDED, MIXED AND MASTERED BY TOBIAS STIELER FROM JANUARY TO FEBRUARY 2013 AT OUR HOME, TOPPERSHOUSE RECORDINGs
ILLUSTRATIONS BY TRISTAN HUBER
ARTWORK BY ANSGAR KOENIG, BENEDIKT DEMMER AND YVES LENNERTZ

О группе

Music can be heard, described, categorized and analyzed in countless ways. Theodor W. Adorno for instance distinguished between popular and serious and by this gave music a difference in value which is still in use today. But no matter how one approaches music, it is for sure that music is socially produced as well as socially productive.
Since the founding of Kokomo it is this social enviroment that drives us as a band.
Founded in 2008, we played our first tour in autumn of the same year followed by countless concerts up until today and hence friendships in many parts of Europe and a tour in Japan in autumn 2015.
Kokomo is an instrumental rock band founded and grown up in the heyday of abandonment of vocals in “modern” rock music. We never frantically tried to reinvent the genre, but we hope we can set ourselves apart with new album and upcoming shows, reach people and evoke something in them. Then we have achieved all of our significant aims.
Neglecting vocals is not a trend for us, it is conscious backpedalling. We want particularly to let the music speak for itself and think trough this to be able to say much more in the end.
Right from the start our main focus was to have a good time, put a lot of love and effort in our music and everything related to it and play live as much as we can. Both on several tours we did and as support for acts like Caspian, God Is An Astronaut, Junius, A Silver Mt. Zion, This Will Destroy You, Maybeshewill and many more. One highlight must be the Germany tour with And So I Watch You From Afar.
In 2009 we released our debut “Matterhorn Bob And The Black Fair” on CD-R in a elaborate handmade packaging, followed by a split-LP with Kasan on Mayiniax Records in 2010.
As well our second album “If Wolves” as the last one “Kokomo” were both recorded by ourselves and released via i.corrupt.records and dunk!records.
After we collaborated with Terraformer for the project “Euryale” last year, comes now our forth album “Monochrome Noise Love”. The album was again recorded in our own studio in Duisburg. It will be released via i.corrupt.records, dunk!records and Aloud Records.

Состав

Oliver Ludley
Rene Schwenk
Tobias Stieler
Benjamin Hellig
Ansgar Koenig

Мои раздачи с альбомами KOKOMO

Kokomo / Totem Youth (2019) [TR24][OF] (24bit / 44kHz)
Kokomo / Monochrome Noise Love (2016) [TR24][OF] (24bit / 44kHz)
Kokomo / Euryale (Terraformer & Kokomo) (EP) (2014) [TR24][OF] (24bit / 44kHz)
[ru-zerkalo.org]_t_5840061
Torrent: Registered ·  [ 2020-01-24 14:33 ] ·  ecf9b72798c94177a7fb899e94e5914055ff7ddb

12 KB

Status: checked
Completed: 1 times
Size: 578 MB
Rating: 
(Votes: 0)
Say thanks: 0  Thanks
 
Похожие темы
[Profile] [PM]
Display posts from previous:    
Reply to topic

The time now is: Today 06:24

All times are GMT + 7 Hours



You cannot post new topics in this forum
You cannot reply to topics in this forum
You cannot edit your posts in this forum
You cannot delete your posts in this forum
You cannot vote in polls in this forum
You cannot attach files in this forum
You can download files in this forum