Register · 
Username: Password:
 ·  Forgot password?

[TR24][OF] Kokomo - Monochrome Noise Love - 2016 (Post-Metal / Post-Rock)

Reply to topic
DL-List and Torrent activity [Update пиров]
Size:  705 MB   |    Registered:  1 month 4 days   |    Completed:  1 time

Seeder not seen: 22 days

 
   
 
 
 
Author Message

ANTON1404 ®

Gender:

Longevity: 6 years 5 months

Posts: 19072

Post 24-Jan-2020 14:33

[Quote]

Kokomo / Monochrome Noise Love- Дата релиза: February 12, 2016
Жанр: Post-Metal / Post-Rock
Страна исполнителя (группы): Germany, Duisburg
Продолжительность: 01:02:40
Наличие сканов: нет
-Источник (релизер): Bandcamp-
1. Pills And Pillows (03:35)
2. Kill The Captain, Feed The Fishes (07:44)
3. Monochrome Noise Love (07:31)
4. Licht/Staub (08:07)

5. Jüngling Mit Apfel (05:22)
6. Beware Of Pity (07:27)
7. I'm Bill Murray (04:25)

8. I'm Not Dead (07:17)
9. Me Vs Myselves (02:49)
10. Deathmaster Danger Dance (08:23)-Формат записи / Источник записи: [TR24][OF]
Контейнер: FLAC (*.flac)
Тип рипа: tracks
Разрядность: 24bit / 44kHz
Количество каналов: 2.0
Формат: PCM
- -[url=tracker.php?pid=38812251] [/url]-

DR

foobar2000 1.4.3 / Замер динамического диапазона (DR) 1.1.1Дата отчёта: 2020-01-24 08:06:59
--------------------------------------------------------------------------------Анализ: Kokomo / Monochrome Noise Love--------------------------------------------------------------------------------
DR Пики RMS Продолжительность трека--------------------------------------------------------------------------------DR9 -0.20 дБ -14.16 дБ 3:35 01-Pills And PillowsDR4 -0.52 дБ -7.29 дБ 7:44 02-Kill The Captain, Feed The FishesDR5 -0.50 дБ -7.04 дБ 7:31 03-Monochrome Noise LoveDR5 -0.50 дБ -6.49 дБ 8:07 04-Licht/StaubDR4 -0.50 дБ -5.81 дБ 5:22 05-Jüngling Mit ApfelDR4 -0.50 дБ -6.47 дБ 7:27 06-Beware Of PityDR5 -0.50 дБ -7.00 дБ 4:25 07-I'm Bill MurrayDR5 -0.50 дБ -8.81 дБ 7:17 08-I'm Not DeadDR6 -0.50 дБ -6.66 дБ 2:49 09-Me Vs MyselvesDR4 -0.50 дБ -8.08 дБ 8:23 10-Deathmaster Danger Dance--------------------------------------------------------------------------------
Количество треков: 10Реальные значения DR: DR5
Частота: 44100 ГцКаналов: 2Разрядность: 24Битрейт: 1443 кбит/сКодек: FLAC================================================================================

MediaInfo

Общее
Полное имя : F:\Раздачи\Kokomo\Kokomo - Monochrome Noise Love (2016)\01. Pills And Pillows.flac
Формат : FLAC
Формат/Информация : Free Lossless Audio Codec
Размер файла : 33,2 Мбайт
Продолжительность : 3 м. 34 с.
Режим общего битрейта : Переменный
Общий поток : 1294 Кбит/сек
Альбом : Monochrome Noise Love
Альбом/Исполнитель : Kokomo
Трек : Pills And Pillows
Трек/Положение : 1
Исполнитель : Kokomo
Жанр : Post-Metal / Post-Rock / Instrumental
Дата записи : 2016
Обложка : Yes
Тип обложки : Cover (front)
MIME-тип обложки : image/jpeg
Аудио
Формат : FLAC
Формат/Информация : Free Lossless Audio Codec
Продолжительность : 3 м. 34 с.
Вид битрейта : Переменный
Битрейт : 1289 Кбит/сек
Каналы : 2 канала
Расположение каналов : Front: L R
Частота : 44,1 КГц
Битовая глубина : 24 бит
Размер потока : 33,0 Мбайт (100%)
Библиотека кодирования : libFLAC 1.3.0 (UTC 2013-05-26)
Общее
Полное имя : F:\Раздачи\Kokomo\Kokomo - Monochrome Noise Love (2016)\02. Kill The Captain, Feed The Fishes.flac
Формат : FLAC
Формат/Информация : Free Lossless Audio Codec
Размер файла : 88,2 Мбайт
Продолжительность : 7 м. 43 с.
Режим общего битрейта : Переменный
Общий поток : 1595 Кбит/сек
Альбом : Monochrome Noise Love
Альбом/Исполнитель : Kokomo
Трек : Kill The Captain, Feed The Fishes
Трек/Положение : 2
Исполнитель : Kokomo
Жанр : Post-Metal / Post-Rock / Instrumental
Дата записи : 2016
Обложка : Yes
Тип обложки : Cover (front)
MIME-тип обложки : image/jpeg
Аудио
Формат : FLAC
Формат/Информация : Free Lossless Audio Codec
Продолжительность : 7 м. 43 с.
Вид битрейта : Переменный
Битрейт : 1592 Кбит/сек
Каналы : 2 канала
Расположение каналов : Front: L R
Частота : 44,1 КГц
Битовая глубина : 24 бит
Размер потока : 88,1 Мбайт (100%)
Библиотека кодирования : libFLAC 1.3.0 (UTC 2013-05-26)
Общее
Полное имя : F:\Раздачи\Kokomo\Kokomo - Monochrome Noise Love (2016)\03. Monochrome Noise Love.flac
Формат : FLAC
Формат/Информация : Free Lossless Audio Codec
Размер файла : 85,5 Мбайт
Продолжительность : 7 м. 30 с.
Режим общего битрейта : Переменный
Общий поток : 1591 Кбит/сек
Альбом : Monochrome Noise Love
Альбом/Исполнитель : Kokomo
Трек : Monochrome Noise Love
Трек/Положение : 3
Исполнитель : Kokomo
Жанр : Post-Metal / Post-Rock / Instrumental
Дата записи : 2016
Обложка : Yes
Тип обложки : Cover (front)
MIME-тип обложки : image/jpeg
Аудио
Формат : FLAC
Формат/Информация : Free Lossless Audio Codec
Продолжительность : 7 м. 30 с.
Вид битрейта : Переменный
Битрейт : 1588 Кбит/сек
Каналы : 2 канала
Расположение каналов : Front: L R
Частота : 44,1 КГц
Битовая глубина : 24 бит
Размер потока : 85,4 Мбайт (100%)
Библиотека кодирования : libFLAC 1.3.0 (UTC 2013-05-26)
Общее
Полное имя : F:\Раздачи\Kokomo\Kokomo - Monochrome Noise Love (2016)\04. Licht-Staub.flac
Формат : FLAC
Формат/Информация : Free Lossless Audio Codec
Размер файла : 97,0 Мбайт
Продолжительность : 8 м. 6 с.
Режим общего битрейта : Переменный
Общий поток : 1672 Кбит/сек
Альбом : Monochrome Noise Love
Альбом/Исполнитель : Kokomo
Трек : Licht/Staub
Трек/Положение : 4
Исполнитель : Kokomo
Жанр : Post-Metal / Post-Rock / Instrumental
Дата записи : 2016
Обложка : Yes
Тип обложки : Cover (front)
MIME-тип обложки : image/jpeg
Аудио
Формат : FLAC
Формат/Информация : Free Lossless Audio Codec
Продолжительность : 8 м. 6 с.
Вид битрейта : Переменный
Битрейт : 1670 Кбит/сек
Каналы : 2 канала
Расположение каналов : Front: L R
Частота : 44,1 КГц
Битовая глубина : 24 бит
Размер потока : 96,9 Мбайт (100%)
Библиотека кодирования : libFLAC 1.3.0 (UTC 2013-05-26)
Общее
Полное имя : F:\Раздачи\Kokomo\Kokomo - Monochrome Noise Love (2016)\05. Jüngling Mit Apfel.flac
Формат : FLAC
Формат/Информация : Free Lossless Audio Codec
Размер файла : 63,7 Мбайт
Продолжительность : 5 м. 21 с.
Режим общего битрейта : Переменный
Общий поток : 1662 Кбит/сек
Альбом : Monochrome Noise Love
Альбом/Исполнитель : Kokomo
Трек : Jüngling Mit Apfel
Трек/Положение : 5
Исполнитель : Kokomo
Жанр : Post-Metal / Post-Rock / Instrumental
Дата записи : 2016
Обложка : Yes
Тип обложки : Cover (front)
MIME-тип обложки : image/jpeg
Аудио
Формат : FLAC
Формат/Информация : Free Lossless Audio Codec
Продолжительность : 5 м. 21 с.
Вид битрейта : Переменный
Битрейт : 1658 Кбит/сек
Каналы : 2 канала
Расположение каналов : Front: L R
Частота : 44,1 КГц
Битовая глубина : 24 бит
Размер потока : 63,6 Мбайт (100%)
Библиотека кодирования : libFLAC 1.3.0 (UTC 2013-05-26)
Общее
Полное имя : F:\Раздачи\Kokomo\Kokomo - Monochrome Noise Love (2016)\06. Beware Of Pity.flac
Формат : FLAC
Формат/Информация : Free Lossless Audio Codec
Размер файла : 81,9 Мбайт
Продолжительность : 7 м. 27 с.
Режим общего битрейта : Переменный
Общий поток : 1535 Кбит/сек
Альбом : Monochrome Noise Love
Альбом/Исполнитель : Kokomo
Трек : Beware Of Pity
Трек/Положение : 6
Исполнитель : Kokomo
Жанр : Post-Metal / Post-Rock / Instrumental
Дата записи : 2016
Обложка : Yes
Тип обложки : Cover (front)
MIME-тип обложки : image/jpeg
Аудио
Формат : FLAC
Формат/Информация : Free Lossless Audio Codec
Продолжительность : 7 м. 27 с.
Вид битрейта : Переменный
Битрейт : 1533 Кбит/сек
Каналы : 2 канала
Расположение каналов : Front: L R
Частота : 44,1 КГц
Битовая глубина : 24 бит
Размер потока : 81,7 Мбайт (100%)
Библиотека кодирования : libFLAC 1.3.1 (UTC 2014-11-25)
Общее
Полное имя : F:\Раздачи\Kokomo\Kokomo - Monochrome Noise Love (2016)\07. I'm Bill Murray.flac
Формат : FLAC
Формат/Информация : Free Lossless Audio Codec
Размер файла : 49,1 Мбайт
Продолжительность : 4 м. 25 с.
Режим общего битрейта : Переменный
Общий поток : 1550 Кбит/сек
Альбом : Monochrome Noise Love
Альбом/Исполнитель : Kokomo
Трек : I'm Bill Murray
Трек/Положение : 7
Исполнитель : Kokomo
Жанр : Post-Metal / Post-Rock / Instrumental
Дата записи : 2016
Обложка : Yes
Тип обложки : Cover (front)
MIME-тип обложки : image/jpeg
Аудио
Формат : FLAC
Формат/Информация : Free Lossless Audio Codec
Продолжительность : 4 м. 25 с.
Вид битрейта : Переменный
Битрейт : 1546 Кбит/сек
Каналы : 2 канала
Расположение каналов : Front: L R
Частота : 44,1 КГц
Битовая глубина : 24 бит
Размер потока : 48,9 Мбайт (100%)
Библиотека кодирования : libFLAC 1.3.1 (UTC 2014-11-25)
Общее
Полное имя : F:\Раздачи\Kokomo\Kokomo - Monochrome Noise Love (2016)\08. I'm Not Dead.flac
Формат : FLAC
Формат/Информация : Free Lossless Audio Codec
Размер файла : 81,3 Мбайт
Продолжительность : 7 м. 17 с.
Режим общего битрейта : Переменный
Общий поток : 1561 Кбит/сек
Альбом : Monochrome Noise Love
Альбом/Исполнитель : Kokomo
Трек : I'm Not Dead
Трек/Положение : 8
Исполнитель : Kokomo
Жанр : Post-Metal / Post-Rock / Instrumental
Дата записи : 2016
Обложка : Yes
Тип обложки : Cover (front)
MIME-тип обложки : image/jpeg
Аудио
Формат : FLAC
Формат/Информация : Free Lossless Audio Codec
Продолжительность : 7 м. 17 с.
Вид битрейта : Переменный
Битрейт : 1559 Кбит/сек
Каналы : 2 канала
Расположение каналов : Front: L R
Частота : 44,1 КГц
Битовая глубина : 24 бит
Размер потока : 81,2 Мбайт (100%)
Библиотека кодирования : libFLAC 1.3.1 (UTC 2014-11-25)
Общее
Полное имя : F:\Раздачи\Kokomo\Kokomo - Monochrome Noise Love (2016)\09. Me Vs Myselves.flac
Формат : FLAC
Формат/Информация : Free Lossless Audio Codec
Размер файла : 34,1 Мбайт
Продолжительность : 2 м. 49 с.
Режим общего битрейта : Переменный
Общий поток : 1694 Кбит/сек
Альбом : Monochrome Noise Love
Альбом/Исполнитель : Kokomo
Трек : Me Vs Myselves
Трек/Положение : 9
Исполнитель : Kokomo
Жанр : Post-Metal / Post-Rock / Instrumental
Дата записи : 2016
Обложка : Yes
Тип обложки : Cover (front)
MIME-тип обложки : image/jpeg
Аудио
Формат : FLAC
Формат/Информация : Free Lossless Audio Codec
Продолжительность : 2 м. 49 с.
Вид битрейта : Переменный
Битрейт : 1688 Кбит/сек
Каналы : 2 канала
Расположение каналов : Front: L R
Частота : 44,1 КГц
Битовая глубина : 24 бит
Размер потока : 34,0 Мбайт (100%)
Библиотека кодирования : libFLAC 1.3.1 (UTC 2014-11-25)
Общее
Полное имя : F:\Раздачи\Kokomo\Kokomo - Monochrome Noise Love (2016)\10. Deathmaster Danger Dance.flac
Формат : FLAC
Формат/Информация : Free Lossless Audio Codec
Размер файла : 86,8 Мбайт
Продолжительность : 8 м. 23 с.
Режим общего битрейта : Переменный
Общий поток : 1445 Кбит/сек
Альбом : Monochrome Noise Love
Альбом/Исполнитель : Kokomo
Трек : Deathmaster Danger Dance
Трек/Положение : 10
Исполнитель : Kokomo
Жанр : Post-Metal / Post-Rock / Instrumental
Дата записи : 2016
Обложка : Yes
Тип обложки : Cover (front)
MIME-тип обложки : image/jpeg
Аудио
Формат : FLAC
Формат/Информация : Free Lossless Audio Codec
Продолжительность : 8 м. 23 с.
Вид битрейта : Переменный
Битрейт : 1443 Кбит/сек
Каналы : 2 канала
Расположение каналов : Front: L R
Частота : 44,1 КГц
Битовая глубина : 24 бит
Размер потока : 86,6 Мбайт (100%)
Библиотека кодирования : libFLAC 1.3.1 (UTC 2014-11-25)
Общее
Полное имя : F:\Раздачи\Kokomo\Kokomo - Monochrome Noise Love (2016)\cover.jpg
Формат : JPEG
Размер файла : 1,11 Мбайт
Изображения
Формат : JPEG
Ширина : 1103 пикселя
Высота : 1103 пикселя
Цветовое пространство : YUV
Субдискретизация насыщенности : 4:4:4
Битовая глубина : 8 бит
Метод сжатия : С потерями
Размер потока : 1,11 Мбайт (100%)

Об альбоме

Monochrome Noise Love was on 12.02.2016 via i.corrupt.records, dunk!records and Aloud Music Ltd.
The album will come as a double-12” on coloured vinyl in a valuable sleeve with cutaway and as 6-page digipak.
Monochrome Noise Love is our fourth album, the first one we wrote and recorded as a five-piece and the complete opposite of a concept album.
You will face a new discovered lightness and ten new songs that each stand for itself – although we had the plan of writing a concept album in the beginning.
In the course of time it got more and more clear, that we will take all the time and freedom we need for this album. Every song arouses the need to try something new, incorporate new thing or write something we always wanted to and to slip in instruments that were needed to make our music complete.
Monochrome Noise Love is darker and more sophisticated than our previous albums. But: Monochrome Noise Love sounds like Kokomo – it is authentic, imperfect, fragile and loud.
All songs written and performed by Kokomo.
Recorded, mixed and mastered by Tobias Stieler in 2015 at our home Toppershouse Recordings.
Vocals on 'Pills and Pillows' by Judith Hess.
Horn, Trumpet & Trombone on 'Pills and Pillows' & 'I'm not Dead' by Judith Hess.
Violine on 'Pills and Pillows', 'Kill the captain, feed the fishes' & 'Beware of Pity' by Vanessa Kreutz.
Artwork by Kokomo

О группе

Music can be heard, described, categorized and analyzed in countless ways. Theodor W. Adorno for instance distinguished between popular and serious and by this gave music a difference in value which is still in use today. But no matter how one approaches music, it is for sure that music is socially produced as well as socially productive.
Since the founding of Kokomo it is this social enviroment that drives us as a band.
Founded in 2008, we played our first tour in autumn of the same year followed by countless concerts up until today and hence friendships in many parts of Europe and a tour in Japan in autumn 2015.
Kokomo is an instrumental rock band founded and grown up in the heyday of abandonment of vocals in “modern” rock music. We never frantically tried to reinvent the genre, but we hope we can set ourselves apart with new album and upcoming shows, reach people and evoke something in them. Then we have achieved all of our significant aims.
Neglecting vocals is not a trend for us, it is conscious backpedalling. We want particularly to let the music speak for itself and think trough this to be able to say much more in the end.
Right from the start our main focus was to have a good time, put a lot of love and effort in our music and everything related to it and play live as much as we can. Both on several tours we did and as support for acts like Caspian, God Is An Astronaut, Junius, A Silver Mt. Zion, This Will Destroy You, Maybeshewill and many more. One highlight must be the Germany tour with And So I Watch You From Afar.
In 2009 we released our debut “Matterhorn Bob And The Black Fair” on CD-R in a elaborate handmade packaging, followed by a split-LP with Kasan on Mayiniax Records in 2010.
As well our second album “If Wolves” as the last one “Kokomo” were both recorded by ourselves and released via i.corrupt.records and dunk!records.
After we collaborated with Terraformer for the project “Euryale” last year, comes now our forth album “Monochrome Noise Love”. The album was again recorded in our own studio in Duisburg. It will be released via i.corrupt.records, dunk!records and Aloud Records.

Состав

Oliver Ludley
Rene Schwenk
Tobias Stieler
Benjamin Hellig
Ansgar Koenig

Мои раздачи с альбомами KOKOMO

Kokomo / Totem Youth (2019) [TR24][OF] (24bit / 44kHz)
Kokomo / Euryale (Terraformer & Kokomo) (EP) (2014) [TR24][OF] (24bit / 44kHz)
Kokomo / s/t (2013) [TR24][OF] (24bit / 44kHz)
[ru-zerkalo.org]_t_5840060
Torrent: Registered ·  [ 2020-01-24 14:33 ] ·  b1f1b96de935083b5986ea210b44f0d3b1d4b58f

15 KB

Status: checked
Completed: 1 times
Size: 705 MB
Rating: 
(Votes: 0)
Say thanks: 0  Thanks
 
Похожие темы
[Profile] [PM]
Display posts from previous:    
Reply to topic

The time now is: Today 08:09

All times are GMT + 7 Hours



You cannot post new topics in this forum
You cannot reply to topics in this forum
You cannot edit your posts in this forum
You cannot delete your posts in this forum
You cannot vote in polls in this forum
You cannot attach files in this forum
You can download files in this forum