Register · 
Username: Password:
 ·  Forgot password?

[TR24][OF] Kokomo - Euryale (Terraformer & Kokomo) (EP) - 2014 (Post-Metal / Post-Rock)

Reply to topic
DL-List and Torrent activity [Update пиров]
Size:  224 MB   |    Registered:  1 month 4 days   |    Completed:  0 times

Seeder not seen: Never

 
   
 
 
 
Author Message

ANTON1404 ®

Gender:

Longevity: 6 years 5 months

Posts: 19072

Post 24-Jan-2020 14:33

[Quote]

Kokomo / Euryale (Terraformer & Kokomo) (EP)- Дата релиза: April 10, 2014
Жанр: Post-Metal / Post-Rock
Страна исполнителя (группы): Germany, Duisburg
Продолжительность: 00:18:58
Наличие сканов: нет
-Источник (релизер): Bandcamp-
1. Generation Noir (06:42)
2. Metamorphosis (05:54)
3. The Great Okapi (06:22)
-Формат записи / Источник записи: [TR24][OF]
Контейнер: FLAC (*.flac)
Тип рипа: tracks
Разрядность: 24bit / 44kHz
Количество каналов: 2.0
Формат: PCM
- -[url=tracker.php?pid=38812251] [/url]-

DR

foobar2000 1.4.3 / Замер динамического диапазона (DR) 1.1.1Дата отчёта: 2020-01-24 08:22:37
--------------------------------------------------------------------------------Анализ: Kokomo / Euryale (Terraformer & Kokomo)--------------------------------------------------------------------------------
DR Пики RMS Продолжительность трека--------------------------------------------------------------------------------DR6 -0.20 дБ -7.05 дБ 6:42 01-Generation NoirDR5 -0.20 дБ -6.72 дБ 5:54 02-MetamorphosisDR5 -0.20 дБ -7.50 дБ 6:22 03-The Great Okapi--------------------------------------------------------------------------------
Количество треков: 3Реальные значения DR: DR5
Частота: 44100 ГцКаналов: 2Разрядность: 24Битрейт: 1600 кбит/сКодек: FLAC================================================================================

MediaInfo

Общее
Полное имя : F:\Раздачи\Kokomo\Kokomo - Euryale (Terraformer & Kokomo) (2014)\01. Generation Noir.flac
Формат : FLAC
Формат/Информация : Free Lossless Audio Codec
Размер файла : 81,5 Мбайт
Продолжительность : 6 м. 42 с.
Режим общего битрейта : Переменный
Общий поток : 1700 Кбит/сек
Альбом : Euryale (Terraformer & Kokomo)
Альбом/Исполнитель : Kokomo
Трек : Generation Noir
Трек/Положение : 1
Исполнитель : Kokomo
Жанр : Post-Metal / Post-Rock / Instrumental
Дата записи : 2014
Обложка : Yes
Тип обложки : Cover (front)
MIME-тип обложки : image/jpeg
Аудио
Формат : FLAC
Формат/Информация : Free Lossless Audio Codec
Продолжительность : 6 м. 42 с.
Вид битрейта : Переменный
Битрейт : 1698 Кбит/сек
Каналы : 2 канала
Расположение каналов : Front: L R
Частота : 44,1 КГц
Битовая глубина : 24 бит
Размер потока : 81,4 Мбайт (100%)
Библиотека кодирования : libFLAC 1.3.1 (UTC 2014-11-25)
Общее
Полное имя : F:\Раздачи\Kokomo\Kokomo - Euryale (Terraformer & Kokomo) (2014)\02. Metamorphosis.flac
Формат : FLAC
Формат/Информация : Free Lossless Audio Codec
Размер файла : 68,3 Мбайт
Продолжительность : 5 м. 53 с.
Режим общего битрейта : Переменный
Общий поток : 1619 Кбит/сек
Альбом : Euryale (Terraformer & Kokomo)
Альбом/Исполнитель : Kokomo
Трек : Metamorphosis
Трек/Положение : 2
Исполнитель : Kokomo
Жанр : Post-Metal / Post-Rock / Instrumental
Дата записи : 2014
Обложка : Yes
Тип обложки : Cover (front)
MIME-тип обложки : image/jpeg
Аудио
Формат : FLAC
Формат/Информация : Free Lossless Audio Codec
Продолжительность : 5 м. 53 с.
Вид битрейта : Переменный
Битрейт : 1618 Кбит/сек
Каналы : 2 канала
Расположение каналов : Front: L R
Частота : 44,1 КГц
Битовая глубина : 24 бит
Размер потока : 68,2 Мбайт (100%)
Библиотека кодирования : libFLAC 1.3.1 (UTC 2014-11-25)
Общее
Полное имя : F:\Раздачи\Kokomo\Kokomo - Euryale (Terraformer & Kokomo) (2014)\03. The Great Okapi.flac
Формат : FLAC
Формат/Информация : Free Lossless Audio Codec
Размер файла : 72,9 Мбайт
Продолжительность : 6 м. 22 с.
Режим общего битрейта : Переменный
Общий поток : 1602 Кбит/сек
Альбом : Euryale (Terraformer & Kokomo)
Альбом/Исполнитель : Kokomo
Трек : The Great Okapi
Трек/Положение : 3
Исполнитель : Kokomo
Жанр : Post-Metal / Post-Rock / Instrumental
Дата записи : 2014
Обложка : Yes
Тип обложки : Cover (front)
MIME-тип обложки : image/jpeg
Аудио
Формат : FLAC
Формат/Информация : Free Lossless Audio Codec
Продолжительность : 6 м. 22 с.
Вид битрейта : Переменный
Битрейт : 1600 Кбит/сек
Каналы : 2 канала
Расположение каналов : Front: L R
Частота : 44,1 КГц
Битовая глубина : 24 бит
Размер потока : 72,9 Мбайт (100%)
Библиотека кодирования : libFLAC 1.3.1 (UTC 2014-11-25)
Общее
Полное имя : F:\Раздачи\Kokomo\Kokomo - Euryale (Terraformer & Kokomo) (2014)\cover.jpg
Формат : JPEG
Размер файла : 78,8 Кбайт
Изображения
Формат : JPEG
Ширина : 960 пикселей
Высота : 960 пикселей
Цветовое пространство : YUV
Субдискретизация насыщенности : 4:2:0
Битовая глубина : 8 бит
Метод сжатия : С потерями
Размер потока : 78,8 Кбайт (100%)

О группе

Music can be heard, described, categorized and analyzed in countless ways. Theodor W. Adorno for instance distinguished between popular and serious and by this gave music a difference in value which is still in use today. But no matter how one approaches music, it is for sure that music is socially produced as well as socially productive.
Since the founding of Kokomo it is this social enviroment that drives us as a band.
Founded in 2008, we played our first tour in autumn of the same year followed by countless concerts up until today and hence friendships in many parts of Europe and a tour in Japan in autumn 2015.
Kokomo is an instrumental rock band founded and grown up in the heyday of abandonment of vocals in “modern” rock music. We never frantically tried to reinvent the genre, but we hope we can set ourselves apart with new album and upcoming shows, reach people and evoke something in them. Then we have achieved all of our significant aims.
Neglecting vocals is not a trend for us, it is conscious backpedalling. We want particularly to let the music speak for itself and think trough this to be able to say much more in the end.
Right from the start our main focus was to have a good time, put a lot of love and effort in our music and everything related to it and play live as much as we can. Both on several tours we did and as support for acts like Caspian, God Is An Astronaut, Junius, A Silver Mt. Zion, This Will Destroy You, Maybeshewill and many more. One highlight must be the Germany tour with And So I Watch You From Afar.
In 2009 we released our debut “Matterhorn Bob And The Black Fair” on CD-R in a elaborate handmade packaging, followed by a split-LP with Kasan on Mayiniax Records in 2010.
As well our second album “If Wolves” as the last one “Kokomo” were both recorded by ourselves and released via i.corrupt.records and dunk!records.
After we collaborated with Terraformer for the project “Euryale” last year, comes now our forth album “Monochrome Noise Love”. The album was again recorded in our own studio in Duisburg. It will be released via i.corrupt.records, dunk!records and Aloud Records.

Состав

Oliver Ludley
Rene Schwenk
Tobias Stieler
Benjamin Hellig
Ansgar Koenig

Мои раздачи с альбомами KOKOMO

Kokomo / Totem Youth (2019) [TR24][OF] (24bit / 44kHz)
Kokomo / Monochrome Noise Love (2016) [TR24][OF] (24bit / 44kHz)
Kokomo / s/t (2013) [TR24][OF] (24bit / 44kHz)
[ru-zerkalo.org]_t_5458979
Torrent: Registered ·  [ 2020-01-24 14:33 ] ·  f04c0144e3342b0c03cdea5a1486620232e5ffac

18 KB

Status: checked
Completed: 0 times
Size: 224 MB
Rating: 
(Votes: 0)
Say thanks: 0  Thanks
 
Похожие темы
[Profile] [PM]
Display posts from previous:    
Reply to topic

The time now is: Today 07:34

All times are GMT + 7 Hours



You cannot post new topics in this forum
You cannot reply to topics in this forum
You cannot edit your posts in this forum
You cannot delete your posts in this forum
You cannot vote in polls in this forum
You cannot attach files in this forum
You can download files in this forum