Register · 
Username: Password:
 ·  Forgot password?

[TR24][OF] Kokomo - Totem Youth - 2019 (Post-Metal / Post-Rock / Instrumental)

Reply to topic
DL-List and Torrent activity [Update пиров]
Size:  523 MB   |    Registered:  1 month 4 days   |    Completed:  1 time

Seeder not seen: 1 day 8 hours

 
   
 
 
 
Author Message

ANTON1404 ®

Gender:

Longevity: 6 years 5 months

Posts: 19072

Post 24-Jan-2020 14:33

[Quote]

Kokomo / Totem Youth- Дата релиза: November 15, 2019
Жанр: Post-Metal / Post-Rock / Instrumental
Страна исполнителя (группы): Germany, Duisburg
Продолжительность: 00:48:57
Наличие сканов: нет
-Источник (релизер): Bandcamp-
1. Sterben Am Fluss (10:36)
2. Hold Me Closer, Unknown Dancer (07:41)
3. Narcosis (05:49)
4. Golden Guns (10:17)

5. Melodic Rock Night (05:21)
6. Der Vogelmann (09:14)-Формат записи / Источник записи: [TR24][OF]
Контейнер: FLAC (*.flac)
Тип рипа: tracks
Разрядность: 24bit / 44kHz
Количество каналов: 2.0
Формат: PCM
- -[url=tracker.php?pid=38812251] [/url]-

DR

foobar2000 1.4.3 / Замер динамического диапазона (DR) 1.1.1Дата отчёта: 2020-01-24 07:44:43
--------------------------------------------------------------------------------Анализ: Kokomo / Totem Youth--------------------------------------------------------------------------------
DR Пики RMS Продолжительность трека--------------------------------------------------------------------------------DR6 -1.00 дБ -9.49 дБ 10:36 01-Sterben Am FlussDR7 -1.00 дБ -11.04 дБ 7:41 02-Hold Me Closer, Unknown DancerDR6 -1.00 дБ -8.65 дБ 5:49 03-NarcosisDR7 -1.00 дБ -11.53 дБ 10:17 04-Golden GunsDR7 -1.00 дБ -10.61 дБ 5:21 05-Melodic Rock NightDR6 -1.00 дБ -10.02 дБ 9:14 06-Der Vogelmann--------------------------------------------------------------------------------
Количество треков: 6Реальные значения DR: DR7
Частота: 44100 ГцКаналов: 2Разрядность: 24Битрейт: 1467 кбит/сКодек: FLAC================================================================================

MediaInfo

Общее
Полное имя : E:\Раздачи\Kokomo\Kokomo - Totem Youth (2019) [24-44.1]\03. Narcosis.flac
Формат : FLAC
Формат/Информация : Free Lossless Audio Codec
Размер файла : 66,4 Мбайт
Продолжительность : 5 м. 48 с.
Режим общего битрейта : Переменный
Общий поток : 1597 Кбит/сек
Альбом : Totem Youth
Альбом/Исполнитель : Kokomo
Трек : Narcosis
Трек/Положение : 3
Исполнитель : Kokomo
Жанр : Post-Metal / Post-Rock / Instrumental
Дата записи : 2019
Обложка : Yes
Тип обложки : Cover (front)
MIME-тип обложки : image/jpeg
Аудио
Формат : FLAC
Формат/Информация : Free Lossless Audio Codec
Продолжительность : 5 м. 48 с.
Вид битрейта : Переменный
Битрейт : 1596 Кбит/сек
Каналы : 2 канала
Channel layout : L R
Частота : 44,1 КГц
Битовая глубина : 24 бит
Метод сжатия : Без потерь
Размер потока : 66,3 Мбайт (100%)
Библиотека кодирования : libFLAC 1.3.0 (UTC 2013-05-26)
Общее
Полное имя : E:\Раздачи\Kokomo\Kokomo - Totem Youth (2019) [24-44.1]\04. Golden Guns.flac
Формат : FLAC
Формат/Информация : Free Lossless Audio Codec
Размер файла : 99,2 Мбайт
Продолжительность : 10 м. 16 с.
Режим общего битрейта : Переменный
Общий поток : 1350 Кбит/сек
Альбом : Totem Youth
Альбом/Исполнитель : Kokomo
Трек : Golden Guns
Трек/Положение : 4
Исполнитель : Kokomo
Жанр : Post-Metal / Post-Rock / Instrumental
Дата записи : 2019
Обложка : Yes
Тип обложки : Cover (front)
MIME-тип обложки : image/jpeg
Аудио
Формат : FLAC
Формат/Информация : Free Lossless Audio Codec
Продолжительность : 10 м. 16 с.
Вид битрейта : Переменный
Битрейт : 1349 Кбит/сек
Каналы : 2 канала
Channel layout : L R
Частота : 44,1 КГц
Битовая глубина : 24 бит
Метод сжатия : Без потерь
Размер потока : 99,2 Мбайт (100%)
Библиотека кодирования : libFLAC 1.3.0 (UTC 2013-05-26)
Общее
Полное имя : E:\Раздачи\Kokomo\Kokomo - Totem Youth (2019) [24-44.1]\05. Melodic Rock Night.flac
Формат : FLAC
Формат/Информация : Free Lossless Audio Codec
Размер файла : 60,0 Мбайт
Продолжительность : 5 м. 21 с.
Режим общего битрейта : Переменный
Общий поток : 1566 Кбит/сек
Альбом : Totem Youth
Альбом/Исполнитель : Kokomo
Трек : Melodic Rock Night
Трек/Положение : 5
Исполнитель : Kokomo
Жанр : Post-Metal / Post-Rock / Instrumental
Дата записи : 2019
Обложка : Yes
Тип обложки : Cover (front)
MIME-тип обложки : image/jpeg
Аудио
Формат : FLAC
Формат/Информация : Free Lossless Audio Codec
Продолжительность : 5 м. 21 с.
Вид битрейта : Переменный
Битрейт : 1565 Кбит/сек
Каналы : 2 канала
Channel layout : L R
Частота : 44,1 КГц
Битовая глубина : 24 бит
Метод сжатия : Без потерь
Размер потока : 59,9 Мбайт (100%)
Библиотека кодирования : libFLAC 1.3.0 (UTC 2013-05-26)
Общее
Полное имя : E:\Раздачи\Kokomo\Kokomo - Totem Youth (2019) [24-44.1]\06. Der Vogelmann.flac
Формат : FLAC
Формат/Информация : Free Lossless Audio Codec
Размер файла : 96,9 Мбайт
Продолжительность : 9 м. 13 с.
Режим общего битрейта : Переменный
Общий поток : 1468 Кбит/сек
Альбом : Totem Youth
Альбом/Исполнитель : Kokomo
Трек : Der Vogelmann
Трек/Положение : 6
Исполнитель : Kokomo
Жанр : Post-Metal / Post-Rock / Instrumental
Дата записи : 2019
Обложка : Yes
Тип обложки : Cover (front)
MIME-тип обложки : image/jpeg
Аудио
Формат : FLAC
Формат/Информация : Free Lossless Audio Codec
Продолжительность : 9 м. 13 с.
Вид битрейта : Переменный
Битрейт : 1467 Кбит/сек
Каналы : 2 канала
Channel layout : L R
Частота : 44,1 КГц
Битовая глубина : 24 бит
Метод сжатия : Без потерь
Размер потока : 96,8 Мбайт (100%)
Библиотека кодирования : libFLAC 1.3.0 (UTC 2013-05-26)
Общее
Полное имя : E:\Раздачи\Kokomo\Kokomo - Totem Youth (2019) [24-44.1]\01. Sterben Am Fluss.flac
Формат : FLAC
Формат/Информация : Free Lossless Audio Codec
Размер файла : 118 Мбайт
Продолжительность : 10 м. 35 с.
Режим общего битрейта : Переменный
Общий поток : 1557 Кбит/сек
Альбом : Totem Youth
Альбом/Исполнитель : Kokomo
Трек : Sterben Am Fluss
Трек/Положение : 1
Исполнитель : Kokomo
Жанр : Post-Metal / Post-Rock / Instrumental
Дата записи : 2019
Обложка : Yes
Тип обложки : Cover (front)
MIME-тип обложки : image/jpeg
Аудио
Формат : FLAC
Формат/Информация : Free Lossless Audio Codec
Продолжительность : 10 м. 35 с.
Вид битрейта : Переменный
Битрейт : 1556 Кбит/сек
Каналы : 2 канала
Channel layout : L R
Частота : 44,1 КГц
Битовая глубина : 24 бит
Метод сжатия : Без потерь
Размер потока : 118 Мбайт (100%)
Библиотека кодирования : libFLAC 1.3.0 (UTC 2013-05-26)
Общее
Полное имя : E:\Раздачи\Kokomo\Kokomo - Totem Youth (2019) [24-44.1]\02. Hold Me Closer, Unknown Dancer.flac
Формат : FLAC
Формат/Информация : Free Lossless Audio Codec
Размер файла : 79,8 Мбайт
Продолжительность : 7 м. 40 с.
Режим общего битрейта : Переменный
Общий поток : 1454 Кбит/сек
Альбом : Totem Youth
Альбом/Исполнитель : Kokomo
Трек : Hold Me Closer, Unknown Dancer
Трек/Положение : 2
Исполнитель : Kokomo
Жанр : Post-Metal / Post-Rock / Instrumental
Дата записи : 2019
Обложка : Yes
Тип обложки : Cover (front)
MIME-тип обложки : image/jpeg
Аудио
Формат : FLAC
Формат/Информация : Free Lossless Audio Codec
Продолжительность : 7 м. 40 с.
Вид битрейта : Переменный
Битрейт : 1453 Кбит/сек
Каналы : 2 канала
Channel layout : L R
Частота : 44,1 КГц
Битовая глубина : 24 бит
Метод сжатия : Без потерь
Размер потока : 79,7 Мбайт (100%)
Библиотека кодирования : libFLAC 1.3.0 (UTC 2013-05-26)

Об альбоме

TOTEM YOUTH is our fifth album and will be released on November 15th.
All songs written and performed by Kokomo
Recorded, mixed and mastered by Tobias Stieler in 2019 at our home Toppershouse Recordings
Artwork by Christian Brix.

О группе

Music can be heard, described, categorized and analyzed in countless ways. Theodor W. Adorno for instance distinguished between popular and serious and by this gave music a difference in value which is still in use today. But no matter how one approaches music, it is for sure that music is socially produced as well as socially productive.
Since the founding of Kokomo it is this social enviroment that drives us as a band.
Founded in 2008, we played our first tour in autumn of the same year followed by countless concerts up until today and hence friendships in many parts of Europe and a tour in Japan in autumn 2015.
Kokomo is an instrumental rock band founded and grown up in the heyday of abandonment of vocals in “modern” rock music. We never frantically tried to reinvent the genre, but we hope we can set ourselves apart with new album and upcoming shows, reach people and evoke something in them. Then we have achieved all of our significant aims.
Neglecting vocals is not a trend for us, it is conscious backpedalling. We want particularly to let the music speak for itself and think trough this to be able to say much more in the end.
Right from the start our main focus was to have a good time, put a lot of love and effort in our music and everything related to it and play live as much as we can. Both on several tours we did and as support for acts like Caspian, God Is An Astronaut, Junius, A Silver Mt. Zion, This Will Destroy You, Maybeshewill and many more. One highlight must be the Germany tour with And So I Watch You From Afar.
In 2009 we released our debut “Matterhorn Bob And The Black Fair” on CD-R in a elaborate handmade packaging, followed by a split-LP with Kasan on Mayiniax Records in 2010.
As well our second album “If Wolves” as the last one “Kokomo” were both recorded by ourselves and released via i.corrupt.records and dunk!records.
After we collaborated with Terraformer for the project “Euryale” last year, comes now our forth album “Monochrome Noise Love”. The album was again recorded in our own studio in Duisburg. It will be released via i.corrupt.records, dunk!records and Aloud Records.

Состав

Oliver Ludley
Rene Schwenk
Tobias Stieler
Benjamin Hellig
Ansgar Koenig

Мои раздачи с альбомами KOKOMO

Kokomo / Monochrome Noise Love (2016) [TR24][OF] (24bit / 44kHz)
Kokomo / Euryale (Terraformer & Kokomo) (EP) (2014) [TR24][OF] (24bit / 44kHz)
Kokomo / s/t (2013) [TR24][OF] (24bit / 44kHz)
[ru-zerkalo.org]_t_5840048
Torrent: Registered ·  [ 2020-01-24 14:33 ] ·  cfa28c99d110d9054765ea11af60743acbb32990

11 KB

Status: checked
Completed: 1 times
Size: 523 MB
Rating: 
(Votes: 0)
Say thanks: 0  Thanks
 
Похожие темы
[Profile] [PM]
Display posts from previous:    
Reply to topic

The time now is: Today 07:14

All times are GMT + 7 Hours



You cannot post new topics in this forum
You cannot reply to topics in this forum
You cannot edit your posts in this forum
You cannot delete your posts in this forum
You cannot vote in polls in this forum
You cannot attach files in this forum
You can download files in this forum