Register · 
Username: Password:
 ·  Forgot password?

[TR24][OF] Passion - Passion - 2020 (Melodic Hard Rock)

Reply to topic
DL-List and Torrent activity [Update пиров]
Size:  500 MB   |    Registered:  1 month 4 days   |    Completed:  1 time

Seeder not seen: 15 days

 
   
 
 
 
Author Message

ANTON1404 ®

Gender:

Longevity: 6 years 5 months

Posts: 19072

Post 24-Jan-2020 16:36

[Quote]

Passion - Passion- Формат / Источник записи: [TR24][OF]
Наличие водяных знаков: Нет
Год издания: 2020-01-24
Жанр: Melodic Hard Rock
Издатель-лейбл: Frontiers Records S.R.L.
Продолжительность: 00:40:06
Наличие сканов: Нет
Контейнер: FLAC (*.flac)
Тип рипа: tracks
Разрядность: 24/44.1
Формат: PCM
Количество каналов: 2.0
Источник: интернет

Треклист:
01. Intensity (4:33)
02. Trespass on Love (4:03)
03. Too Bad for Baby (3:56)
04. Lost in the Dark (5:25)
05. Back (3:24)
06. Victims of Desire (4:05)
07. We Do What We Want (3:31)
08. Built to Please (3:20)
09. She Bites Hard (3:52)
10. Big Game (3:58)

Лог проверки качества

foobar2000 1.5 / Замер динамического диапазона (DR) 1.1.1Дата отчёта: 2020-01-24 10:30:41
--------------------------------------------------------------------------------Анализ: Passion / Passion--------------------------------------------------------------------------------
DR Пики RMS Продолжительность трека--------------------------------------------------------------------------------DR6 -0.21 дБ -7.17 дБ 4:33 01-IntensityDR6 -0.10 дБ -6.74 дБ 4:03 02-Trespass on LoveDR6 -0.12 дБ -7.11 дБ 3:56 03-Too Bad for BabyDR6 -0.12 дБ -6.52 дБ 5:25 04-Lost in the DarkDR6 -0.10 дБ -6.60 дБ 3:24 05-BackDR6 -0.16 дБ -6.42 дБ 4:05 06-Victims of DesireDR7 -0.10 дБ -7.84 дБ 3:31 07-We Do What We WantDR7 -0.12 дБ -7.67 дБ 3:20 08-Built to PleaseDR6 -0.12 дБ -7.18 дБ 3:52 09-She Bites HardDR6 -0.17 дБ -6.83 дБ 3:58 10-Big Game--------------------------------------------------------------------------------
Количество треков: 10Реальные значения DR: DR6
Частота: 44100 ГцКаналов: 2Разрядность: 24Битрейт: 1773 кбит/сКодек: FLAC================================================================================
[ru-zerkalo.org]_t_5840094
Torrent: Registered ·  [ 2020-01-24 16:36 ] ·  1df376cda9771f8956e429768f7cce47c8945774

20 KB

Status: checked
Completed: 1 times
Size: 500 MB
Rating: 
(Votes: 0)
Say thanks: 0  Thanks
 
Похожие темы
[Profile] [PM]
Display posts from previous:    
Reply to topic

The time now is: Today 08:11

All times are GMT + 7 Hours



You cannot post new topics in this forum
You cannot reply to topics in this forum
You cannot edit your posts in this forum
You cannot delete your posts in this forum
You cannot vote in polls in this forum
You cannot attach files in this forum
You can download files in this forum