Register · 
Username: Password:
 ·  Forgot password?

Emeli Sande - Live at the Royal Albert Hall [2013, R&B, Soul, Pop, BDRip, 720p]

Reply to topic
DL-List and Torrent activity [Update пиров]
Size:  5.34 GB   |    Registered:  1 year 8 months   |    Completed:  2 times

Seeder not seen: 2 months 27 days

 
   
 
 
 
Author Message

temkin_88 ®

Gender:

Longevity: 6 years

Posts: 17316

Post 13-Feb-2018 20:37

[Quote]

Emeli Sandé - Live at the Royal Albert Hall
Жанр: R&B, Soul, Pop
Продолжительность: 01:39:59
Год выпуска: 2013
Описание: • Live at the Royal Albert Hall is the debut live album by Scottish recording artist Emeli Sandé. The album was released on 18 February 2013. The set features the headline concert filmed at London's Royal Albert Hall on 11 November 2012. The set includes Sandé's hit singles, and songs from her number-one selling debut album Our Version of Events. The set also includes a cover from one of Sandé's idols, Nina Simone, as well as two new songs, "Enough" and "Pluto", which are due to be released on her second studio album. Professor Green made a brief appearance during "Read All About It, Pt. III" and Labrinth and Sandé performed "Beneath Your Beautiful" during the encore.
Треклист:
01. Daddy
02. Tiger
03. Where
04. Sleep
05. Breaking the Law
06. Enough
07. Pluto
08. My Kind of Love
09. Abide With Me
10. Clown
11. River
12. Wish
13. Knew How It Would Feel To Be Free
14. Suitcase
15. Read All About It, Pt. III [feat. Professor Green]
16. Wonder
17. Mountains
18. Heaven
19. Beneath Your Beautiful [feat. Labrinth]
20. Maybe
21. Next to Me
Источник Emeli Sande - Live at the Royal Albert Hall [2013, R&B, Soul, Pop, Blu-ray, 1080p]
Качество: BDRip
Разрешение видео/развертка: 720p
Контейнер:MKV
Видео кодек: H.264
Аудио кодек: DTS, FLAC
Видео: AVC, 1280x504 (2.554), 29.970 fps, 4 000 Kbps
Аудио#1: DTS, 48.0 KHz, 6 ch, 1 510 Kbps
Аудио#2: FLAC, 48.0 KHz, 2 ch, 1 694 kbps

MediaInfo / x264Logx264Log

[Information] [14.01.2018 13:38:39] Standard error stream-[Information] [14.01.2018 13:39:19] raw [info]: 1280x504p 189:188 @ 30000/1001 fps (cfr)-[Information] [14.01.2018 13:39:19] x264 [info]: using SAR=189/188-[Information] [14.01.2018 13:39:19] x264 [info]: using cpu capabilities: MMX2 SSE2Fast SSSE3 SSE4.2 AVX-[Information] [14.01.2018 13:39:19] x264 [info]: profile High, level 4.1-[Information] [15.01.2018 0:26:20] x264 [info]: frame I:1098 Avg QP:16.10 size: 78867-[Information] [15.01.2018 0:26:20] x264 [info]: frame P:45338 Avg QP:19.19 size: 29695-[Information] [15.01.2018 0:26:20] x264 [info]: frame B:144442 Avg QP:21.31 size: 12110-[Information] [15.01.2018 0:26:20] x264 [info]: consecutive B-frames: 1.6% 5.1% 8.1% 37.9% 13.8% 24.9% 5.0% 0.4% 3.3%-[Information] [15.01.2018 0:26:20] x264 [info]: mb I I16..4: 12.2% 67.0% 20.8%-[Information] [15.01.2018 0:26:20] x264 [info]: mb P I16..4: 3.4% 11.8% 2.0% P16..4: 31.3% 32.1% 8.5% 1.2% 0.1% skip: 9.4%-[Information] [15.01.2018 0:26:20] x264 [info]: mb B I16..4: 0.6% 2.2% 0.2% B16..8: 34.8% 16.8% 2.4% direct:10.2% skip:32.7% L0:45.2% L1:43.0% BI:11.7%-[Information] [15.01.2018 0:26:20] x264 [info]: 8x8 transform intra:69.9% inter:65.2%-[Information] [15.01.2018 0:26:20] x264 [info]: direct mvs spatial:93.3% temporal:6.7%-[Information] [15.01.2018 0:26:20] x264 [info]: coded y,uvDC,uvAC intra: 61.9% 75.2% 48.7% inter: 26.4% 35.5% 8.4%-[Information] [15.01.2018 0:26:20] x264 [info]: i16 v,h,dc,p: 45% 18% 6% 31%-[Information] [15.01.2018 0:26:20] x264 [info]: i8 v,h,dc,ddl,ddr,vr,hd,vl,hu: 9% 6% 15% 10% 13% 13% 12% 11% 12%-[Information] [15.01.2018 0:26:20] x264 [info]: i4 v,h,dc,ddl,ddr,vr,hd,vl,hu: 14% 10% 11% 8% 12% 12% 12% 10% 12%-[Information] [15.01.2018 0:26:20] x264 [info]: i8c dc,h,v,p: 34% 26% 19% 21%-[Information] [15.01.2018 0:26:20] x264 [info]: Weighted P-Frames: Y:8.9% UV:5.2%-[Information] [15.01.2018 0:26:20] x264 [info]: ref P L0: 45.1% 7.8% 18.9% 8.5% 5.0% 4.1% 3.1% 1.9% 1.6% 1.5% 1.2% 1.3% 0.1% 0.0%-[Information] [15.01.2018 0:26:20] x264 [info]: ref B L0: 74.0% 10.3% 6.5% 2.7% 1.8% 1.5% 1.2% 0.7% 0.6% 0.4% 0.2%-[Information] [15.01.2018 0:26:20] x264 [info]: ref B L1: 95.3% 4.7%-[Information] [15.01.2018 0:26:20] x264 [info]: kb/s:3996.92-[Information] [15.01.2018 0:26:20] encoded 190878 frames, 4.92 fps, 3996.92 kb/s
GeneralUnique ID : 177838347216860204945716858778274746015 (0x85CA6B79189472DEA487CD1A6CD3CE9F)Complete name : G:\Emeli Sande - Live at the Royal Albert Hall.BDRip720p.mkvFormat : MatroskaFormat version : Version 2File size : 5.34 GiBDuration : 1 h 46 minOverall bit rate mode : VariableOverall bit rate : 7 202 kb/sMovie name : Emeli Sande - Live at the Royal Albert Hall.BDRip720p @ Encoded date : UTC 2018-01-15 08:14:35Writing application : mkvmerge v9.8.0 ('Kuglblids') 64bitWriting library : libebml v1.3.4 + libmatroska v1.4.5
VideoID : 1Format : AVCFormat/Info : Advanced Video CodecFormat profile : High@L4.1Format settings : CABAC / 12 Ref FramesFormat settings, CABAC : YesFormat settings, RefFrames : 12 framesCodec ID : V_MPEG4/ISO/AVCDuration : 1 h 46 minBit rate : 4 000 kb/sWidth : 1 280 pixelsHeight : 504 pixelsDisplay aspect ratio : 2.554Original display aspect ratio : 2.553Frame rate mode : ConstantFrame rate : 29.970 (30000/1001) FPSColor space : YUVChroma subsampling : 4:2:0Bit depth : 8 bitsScan type : ProgressiveBits/(Pixel*Frame) : 0.207Stream size : 2.96 GiB (55%)Title : anbelk27 @ Writing library : x264 core 152 r2851 ba24899Encoding settings : cabac=1 / ref=12 / deblock=1:-1:-1 / analyse=0x3:0x133 / me=umh / subme=11 / psy=1 / psy_rd=1.11:0.05 / mixed_ref=1 / me_range=32 / chroma_me=1 / trellis=2 / 8x8dct=1 / cqm=0 / deadzone=21,11 / fast_pskip=1 / chroma_qp_offset=-3 / threads=6 / lookahead_threads=1 / sliced_threads=0 / nr=0 / decimate=1 / interlaced=0 / bluray_compat=0 / constrained_intra=0 / bframes=8 / b_pyramid=2 / b_adapt=2 / b_bias=0 / direct=3 / weightb=1 / open_gop=0 / weightp=2 / keyint=300 / keyint_min=29 / scenecut=50 / intra_refresh=0 / rc_lookahead=60 / rc=2pass / mbtree=1 / bitrate=4000 / ratetol=1.0 / qcomp=0.60 / qpmin=0 / qpmax=69 / qpstep=4 / cplxblur=20.0 / qblur=0.5 / vbv_maxrate=50000 / vbv_bufsize=62500 / nal_hrd=none / filler=0 / ip_ratio=1.40 / aq=1:1.00Default : YesForced : No
Audio #1ID : 2Format : DTSFormat/Info : Digital Theater SystemsCodec ID : A_DTSDuration : 1 h 46 minBit rate mode : ConstantBit rate : 1 509 kb/sChannel(s) : 6 channelsChannel positions : Front: L C R, Side: L R, LFESampling rate : 48.0 kHzFrame rate : 93.750 FPS (512 SPF)Bit depth : 24 bitsCompression mode : LossyStream size : 1.12 GiB (21%)Title : DTS 5.1 @ 24 bitDefault : YesForced : No
Audio #2ID : 3Format : FLACFormat/Info : Free Lossless Audio CodecCodec ID : A_FLACDuration : 1 h 46 minBit rate mode : VariableBit rate : 1 694 kb/sChannel(s) : 2 channelsChannel positions : Front: L RSampling rate : 48.0 kHzFrame rate : 11.719 FPS (4096 SPF)Bit depth : 24 bitsStream size : 1.26 GiB (24%)Title : FLAC 2.0 @ 24 bitWriting library : libFLAC 1.2.1 (UTC 2007-09-17)Default : NoForced : No
Menu00:00:00.000 : en: 01. Daddy00:05:00.467 : en: 02. Tiger00:09:13.887 : en: 03. Where / Sleep00:14:01.374 : en: 04. Breaking the Law00:18:20.166 : en: 05. Enough00:22:25.611 : en: 06. Pluto00:26:38.564 : en: 07. My Kind of Love00:33:44.689 : en: 08. Abide With Me00:36:09.801 : en: 09. Clown00:41:17.308 : en: 10. River00:47:53.804 : en: 11. Wish / Knew How It Would Feel To Be Free00:51:39.830 : en: 12. Suitcase00:55:41.405 : en: 13. Read All About It, Pt. III [feat. Professor Green]01:03:20.296 : en: 14. Wonder01:09:43.179 : en: 15. Mountains01:15:22.518 : en: 16. Heaven01:22:55.637 : en: 17. Beneath Your Beautiful [feat. Labrinth]01:27:33.448 : en: 18. Maybe01:31:51.973 : en: 19. Next to Me01:37:06.988 : en: Credits
[ru-zerkalo.org]_t_5508098
Torrent: Registered ·  [ 2018-02-13 20:35 ] ·  6ac94dbd833809523f05f1b702afbc9c216e1dba

27 KB

Status: checked
Completed: 2 times
Size: 5.34 GB
Rating: 
(Votes: 0)
Say thanks: 1  Thanks   (list)
 
Похожие темы
[Profile] [PM]

Guest

Longevity: 49 years

Post 19-Jul-2019 06:56 (after 1 year 5 months)

[Quote]

thanks
[Profile] [PM]
Display posts from previous:    
Reply to topic

The time now is: Today 22:56

All times are GMT + 7 Hours



You cannot post new topics in this forum
You cannot reply to topics in this forum
You cannot edit your posts in this forum
You cannot delete your posts in this forum
You cannot vote in polls in this forum
You cannot attach files in this forum
You can download files in this forum