Register · 
Username: Password:
 ·  Forgot password?

Metallica - Reading Festival 1997 [1997, Thrash Metal, DVDRip-AVC]

Reply to topic
DL-List and Torrent activity [Update пиров]
Size:  1.4 GB   |    Registered:  1 year 2 months   |    Completed:  1 time

Seeder not seen: 5 months 26 days

 
   
 
 
 
Author Message

Makci ®

Gender:

Longevity: 6 years 2 months

Posts: 12410

Post 20-Sep-2018 02:48

[Quote]

Reading Festival 1997-[img=right]https://d.radikal.ru/d00/1809/4a/2c0f5db16250.jpg[/img]--Страна:
Жанр: Thrash Metal
Продолжительность: 01:29:07
Год выпуска: 1997
Описание: Recorded live at Reading Festival, UK, August 24, 1997.-Треклист:
01. Intro/No Remorse
02. So What!
03. Master of Puppets
04. King Nothing
05. Sad But True
06. Fuel
07. Hero of the Day
08. Ain't My Bitch
09. One
10. Until it Sleeps
11. For Whom the Bells Toll?
12. Wherever I May Roam
13. Nothing Else Matters
14. Enter Sandman
15. Stone Cold Crazy
16. Creeping Death
17. Battery
18. Last Caress
19. Motorbreath
20. Outro-Источник: собственный рип-Качество: DVDRip
Контейнер: MKV
Видео кодек: H.264
Аудио кодек: AC3
Видео: MPEG4 AVC / 616*464 (4:3) / 29.97 fps / 2059 kbps
Аудио: AC3 / 192 kbps / 48.0 khz / 2 ch

MI

ОбщееУникальный идентификатор : 199794774099257099123250515863308227530 (0x964F12E5AB7D467EA0B1A57E110253CA)Полное имя : D:\Video\Metallica - Reading Festival 1997.mkvФормат : MatroskaВерсия формата : Version 4Размер файла : 1,40 ГбайтПродолжительность : 1 ч. 29 м.Общий поток : 2253 Кбит/секДата кодирования : UTC 2018-09-16 08:26:18Программа кодирования : mkvmerge v7.1.0 ('Good Love') 64bit built on Jul 27 2014 13:06:55Библиотека кодирования : libebml v1.3.0 + libmatroska v1.4.1
ВидеоИдентификатор : 1Формат : AVCФормат/Информация : Advanced Video CodecПрофиль формата : High@L4.1Настройки формата : CABAC / 16 Ref FramesПараметр CABAC формата : ДаПараметр RefFrames формата : 16 кадровИдентификатор кодека : V_MPEG4/ISO/AVCПродолжительность : 1 ч. 29 м.Битрейт : 2059 Кбит/секШирина : 616 пикселейВысота : 464 пикселяСоотношение сторон : 4:3Режим частоты кадров : ПостоянныйЧастота кадров : 29,970 (30000/1001) кадров/секЦветовое пространство : YUVСубдискретизация насыщенности : 4:2:0Битовая глубина : 8 битТип развёртки : ПрогрессивнаяБит/(Пиксели*Кадры) : 0.240Размер потока : 1,28 Гбайт (91%)Библиотека кодирования : x264 core 152 r2851 ba24899Настройки программы : cabac=1 / ref=16 / deblock=1:-2:-2 / analyse=0x3:0x133 / me=umh / subme=10 / psy=1 / psy_rd=1.00:0.15 / mixed_ref=1 / me_range=24 / chroma_me=1 / trellis=2 / 8x8dct=1 / cqm=0 / deadzone=21,11 / fast_pskip=1 / chroma_qp_offset=-3 / threads=6 / lookahead_threads=1 / sliced_threads=0 / nr=0 / decimate=1 / interlaced=0 / bluray_compat=0 / constrained_intra=0 / bframes=8 / b_pyramid=2 / b_adapt=2 / b_bias=0 / direct=3 / weightb=1 / open_gop=0 / weightp=2 / keyint=300 / keyint_min=29 / scenecut=40 / intra_refresh=0 / rc_lookahead=60 / rc=2pass / mbtree=1 / bitrate=2059 / ratetol=1.0 / qcomp=0.60 / qpmin=0 / qpmax=69 / qpstep=4 / cplxblur=20.0 / qblur=0.5 / vbv_maxrate=50000 / vbv_bufsize=50000 / nal_hrd=none / filler=0 / ip_ratio=1.40 / aq=1:1.00Default : ДаForced : Нет
АудиоИдентификатор : 2Формат : AC-3Формат/Информация : Audio Coding 3Коммерческое название : Dolby DigitalИдентификатор кодека : A_AC3Продолжительность : 1 ч. 29 м.Вид битрейта : ПостоянныйБитрейт : 192 Кбит/секКаналы : 2 каналаChannel layout : L RЧастота : 48,0 КГцЧастота кадров : 31,250 кадров/сек (1536 SPF)Битовая глубина : 16 битМетод сжатия : С потерямиРазмер потока : 122 Мбайт (9%)ServiceKind/String : Complete MainDefault : ДаForced : Нет
Меню00:00:00.000 : en:Intro/No Remorse00:01:39.000 : en:So What!00:04:17.000 : en:Master of Puppets00:08:13.000 : en:King Nothing00:14:28.000 : en:Sad But True00:20:02.000 : en:Fuel00:24:27.000 : en:Hero of the Day00:28:48.000 : en:Ain't My Bitch00:33:53.000 : en:One00:40:49.000 : en:Until it Sleeps00:45:01.000 : en:For Whom the Bells Toll?00:50:05.000 : en:Wherever I May Roam00:56:51.000 : en:Nothing Else Matters01:02:58.000 : en:Enter Sandman01:10:49.000 : en:Stone Cold Crazy01:14:57.000 : en:Creeping Death01:20:42.000 : en:Battery01:24:34.000 : en:Last Caress01:26:04.000 : en:Motorbreath01:28:23.834 : en:Outro
[ru-zerkalo.org]_t_5614426
Torrent: Registered ·  [ 2018-09-20 02:48 ] ·  c02ec629db306899223117868eca106d7f45da26

14 KB

Status: checked
Completed: 1 times
Size: 1.4 GB
Rating: 
(Votes: 0)
Say thanks: 0  Thanks
 
Похожие темы
[Profile] [PM]
Display posts from previous:    
Reply to topic

The time now is: Today 02:31

All times are GMT + 7 Hours



You cannot post new topics in this forum
You cannot reply to topics in this forum
You cannot edit your posts in this forum
You cannot delete your posts in this forum
You cannot vote in polls in this forum
You cannot attach files in this forum
You can download files in this forum