Register · 
Username: Password:
 ·  Forgot password?

Rage - From The Cradle To The Stage/live in Zeche, Bochum [2004, Heavy Metal, Speed Metal, DVDRip-AVC]

Reply to topic
DL-List and Torrent activity [Update пиров]
Size:  2.14 GB   |    Registered:  1 year 2 months   |    Completed:  0 times

Seeder not seen: Never

 
   
 
 
 
Author Message

Makci ®

Gender:

Longevity: 6 years 2 months

Posts: 12410

Post 20-Sep-2018 02:53

[Quote]

live in Zeche, Bochum- --Страна:
Жанр: Heavy Metal, Speed Metal
Продолжительность: 02:10:58
Год выпуска: 2004
Описание: Концерт 25 января 2004 года в Бохуме(Германия).--Треклист:
01. Orgy Of Destruction
02. War Of Worlds
03. Great Old Ones
04. Paint The Devil On The Wall
05. Sent By The Devil
06. Firestorm
07. Down
08. Prayers Of Steel
09. Suicide
10. Days Of December
11. Unity
12. Anarchy (Drum Solo)
13. Invisible Horizons
14. Set This World On Fire
15. Flesh And Blood
16. Rocket Science (Guitar Solo)
17. Soundchaser
18. Straight To Hell
19. Back In Time
20. Refuge
21. From The Cradle To The Grave
22. Black In Mind
23. Solitary Man
24. Don't Fear The Winter
25. All I Want
26. Higher Than The Sky-Источник: собственный рип--Качество: DVDRip-AVC
Контейнер: MKV
Видео кодек: H.264
Аудио кодек: AC3
Видео: MPEG4 AVC / 712*392 (16:9) / 25.0 fps / 2150 kbps
Аудио: AC3 / 192 kbps / 48.0 khz / 2 ch

MI

ОбщееУникальный идентификатор : 176024322146909600026817422818165322898 (0x846D0D21C17028909C41D6CF2832F492)Полное имя : D:\Video\Rage - live in Zeche, Bochum.mkvФормат : MatroskaВерсия формата : Version 4Размер файла : 2,14 ГбайтПродолжительность : 2 ч. 10 м.Общий поток : 2344 Кбит/секДата кодирования : UTC 2018-09-14 10:58:41Программа кодирования : mkvmerge v7.1.0 ('Good Love') 64bit built on Jul 27 2014 13:06:55Библиотека кодирования : libebml v1.3.0 + libmatroska v1.4.1
ВидеоИдентификатор : 1Формат : AVCФормат/Информация : Advanced Video CodecПрофиль формата : High@L4.1Настройки формата : CABAC / 16 Ref FramesПараметр CABAC формата : ДаПараметр RefFrames формата : 16 кадровИдентификатор кодека : V_MPEG4/ISO/AVCПродолжительность : 2 ч. 10 м.Битрейт : 2150 Кбит/секШирина : 712 пикселейВысота : 392 пикселяСоотношение сторон : 16:9Режим частоты кадров : ПостоянныйЧастота кадров : 25,000 кадров/секЦветовое пространство : YUVСубдискретизация насыщенности : 4:2:0Битовая глубина : 8 битТип развёртки : ПрогрессивнаяБит/(Пиксели*Кадры) : 0.308Размер потока : 1,97 Гбайт (92%)Библиотека кодирования : x264 core 152 r2851 ba24899Настройки программы : cabac=1 / ref=16 / deblock=1:-2:-2 / analyse=0x3:0x133 / me=umh / subme=10 / psy=1 / psy_rd=1.00:0.15 / mixed_ref=1 / me_range=24 / chroma_me=1 / trellis=2 / 8x8dct=1 / cqm=0 / deadzone=21,11 / fast_pskip=1 / chroma_qp_offset=-3 / threads=6 / lookahead_threads=1 / sliced_threads=0 / nr=0 / decimate=1 / interlaced=0 / bluray_compat=0 / constrained_intra=0 / bframes=8 / b_pyramid=2 / b_adapt=2 / b_bias=0 / direct=3 / weightb=1 / open_gop=0 / weightp=2 / keyint=250 / keyint_min=25 / scenecut=40 / intra_refresh=0 / rc_lookahead=60 / rc=2pass / mbtree=1 / bitrate=2150 / ratetol=1.0 / qcomp=0.60 / qpmin=0 / qpmax=69 / qpstep=4 / cplxblur=20.0 / qblur=0.5 / vbv_maxrate=50000 / vbv_bufsize=50000 / nal_hrd=none / filler=0 / ip_ratio=1.40 / aq=1:1.00Default : ДаForced : Нет
АудиоИдентификатор : 2Формат : AC-3Формат/Информация : Audio Coding 3Коммерческое название : Dolby DigitalИдентификатор кодека : A_AC3Продолжительность : 2 ч. 10 м.Вид битрейта : ПостоянныйБитрейт : 192 Кбит/секКаналы : 2 каналаChannel layout : L RЧастота : 48,0 КГцЧастота кадров : 31,250 кадров/сек (1536 SPF)Битовая глубина : 16 битМетод сжатия : С потерямиРазмер потока : 180 Мбайт (8%)ServiceKind/String : Complete MainDefault : ДаForced : Нет
Меню00:00:00.000 : en:Orgy Of Destruction00:02:04.240 : en:War Of Worlds00:08:34.960 : en:Great Old Ones00:12:54.160 : en:Paint The Devil On The Wall00:18:15.760 : en:Sent By The Devil00:21:10.000 : en:Firestorm00:25:10.960 : en:Down00:31:28.720 : en:Prayers Of Steel00:34:11.920 : en:Suicide00:36:31.600 : en:Days Of December00:41:24.400 : en:Unity00:46:49.840 : en:Anarchy (Drum Solo)00:51:58.960 : en:Invisible Horizons00:56:59.440 : en:Set This World On Fire01:02:53.680 : en:Flesh And Blood01:08:09.040 : en:Rocket Science (Guitar Solo)01:14:01.360 : en:Soundchaser01:19:53.200 : en:Straight To Hell01:26:10.480 : en:Back In Time01:30:49.360 : en:Refuge01:35:40.240 : en:From The Cradle To The Grave01:42:37.360 : en:Black In Mind01:45:14.800 : en:Solitary Man01:47:39.280 : en:Don't Fear The Winter01:53:26.320 : en:All I Want01:59:20.080 : en:Higher Than The Sky

Скриншоты



[ru-zerkalo.org]_t_5613515
Torrent: Registered ·  [ 2018-09-20 02:53 ] ·  fd33eb0b21403609848cf78dce7e7b5e9d789b66

11 KB

Status: checked
Completed: 0 times
Size: 2.14 GB
Rating: 
(Votes: 0)
Say thanks: 0  Thanks
 
Похожие темы
[Profile] [PM]
Display posts from previous:    
Reply to topic

The time now is: Today 02:29

All times are GMT + 7 Hours



You cannot post new topics in this forum
You cannot reply to topics in this forum
You cannot edit your posts in this forum
You cannot delete your posts in this forum
You cannot vote in polls in this forum
You cannot attach files in this forum
You can download files in this forum