Register · 
Username: Password:
 ·  Forgot password?

(Retro) [CD] Эдита Пьеха - Никогда любить не поздно - 2000, FLAC (image+.cue), lossless

Reply to topic
DL-List and Torrent activity [Update пиров]
Size:  362 MB   |    Registered:  9 months 27 days   |    Completed:  1 time

Seeder not seen: 8 months 25 days

 
   
 
 
 
Author Message

Nestor_13 ®

Gender:

Longevity: 6 years

Posts: 20795

Post 26-Dec-2018 12:46

[Quote]

Эдита Пьеха / Никогда любить не поздно
Жанр: Retro
Носитель: CD
Страна-производитель диска (релиза): Россия
Год издания: 2000
Издатель (лейбл): Not On Label
Номер по каталогу: None
Страна исполнителя (группы): Россия
Аудиокодек: FLAC (*.flac)
Тип рипа: image+.cue
Битрейт аудио: lossless
Продолжительность: 57:37
Источник (релизер): CD
Наличие сканов в содержимом раздачи: нет
Треклист:
01 Никогда любить не поздно (3:32)
02 На волне твоей любви (4:31)
03 Грущу я по тебе (3:50)
04 Не забывай меня (4:01)
05 Как кони шальные (романс) (3:52)
06 Глоток хорошего вина (3:51)
07 Сиреневый сад (3:35)
08 Золотые вёсла (3:40)
09 Ты ни о чём не грусти... (3:52)
10 Воспоминания (3:55)
11 Эдита Мария (3:58)
12 Грустное танго любви (3:52)
13 Мой герой... (3:28)
14 Я хочу всю жизнь начать сначала (4:08)
15 Ах как давно мы с вами не встречались (романс) (3:32)

Лог создания рипа

Exact Audio Copy V1.0 beta 4 from 7. December 2014
Отчёт EAC об извлечении, выполненном 24. декабря 2018, 0:35
Эдита Пьеха / Никогда любить не поздно...
Дисковод: TSSTcorpCDDVDW SU-228FB Adapter: 1 ID: 0
Режим чтения : ДостоверностьИспользование точного потока : ДаОтключение кэша аудио : ДаИспользование указателей C2 : Нет
Коррекция смещения при чтении : 6Способность читать области Lead-in и Lead-out : НетЗаполнение пропущенных сэмплов тишиной : ДаУдаление блоков с тишиной в начале и конце : НетПри вычислениях CRC использовались нулевые сэмплы : ДаИнтерфейс : Встроенный Win32-интерфейс для Win NT/2000
Выходной формат : Внутренние WAV-операцииФормат сэмплов : 44.100 Гц; 16 бит; стерео
TOC извлечённого CD
Трек | Старт | Длительность | Начальный сектор | Конечный сектор --------------------------------------------------------------------- 1 | 0:00.00 | 3:31.62 | 0 | 15886 2 | 3:31.62 | 4:30.70 | 15887 | 36206 3 | 8:02.57 | 3:50.10 | 36207 | 53466 4 | 11:52.67 | 4:01.30 | 53467 | 71571 5 | 15:54.22 | 3:51.50 | 71572 | 88946 6 | 19:45.72 | 3:50.53 | 88947 | 106249 7 | 23:36.50 | 3:35.22 | 106250 | 122396 8 | 27:11.72 | 3:39.40 | 122397 | 138861 9 | 30:51.37 | 3:52.10 | 138862 | 156271 10 | 34:43.47 | 3:54.43 | 156272 | 173864 11 | 38:38.15 | 3:58.25 | 173865 | 191739 12 | 42:36.40 | 3:52.05 | 191740 | 209144 13 | 46:28.45 | 3:28.25 | 209145 | 224769 14 | 49:56.70 | 4:08.00 | 224770 | 243369 15 | 54:04.70 | 3:31.70 | 243370 | 259264
Характеристики диапазона извлечения и сообщения об ошибках
Выбранный диапазон
Имя файла D:\Эдита Пьеха - Никогда любить не поздно\Эдита Пьеха - Никогда любить не поздно....wav
Пиковый уровень 81.7 % Скорость извлечения 1.9 X Качество диапазона 100.0 % CRC теста C0806B43 CRC копии C0806B43 Копирование... OK
Ошибок не произошло
AccurateRip: сводка
Трек 1 : извлечено точно (доверие 1) [F2082509] (AR v2)Трек 2 : извлечено точно (доверие 1) [6FAF8B3E] (AR v2)Трек 3 : извлечено точно (доверие 1) [DB428D5E] (AR v2)Трек 4 : извлечено точно (доверие 1) [74AF0A2C] (AR v2)Трек 5 : извлечено точно (доверие 1) [5146D9DE] (AR v2)Трек 6 : извлечено точно (доверие 1) [5D445482] (AR v2)Трек 7 : извлечено точно (доверие 1) [2787C1EB] (AR v2)Трек 8 : извлечено точно (доверие 1) [C36A7FB4] (AR v2)Трек 9 : извлечено точно (доверие 1) [3E41EB96] (AR v2)Трек 10 : извлечено точно (доверие 1) [D4D3661A] (AR v2)Трек 11 : извлечено точно (доверие 1) [0D4E9C61] (AR v2)Трек 12 : извлечено точно (доверие 1) [FC198F4F] (AR v2)Трек 13 : извлечено точно (доверие 1) [2F255928] (AR v2)Трек 14 : извлечено точно (доверие 1) [ED5601BA] (AR v2)Трек 15 : извлечено точно (доверие 1) [6A4F51C2] (AR v2)
Все треки извлечены точно
Конец отчёта
==== Контрольная сумма отчёта 5468F4AC74DFCEEA09D7BC38EFC078D9F79EBEE622545DB95696B0A8AF1D093A ====

Содержание индексной карты (.CUE)

REM GENRE PopREM DATE 2000REM DISCID DC0D800FREM COMMENT "ExactAudioCopy v1.0b4"PERFORMER "Эдита Пьеха"TITLE "Никогда любить не поздно..."FILE "Эдита Пьеха - Никогда любить не поздно....flac" WAVE TRACK 01 AUDIO TITLE "Никогда любить не поздно" PERFORMER "Эдита Пьеха" INDEX 01 00:00:00 TRACK 02 AUDIO TITLE "На волне твоей любви" PERFORMER "Эдита Пьеха" INDEX 00 03:29:42 INDEX 01 03:31:62 TRACK 03 AUDIO TITLE "Грущу я по тебе" PERFORMER "Эдита Пьеха" INDEX 00 07:58:62 INDEX 01 08:02:57 TRACK 04 AUDIO TITLE "Не забывай меня" PERFORMER "Эдита Пьеха" INDEX 00 11:48:55 INDEX 01 11:52:67 TRACK 05 AUDIO TITLE "Как кони шальные (романс)" PERFORMER "Эдита Пьеха" INDEX 00 15:51:22 INDEX 01 15:54:22 TRACK 06 AUDIO TITLE "Глоток хорошего вина" PERFORMER "Эдита Пьеха" INDEX 00 19:43:22 INDEX 01 19:45:72 TRACK 07 AUDIO TITLE "Сиреневый сад" PERFORMER "Эдита Пьеха" INDEX 00 23:33:60 INDEX 01 23:36:50 TRACK 08 AUDIO TITLE "Золотые вёсла" PERFORMER "Эдита Пьеха" INDEX 00 27:10:00 INDEX 01 27:11:72 TRACK 09 AUDIO TITLE "Ты ни о чём не грусти..." PERFORMER "Владимир Поляков" INDEX 00 30:50:10 INDEX 01 30:51:37 TRACK 10 AUDIO TITLE "Воспоминания" PERFORMER "Владимир Поляков" INDEX 00 34:41:05 INDEX 01 34:43:47 TRACK 11 AUDIO TITLE "Эдита Мария" PERFORMER "Владимир Поляков" INDEX 00 38:34:72 INDEX 01 38:38:15 TRACK 12 AUDIO TITLE "Грустное танго любви" PERFORMER "Владимир Поляков" INDEX 00 42:33:00 INDEX 01 42:36:40 TRACK 13 AUDIO TITLE "Мой герой..." PERFORMER "Эрика Быстрова" INDEX 00 46:26:62 INDEX 01 46:28:45 TRACK 14 AUDIO TITLE "Я хочу всю жизнь начать сначала" PERFORMER "Эдита Пьеха" INDEX 00 49:55:10 INDEX 01 49:56:70 TRACK 15 AUDIO TITLE "Ах как давно мы с вами не встречались (романс)" PERFORMER "Эдита Пьеха" INDEX 00 54:03:45 INDEX 01 54:04:70
[ru-zerkalo.org]_t_5664948
Torrent: Registered ·  [ 2018-12-26 12:46 ] ·  e61e4810504504f929d76d7ccd4f284b0a99049b

15 KB

Status: checked
Completed: 1 times
Size: 362 MB
Rating: 
(Votes: 0)
Say thanks: 0  Thanks
 
Похожие темы
[Profile] [PM]
Display posts from previous:    
Reply to topic

The time now is: Today 07:35

All times are GMT + 7 Hours



You cannot post new topics in this forum
You cannot reply to topics in this forum
You cannot edit your posts in this forum
You cannot delete your posts in this forum
You cannot vote in polls in this forum
You cannot attach files in this forum
You can download files in this forum