Register · 
Username: Password:
 ·  Forgot password?

(Electronic, Synth-Pop) [CD] Ryuichi Sakamoto - You Do Me (EP) - 1990, FLAC (tracks), lossless

Reply to topic
DL-List and Torrent activity [Update пиров]
Size:  74 MB   |    Registered:  10 months 21 day   |    Completed:  0 times

Seeder not seen: Never

 
   
 
 
 
Author Message

Andrew1225 ®

Gender:

Longevity: 6 years 2 months

Posts: 17049

Post 21-Jan-2019 22:56

[Quote]

Ryuichi Sakamoto - You Do Me
Жанр: Electronic, Synth-Pop
Носитель: CD
Страна-производитель диска (релиза): Япония
Год издания: 1990
Издатель (лейбл): Virgin Japan
Номер по каталогу: VJCP-1404
Аудиокодек: FLAC (*.flac)
Тип рипа: tracks
Битрейт аудио: lossless
Продолжительность: 00:13:06
Источник: demonoid
Наличие сканов в содержимом раздачи: сетевые
Треклист:
01. You Do Me (5:05)
02. We Love You (Remix) (4:48)
03. Amore (Piano Version) (3:13)

Лог создания рипа

Exact Audio Copy V1.0 beta 3 from 29. August 2011
EAC extraction logfile from 6. April 2013, 18:38
Ryuichi Sakamoto / You Do Me (CD Single)
Used drive : MATSHITABD-MLT UJ230AS Adapter: 0 ID: 0
Read mode : SecureUtilize accurate stream : YesDefeat audio cache : YesMake use of C2 pointers : No
Read offset correction : 102Overread into Lead-In and Lead-Out : NoFill up missing offset samples with silence : YesDelete leading and trailing silent blocks : NoNull samples used in CRC calculations : YesUsed interface : Native Win32 interface for Win NT & 2000Gap handling : Appended to previous track
Used output format : User Defined EncoderSelected bitrate : 1024 kBit/sQuality : HighAdd ID3 tag : NoCommand line compressor : C:\Program Files\Exact Audio Copy\FLAC\FLAC.EXEAdditional command line options : -V -8 -T "ARTIST=%artist%" -T "TITLE=%title%" -T "ALBUM=%albumtitle%" -T "DATE=%year%" -T "TRACKNUMBER=%tracknr%" -T "GENRE=%genre%" -T "COMMENT=%comment%" %hascover%--picture="%coverfile%"%hascover% %source% -o %dest%
TOC of the extracted CD
Track | Start | Length | Start sector | End sector --------------------------------------------------------- 1 | 0:00.37 | 5:05.33 | 37 | 22944 2 | 5:05.70 | 4:47.70 | 22945 | 44539 3 | 9:53.65 | 3:13.10 | 44540 | 59024
Track 1
Filename C:\EAC Rips\Ryuichi Sakamoto - 1990 - You Do Me (CD Single)\01 - You Do Me.wav
Pre-gap length 0:00:02.49
Peak level 100.0 % Extraction speed 2.4 X Track quality 99.9 % Test CRC F2B52C20 Copy CRC F2B52C20 Accurately ripped (confidence 3) [E9C36EF2] (AR v1) Copy OK
Track 2
Filename C:\EAC Rips\Ryuichi Sakamoto - 1990 - You Do Me (CD Single)\02 - We Love You (Remix).wav
Pre-gap length 0:00:00.22
Peak level 91.5 % Extraction speed 3.0 X Track quality 100.0 % Test CRC C5CBF9DC Copy CRC C5CBF9DC Accurately ripped (confidence 3) [66A084E8] (AR v1) Copy OK
Track 3
Filename C:\EAC Rips\Ryuichi Sakamoto - 1990 - You Do Me (CD Single)\03 - Amore (Piano Version).wav
Pre-gap length 0:00:01.18
Peak level 100.0 % Extraction speed 3.0 X Track quality 100.0 % Test CRC F825BAA8 Copy CRC F825BAA8 Accurately ripped (confidence 3) [2491233B] (AR v1) Copy OK
All tracks accurately ripped
No errors occurred
End of status report
==== Log checksum C4AC376DF758DEA78721ED4224BD08EC94CCD2C465ED108167D966A2D744FC17 ====

Лог проверки качества

-----------------------
DON'T MODIFY THIS FILE
-----------------------
PERFORMER: auCDtect Task Manager, ver. 1.6.0 RC1 build 1.6.0.1Copyright (c) 2008-2010 y-soft. All rights reservedhttp://y-soft.org
ANALYZER: auCDtect: CD records authenticity detector, version 0.8.2Copyright (c) 2004 Oleg Berngardt. All rights reserved.Copyright (c) 2004 Alexander Djourik. All rights reserved.
FILE: 03 - Amore (Piano Version).flac Size: 12615334 Hash: AE788D113BF5B007B765AD91EF9B540B Accuracy: -m0 Conclusion: CDDA 100% Signature: AF9738CBA3F49140E80BE7AFE8F53C4CCC409EAEFILE: 02 - We Love You (Remix).flac Size: 31998323 Hash: 47C5CD3A932A93EAB522A28B90242648 Accuracy: -m0 Conclusion: CDDA 100% Signature: 2169511EEC9D78B1DF835A506D8E2CB1D3494B06FILE: 01 - You Do Me.flac Size: 31593294 Hash: 22927C6E70AF2B32809125D02C930E3B Accuracy: -m0 Conclusion: CDDA 100% Signature: D9BDB9301A94CDF3DC1B7771310B50B9BE97ABB6
[ru-zerkalo.org]_t_5676708
Torrent: Registered ·  [ 2019-01-21 22:51 ] ·  5ffa8be697260446fddc29116dca69e99e0eba81

13 KB

Status: checked
Completed: 0 times
Size: 74 MB
Rating: 
(Votes: 0)
Say thanks: 0  Thanks
 
Похожие темы
[Profile] [PM]
Display posts from previous:    
Reply to topic

The time now is: Today 21:36

All times are GMT + 7 Hours



You cannot post new topics in this forum
You cannot reply to topics in this forum
You cannot edit your posts in this forum
You cannot delete your posts in this forum
You cannot vote in polls in this forum
You cannot attach files in this forum
You can download files in this forum