Register · 
Username: Password:
 ·  Forgot password?

[DTSCD][UP] Mylene Farmer - Desobeissance - 2018 (Pop)

Reply to topic
DL-List and Torrent activity [Update пиров]
Size:  440 MB   |    Registered:  9 months 27 days   |    Completed:  2 times

Seeder not seen: 1 month 7 days

 
   
 
 
 
Author Message

manic-manic ®

Gender:

Longevity: 6 years 2 months

Posts: 13804

Post 11-Feb-2019 01:43

[Quote]

Mylène Farmer - Désobéissance DTS UPMix
Формат записи/Источник записи: [DTSCD][UP]
Наличие водяных знаков: Нет
Год издания/переиздания диска: 2018
Жанр: Pop
Издатель (лейбл): Stuffed Monkey, distribué par Sony Music Entertainment
Продолжительность: 00:43:50
Наличие сканов в содержимом раздачи: Только обложка альбома
Треклист:
01. Rolling Stone
02. Sentimentale
03. Désobéissance
04. N'oublie pas
05. Histoires de fesses
06. Get Up Girl
07. Prière
08. Au lecteur
09. Des larmes
10. Parler d'avenir
11. On a besoin d'y croire
12. Retenir l'eau
Контейнер: WAV(*.wav)
Тип рипа: tracks
Разрядность: 16/44,1
Формат: DTS
Количество каналов: 5.1
Битрейт аудио: 1411 kbps

DR-лог

foobar2000 1.1.9 / Dynamic Range Meter 1.1.1log date: 2019-02-10 21:40:21
--------------------------------------------------------------------------------Analyzed: ? / ?--------------------------------------------------------------------------------
DR Peak RMS Duration Track--------------------------------------------------------------------------------DR10 -1.67 dB -16.22 dB 3:46 ?-01_Mylène Farmer - Rolling Stone DTSDR10 -1.39 dB -16.22 dB 4:16 ?-02_Mylène Farmer - Sentimentale DTSDR10 -1.80 dB -16.20 dB 3:59 ?-03_Mylène Farmer - Désobéissance DTSDR10 -1.26 dB -16.24 dB 3:40 ?-04_Mylène Farmer - N'oublie pas DTSDR10 -3.16 dB -16.28 dB 1:57 ?-05_Mylène Farmer - Histoires de fesses DTSDR10 -1.47 dB -16.23 dB 3:37 ?-06_Mylène Farmer - Get up Girl DTSDR10 -1.10 dB -16.22 dB 3:37 ?-07_Mylène Farmer - Prière DTSDR10 -2.32 dB -16.21 dB 3:15 ?-08_Mylène Farmer - Au lecteur DTSDR10 -1.94 dB -16.23 dB 3:49 ?-09_Mylène Farmer - Des larmes DTSDR10 -1.77 dB -16.22 dB 3:32 ?-10_Mylène Farmer - Parler d'avenir DTSDR10 -2.39 dB -16.25 dB 3:49 ?-11_Mylène Farmer - On a besoin d'y croire DTSDR10 -2.55 dB -16.22 dB 4:13 ?-12_Mylène Farmer - Retenir l'eau DTS--------------------------------------------------------------------------------
Number of tracks: 12Official DR value: DR10
Samplerate: 44100 HzChannels: 6Bits per sample: 16Bitrate: 1411 kbpsCodec: DTS================================================================================
Источник (релизер): WEB-релиз
Доп. информация: DJ S.A.W. DTS Upmix
Метод получения апмикса:
ручное выделение фазо-частотных фрагментов фонограммы с помощью функции CCE Adobe Audition
мультиканальный мастеринг – Аdobe Audition (встроенными эффектами и плагинами Waves, iZotope,
Starplugs и т.п.)
[ru-zerkalo.org]_t_5687980
Torrent: Registered ·  [ 2019-02-11 01:43 ] ·  813fea5e5d3399e34c286efd4b60a6acd3290f9c

19 KB

Status: checked
Completed: 2 times
Size: 440 MB
Rating: 
(Votes: 0)
Say thanks: 0  Thanks
 
Похожие темы
[Profile] [PM]
Display posts from previous:    
Reply to topic

The time now is: Today 02:32

All times are GMT + 7 Hours



You cannot post new topics in this forum
You cannot reply to topics in this forum
You cannot edit your posts in this forum
You cannot delete your posts in this forum
You cannot vote in polls in this forum
You cannot attach files in this forum
You can download files in this forum