Register · 
Username: Password:
 ·  Forgot password?

(Vocal, Pop, Easy Listening) [CD] Ray Conniff - TV Themes / After The Lovin\' - 2005, FLAC (tracks+.cue), lossless

Reply to topic
DL-List and Torrent activity [Update пиров]
Size:  348 MB   |    Registered:  10 months 20 days   |    Completed:  1 time

Seeder not seen: 10 months 17 days

 
   
 
 
 
Author Message

god56 ®

Gender:

Longevity: 6 years 3 months

Posts: 26126

Post 03-Mar-2019 12:25

[Quote]

Ray Conniff / TV Themes / After The Lovin'
Жанр: Vocal, Pop, Easy Listening
Носитель: CD
Страна-производитель диска (релиза): US
Год издания: 2005
Издатель (лейбл): Sony
Номер по каталогу: A 74873
Аудиокодек: FLAC (*.flac)
Тип рипа: tracks+.cue
Битрейт аудио: lossless
Продолжительность: 01:02:04
Источник: локальная сеть
Наличие сканов в содержимом раздачи: да
Треклист:
1 Theme From Police Story 3:12
2 Happy Days 2:20
3 The Young And The Restless 2:54
4 Baretta's Theme (Keep Your Eye On The Sparrow) 3:13
5 Welcome Back 2:42
6 Theme From S.W.A.T 3:45
7 Love Is All Around 2:55
8 Mystery Movie Theme 2:46
9 Song From "M A S H" (Suicide Is Painless) 3:22
10 Making Our Dreams Come True 2:47
11 A Fifth Of Tchaikovsky 3:08
12 If You Leave Me Now 3:27
13 Rain On 3:30
14 Lowdown 2:56
15 Remembering You 2:22
16 After The Lovin' 3:08
17 Tara's Theme 3:46
18 Kiss And Say Goodbye 2:54
19 You'll Never Find Another Love Like Mine 3:33
20 Sorry Seems To Be The Hardest Word 3:23

Лог создания рипа

Exact Audio Copy V1.0 beta 3 from 29. August 2011
EAC extraction logfile from 16. August 2012, 20:42
Ray Conniff / Ray Conniff - TV Themes / After The Lovin´
Used drive : SONY DVD RW DRU-840A Adapter: 0 ID: 1
Read mode : SecureUtilize accurate stream : YesDefeat audio cache : YesMake use of C2 pointers : No
Read offset correction : 6Overread into Lead-In and Lead-Out : NoFill up missing offset samples with silence : YesDelete leading and trailing silent blocks : NoNull samples used in CRC calculations : YesUsed interface : Native Win32 interface for Win NT & 2000Gap handling : Not detected, thus appended to previous track
Used output format : User Defined EncoderSelected bitrate : 320 kBit/sQuality : HighAdd ID3 tag : NoCommand line compressor : C:\Archivos de programa\Exact Audio Copy\FLAC\FLAC.EXEAdditional command line options : -6 -V -T "ARTIST=%artist%" -T "TITLE=%title%" -T "ALBUM=%albumtitle%" -T "DATE=%year%" -T "TRACKNUMBER=%tracknr%" -T "GENRE=%genre%" -T "COMMENT=%comment%" -T "BAND=%albuminterpret%" -T "ALBUMARTIST=%albuminterpret%" -T "COMPOSER=%composer%" %haslyrics%--tag-from-file=LYRICS="%lyricsfile%"%haslyrics% -T "DISCNUMBER=%cdnumber%" -T "TOTALDISCS=%totalcds%" -T "TOTALTRACKS=%numtracks%" %hascover%--picture="%coverfile%"%hascover% %source% -o %dest%
TOC of the extracted CD
Track | Start | Length | Start sector | End sector --------------------------------------------------------- 1 | 0:00.00 | 3:11.65 | 0 | 14389 2 | 3:11.65 | 2:19.47 | 14390 | 24861 3 | 5:31.37 | 2:54.28 | 24862 | 37939 4 | 8:25.65 | 3:13.25 | 37940 | 52439 5 | 11:39.15 | 2:44.00 | 52440 | 64739 6 | 14:23.15 | 3:45.00 | 64740 | 81614 7 | 18:08.15 | 2:54.52 | 81615 | 94716 8 | 21:02.67 | 2:46.23 | 94717 | 107189 9 | 23:49.15 | 3:22.32 | 107190 | 122371 10 | 27:11.47 | 2:48.48 | 122372 | 135019 11 | 30:00.20 | 3:08.15 | 135020 | 149134 12 | 33:08.35 | 3:26.57 | 149135 | 164641 13 | 36:35.17 | 3:30.18 | 164642 | 180409 14 | 40:05.35 | 2:56.05 | 180410 | 193614 15 | 43:01.40 | 2:25.12 | 193615 | 204501 16 | 45:26.52 | 3:08.30 | 204502 | 218631 17 | 48:35.07 | 3:45.43 | 218632 | 235549 18 | 52:20.50 | 2:54.05 | 235550 | 248604 19 | 55:14.55 | 3:33.00 | 248605 | 264579 20 | 58:47.55 | 3:23.00 | 264580 | 279804
Track 1
Filename E:\MUSICA\Mi Música\Ray Conniff - TV Themes - After The Lovin´\CD\01 Theme from Police Story.wav
Peak level 78.9 % Extraction speed 1.6 X Track quality 99.9 % Test CRC 60A98452 Copy CRC 60A98452 Track not present in AccurateRip database Copy OK
Track 2
Filename E:\MUSICA\Mi Música\Ray Conniff - TV Themes - After The Lovin´\CD\02 Happy Days.wav
Peak level 84.9 % Extraction speed 1.9 X Track quality 100.0 % Test CRC 3CA06935 Copy CRC 3CA06935 Track not present in AccurateRip database Copy OK
Track 3
Filename E:\MUSICA\Mi Música\Ray Conniff - TV Themes - After The Lovin´\CD\03 The Young and the Restless.wav
Peak level 79.0 % Extraction speed 2.0 X Track quality 100.0 % Test CRC 1659E19E Copy CRC 1659E19E Track not present in AccurateRip database Copy OK
Track 4
Filename E:\MUSICA\Mi Música\Ray Conniff - TV Themes - After The Lovin´\CD\04 Baretta's Theme (Keep Your Eye on the Sparrow).wav
Peak level 85.4 % Extraction speed 2.2 X Track quality 100.0 % Test CRC F3B69E56 Copy CRC F3B69E56 Track not present in AccurateRip database Copy OK
Track 5
Filename E:\MUSICA\Mi Música\Ray Conniff - TV Themes - After The Lovin´\CD\05 Welcome Back.wav
Peak level 98.8 % Extraction speed 1.8 X Track quality 99.9 % Test CRC 0DB9EE7E Copy CRC 0DB9EE7E Track not present in AccurateRip database Copy OK
Track 6
Filename E:\MUSICA\Mi Música\Ray Conniff - TV Themes - After The Lovin´\CD\06 Theme from S.W.A.T..wav
Peak level 91.3 % Extraction speed 2.5 X Track quality 100.0 % Test CRC 8170884E Copy CRC 8170884E Track not present in AccurateRip database Copy OK
Track 7
Filename E:\MUSICA\Mi Música\Ray Conniff - TV Themes - After The Lovin´\CD\07 Love Is All Around.wav
Peak level 87.1 % Extraction speed 2.5 X Track quality 100.0 % Test CRC 0D5EE641 Copy CRC 0D5EE641 Track not present in AccurateRip database Copy OK
Track 8
Filename E:\MUSICA\Mi Música\Ray Conniff - TV Themes - After The Lovin´\CD\08 Mystery Movie Theme.wav
Peak level 82.4 % Extraction speed 2.0 X Track quality 99.9 % Test CRC 32FDE9F0 Copy CRC 32FDE9F0 Track not present in AccurateRip database Copy OK
Track 9
Filename E:\MUSICA\Mi Música\Ray Conniff - TV Themes - After The Lovin´\CD\09 Theme from MxAxSxH (Suicide Is Painless).wav
Peak level 86.3 % Extraction speed 2.8 X Track quality 100.0 % Test CRC 4C29CBA9 Copy CRC 4C29CBA9 Track not present in AccurateRip database Copy OK
Track 10
Filename E:\MUSICA\Mi Música\Ray Conniff - TV Themes - After The Lovin´\CD\10 Making Our Dreams Come True.wav
Peak level 92.5 % Extraction speed 2.1 X Track quality 99.9 % Test CRC 9495E287 Copy CRC 9495E287 Track not present in AccurateRip database Copy OK
Track 11
Filename E:\MUSICA\Mi Música\Ray Conniff - TV Themes - After The Lovin´\CD\11 Fifth of Tchaikovsky.wav
Peak level 86.0 % Extraction speed 2.2 X Track quality 99.9 % Test CRC 49523EF3 Copy CRC 49523EF3 Accurately ripped (confidence 1) [FBB9FB6D] (AR v2) Copy OK
Track 12
Filename E:\MUSICA\Mi Música\Ray Conniff - TV Themes - After The Lovin´\CD\12 If You Leave Me Now.wav
Peak level 87.3 % Extraction speed 3.0 X Track quality 100.0 % Test CRC C4CEB733 Copy CRC C4CEB733 Accurately ripped (confidence 1) [B0671390] (AR v2) Copy OK
Track 13
Filename E:\MUSICA\Mi Música\Ray Conniff - TV Themes - After The Lovin´\CD\13 Rain On.wav
Peak level 76.7 % Extraction speed 3.2 X Track quality 100.0 % Test CRC 00F361BD Copy CRC 00F361BD Accurately ripped (confidence 1) [E9C30454] (AR v2) Copy OK
Track 14
Filename E:\MUSICA\Mi Música\Ray Conniff - TV Themes - After The Lovin´\CD\14 Lowdown.wav
Peak level 90.5 % Extraction speed 3.1 X Track quality 100.0 % Test CRC 72E3D485 Copy CRC 72E3D485 Accurately ripped (confidence 1) [69F8D012] (AR v2) Copy OK
Track 15
Filename E:\MUSICA\Mi Música\Ray Conniff - TV Themes - After The Lovin´\CD\15 Remembering You.wav
Peak level 75.3 % Extraction speed 3.1 X Track quality 100.0 % Test CRC 4ADE10C0 Copy CRC 4ADE10C0 Accurately ripped (confidence 1) [B8130CC0] (AR v2) Copy OK
Track 16
Filename E:\MUSICA\Mi Música\Ray Conniff - TV Themes - After The Lovin´\CD\16 After the Lovin'.wav
Peak level 83.0 % Extraction speed 3.3 X Track quality 100.0 % Test CRC 319A2F11 Copy CRC 319A2F11 Accurately ripped (confidence 1) [C75F091E] (AR v2) Copy OK
Track 17
Filename E:\MUSICA\Mi Música\Ray Conniff - TV Themes - After The Lovin´\CD\17 Tara's Theme [From Gone with the Wind].wav
Peak level 80.5 % Extraction speed 3.5 X Track quality 100.0 % Test CRC 686419C0 Copy CRC 686419C0 Accurately ripped (confidence 1) [3FDDCA95] (AR v2) Copy OK
Track 18
Filename E:\MUSICA\Mi Música\Ray Conniff - TV Themes - After The Lovin´\CD\18 Kiss and Say Goodbye.wav
Peak level 84.7 % Extraction speed 3.4 X Track quality 100.0 % Test CRC 788026D9 Copy CRC 788026D9 Accurately ripped (confidence 1) [7AC3E3F8] (AR v2) Copy OK
Track 19
Filename E:\MUSICA\Mi Música\Ray Conniff - TV Themes - After The Lovin´\CD\19 You'll Never Find Another Love Like Mine.wav
Peak level 84.8 % Extraction speed 3.6 X Track quality 100.0 % Test CRC 33B6D299 Copy CRC 33B6D299 Accurately ripped (confidence 1) [1C95C20B] (AR v2) Copy OK
Track 20
Filename E:\MUSICA\Mi Música\Ray Conniff - TV Themes - After The Lovin´\CD\20 Sorry Seems to Be the Hardest Word.wav
Peak level 78.3 % Extraction speed 3.6 X Track quality 100.0 % Test CRC B7EFE0E1 Copy CRC B7EFE0E1 Accurately ripped (confidence 1) [C65B2AC3] (AR v2) Copy OK
10 track(s) accurately ripped10 track(s) not present in the AccurateRip database
Some tracks could not be verified as accurate
No errors occurred
End of status report
==== Log checksum 94052EACE7C6BFC5DCF01E52421F23257E700429FE7CF9487601C6AD371F2761 ====

Содержание индексной карты (.CUE)

FILE "01 - Theme From Police Story.flac" WAVEREM FILE-DECODED-SIZE 03:11:65 TRACK 01 AUDIO TITLE "Theme From Police Story" INDEX 01 00:00:00FILE "02 - Happy Days.flac" WAVEREM FILE-DECODED-SIZE 02:19:47 TRACK 02 AUDIO TITLE "Happy Days" INDEX 01 00:00:00FILE "03 - The Young and the Restless.flac" WAVEREM FILE-DECODED-SIZE 02:54:28 TRACK 03 AUDIO TITLE "The Young and the Restless" INDEX 01 00:00:00FILE "04 - Baretta's Theme.flac" WAVEREM FILE-DECODED-SIZE 03:13:25 TRACK 04 AUDIO TITLE "Baretta's Theme (Keep Your Eye on the Sparrow)" INDEX 01 00:00:00FILE "05 - Welcome Back.flac" WAVEREM FILE-DECODED-SIZE 02:44:00 TRACK 05 AUDIO TITLE "Welcome Back" INDEX 01 00:00:00FILE "06 - Theme From S.W.A.T..flac" WAVEREM FILE-DECODED-SIZE 03:45:00 TRACK 06 AUDIO TITLE "Theme From S.W.A.T." INDEX 01 00:00:00FILE "07 - Love Is All Around.flac" WAVEREM FILE-DECODED-SIZE 02:54:52 TRACK 07 AUDIO TITLE "Love Is All Around" INDEX 01 00:00:00FILE "08 - Mystery Movie Theme.flac" WAVEREM FILE-DECODED-SIZE 02:46:23 TRACK 08 AUDIO TITLE "Mystery Movie Theme" INDEX 01 00:00:00FILE "09 - Theme From ''MASH''.flac" WAVEREM FILE-DECODED-SIZE 03:22:32 TRACK 09 AUDIO TITLE "Theme From M*A*S*H (Suicide Is Painless)" INDEX 01 00:00:00FILE "10 - Making Our Dreams Come True.flac" WAVEREM FILE-DECODED-SIZE 02:48:48 TRACK 10 AUDIO TITLE "Making Our Dreams Come True" INDEX 01 00:00:00FILE "11 - A Fifth of Tchaikovsky.flac" WAVEREM FILE-DECODED-SIZE 03:08:15 TRACK 11 AUDIO TITLE "A Fifth of Tchaikovsky" INDEX 01 00:00:00FILE "12 - If You Leave Me Now.flac" WAVEREM FILE-DECODED-SIZE 03:26:57 TRACK 12 AUDIO TITLE "If You Leave Me Now" INDEX 01 00:00:00FILE "13 - Rain On.flac" WAVEREM FILE-DECODED-SIZE 03:30:18 TRACK 13 AUDIO TITLE "Rain On" INDEX 01 00:00:00FILE "14 - Lowdown.flac" WAVEREM FILE-DECODED-SIZE 02:56:05 TRACK 14 AUDIO TITLE "Lowdown" INDEX 01 00:00:00FILE "15 - Remembering You.flac" WAVEREM FILE-DECODED-SIZE 02:25:12 TRACK 15 AUDIO TITLE "Remembering You" INDEX 01 00:00:00FILE "16 - After the Lovin'.flac" WAVEREM FILE-DECODED-SIZE 03:08:30 TRACK 16 AUDIO TITLE "After the Lovin'" INDEX 01 00:00:00FILE "17 - Tara's Theme.flac" WAVEREM FILE-DECODED-SIZE 03:45:43 TRACK 17 AUDIO TITLE "Tara's Theme" INDEX 01 00:00:00FILE "18 - Kiss and Say Goodbye.flac" WAVEREM FILE-DECODED-SIZE 02:54:05 TRACK 18 AUDIO TITLE "Kiss and Say Goodbye" INDEX 01 00:00:00FILE "19 - You'll Never Find Another Love Like Mine.flac" WAVEREM FILE-DECODED-SIZE 03:33:00 TRACK 19 AUDIO TITLE "You'll Never Find Another Love Like Mine" INDEX 01 00:00:00FILE "20 - Sorry Seems to Be the Hardest Word.flac" WAVEREM FILE-DECODED-SIZE 03:23:00 TRACK 20 AUDIO TITLE "Sorry Seems to Be the Hardest Word" INDEX 01 00:00:00
[ru-zerkalo.org]_t_5691750
Torrent: Registered ·  [ 2019-03-03 12:22 ] ·  a95d88936bd09df6aa7798f8bb3cc3ed9310bea9

16 KB

Status: checked
Completed: 1 times
Size: 348 MB
Rating: 
(Votes: 0)
Say thanks: 0  Thanks
 
Похожие темы
[Profile] [PM]
Display posts from previous:    
Reply to topic

The time now is: Today 07:13

All times are GMT + 7 Hours



You cannot post new topics in this forum
You cannot reply to topics in this forum
You cannot edit your posts in this forum
You cannot delete your posts in this forum
You cannot vote in polls in this forum
You cannot attach files in this forum
You can download files in this forum