Register · 
Username: Password:
 ·  Forgot password?

(Gothic, Dark Metal) [CD] Moonspell - Дискография - 1994-2018, (30 CDs), FLAC, WavPack (*.wv) (image+.cue), lossless

Reply to topic
DL-List and Torrent activity [Update пиров]
Size:  11.39 GB   |    Registered:  11 months 16 days   |    Completed:  0 times

Seeder not seen: Never

 
   
 
 
 
Author Message

manic-manic ®

Gender:

Longevity: 6 years 4 months

Posts: 14246

Post 03-Mar-2019 12:33

[Quote]


Дискография
Жанр: Gothic, Dark Metal Носитель: CD
Страна-производитель диска (релиза): Germany, USA, Russia, Japan Год издания: 1994-2018
Страна исполнителя (группы): Portugal Аудиокодек: FLAC (*.flac), WavPack (*.wv)
Тип рипа: image+.cue Битрейт аудио: lossless
Источник (релизер): darkbrides, VadosN, Mysterons, reaner, Dar-KW, Scullplug, maverick412, edenika, labanov, mrfitn, HaRD, twistedsam, AndySwan, nephilim, Maglor (MMT) & ungern666
Наличие сканов в содержимом раздачи: да (кроме Darkness And Hope (Century Media, 77390-0, Germany)
Full Length Albums-

1995 - Wolfheart1995 - Wolfheart [Century Media, 77112-2, Germany]

Продолжительность: 00:47:53
01. Wolfshade (A Werewolf Masquerade) 07:44
02. Love Crimes 07:34
03. ...Of Dream And Drama (Midnight Ride) 03:59
04. Lua D'Inverno 01:49
05. Trebaruna 03:30
06. Vampiria 05:36
07. An Erotic Alchemy 08:05
08. Alma Mater 05:37
09. Ataegina 04:00

Лог создания рипа

Exact Audio Copy V0.99 prebeta 5 from 4. May 2009
EAC extraction logfile from 9. July 2012, 19:37
Moonspell / Wolfheart
Used drive : TSSTcorpCDDVDW SH-S203D Adapter: 5 ID: 0
Read mode : SecureUtilize accurate stream : YesDefeat audio cache : YesMake use of C2 pointers : No
Read offset correction : 6Overread into Lead-In and Lead-Out : NoFill up missing offset samples with silence : YesDelete leading and trailing silent blocks : NoNull samples used in CRC calculations : YesUsed interface : Installed external ASPI interface
Used output format : User Defined EncoderSelected bitrate : 128 kBit/sQuality : HighAdd ID3 tag : NoCommand line compressor : C:\Program Files\Exact Audio Copy\Flac\flac.exeAdditional command line options : -8 -V %s
TOC of the extracted CD
Track | Start | Length | Start sector | End sector --------------------------------------------------------- 1 | 0:00.00 | 7:43.45 | 0 | 34769 2 | 7:43.45 | 7:33.52 | 34770 | 68796 3 | 15:17.22 | 3:58.63 | 68797 | 86709 4 | 19:16.10 | 1:48.60 | 86710 | 94869 5 | 21:04.70 | 3:29.65 | 94870 | 110609 6 | 24:34.60 | 5:35.67 | 110610 | 135801 7 | 30:10.52 | 8:05.00 | 135802 | 172176 8 | 38:15.52 | 5:37.20 | 172177 | 197471 9 | 43:52.72 | 4:00.03 | 197472 | 215474
Range status and errors
Selected range
Filename E:\EAC\Moonspell - Wolfheart (Original Digipack).wav
Peak level 98.8 % Range quality 100.0 % Test CRC D0445589 Copy CRC D0445589 Copy OK
No errors occurred
AccurateRip summary
Track 1 accurately ripped (confidence 22) [7CAA7264]Track 2 accurately ripped (confidence 22) [23C9A330]Track 3 accurately ripped (confidence 22) [16EC82DC]Track 4 accurately ripped (confidence 22) [279E785C]Track 5 accurately ripped (confidence 21) [785F1502]Track 6 accurately ripped (confidence 22) [931AB55E]Track 7 accurately ripped (confidence 22) [2F74DF30]Track 8 accurately ripped (confidence 21) [E9BABA9B]Track 9 accurately ripped (confidence 21) [17D6D0EB]
All tracks accurately ripped
End of status report

1995 (2007) - Wolfheart [Century Media, 2CD, 77698-8, Germany]

Продолжительность: 00:47:52/00:36:50

CD 1

01. Wolfshade (A Werewolf Masquerade) 07:44
02. Love Crimes 07:34
03. ...Of Dream And Drama (Midnight Ride) 03:59
04. Lua D'Inverno 01:49
05. Trebaruna 03:30
06. Vampiria 05:36
07. An Erotic Alchemy 08:05
08. Alma Mater 05:37
09. Ataegina 04:00

Лог создания рипа

EAC extraction logfile from 15. March 2009, 20:38 for CDMoonspell / Wolfheart
Used drive : ASUS DRW-1814BLT Adapter: 2 ID: 0Read mode : Secure with NO C2, accurate stream, disable cacheRead offset correction : 6Overread into Lead-In and Lead-Out : No
Used output format : C:\Program Files\Exact Audio Copy\MAC.EXE (Monkey's Audio Lossless Encoder) High Lossless Compression
Other options : Fill up missing offset samples with silence : Yes Delete leading and trailing silent blocks : No Installed external ASPI interface
Range status and errorsSelected range Filename C:\Documents and Settings\User\Pulpit\MOONSPELL [2007][2CD] WOLFHEART (REMASTERED)\MOONSPELL [2007][CD1] WOLFHEART (REMASTERED)\CDImage.wav
Peak level 98.7 % Range quality 100.0 % CRC 68062A90 Copy OK
No errors occured
End of status report

CD 2

01. Intro (Live) 01:41
02. Love Crimes (Live) 04:57
03. ...Of Dreams And Drama (Midnight Ride) (Live) 03:35
04. An Erotic Alchemy (Live) 04:58
05. Lua D'Inverno (Live) 01:35
06. Trebaruna (Live) 03:18
07. Wolfshade (A Werewolf Masquerade) (Live) 06:24
08. Vampiria (Live) 05:05
09. Alma Mater (Live) 05:19

Лог создания рипа

EAC extraction logfile from 15. March 2009, 20:47 for CDMoonspell / Wolfheart (Reissue) CD2
Used drive : ASUS DRW-1814BLT Adapter: 2 ID: 0Read mode : Secure with NO C2, accurate stream, disable cacheRead offset correction : 6Overread into Lead-In and Lead-Out : No
Used output format : C:\Program Files\Exact Audio Copy\MAC.EXE (Monkey's Audio Lossless Encoder) High Lossless Compression
Other options : Fill up missing offset samples with silence : Yes Delete leading and trailing silent blocks : No Installed external ASPI interface
Range status and errorsSelected range Filename C:\Documents and Settings\User\Pulpit\MOONSPELL [2007][2CD] WOLFHEART (REMASTERED)\MOONSPELL [2007][CD2] LIVE 1995\CDImage.wav
Peak level 98.8 % Range quality 100.0 % CRC BB2790FF Copy OK
No errors occured
End of status report

1996 - Irreligious1996 - Irreligious [Century Media, 77123-2, Germany]

Продолжительность: 00:42:37
01. Perverse... Almost Religious 01:07
02. Opium 02:47
03. Awake 03:06
04. For A Taste Of Eternity 03:53
05. Ruin & Misery 03:49
06. A Poisoned Gift 05:35
07. Subversion 02:44
08. Raven Claws 03:16
09. Mephisto 04:59
10. Herr Spiegelmann 04:35
11. Full Moon Madness 06:47

Лог создания рипа

Exact Audio Copy V1.1 from 23. June 2015
EAC extraction logfile from 6. June 2016, 23:36
Moonspell / Irreligious
Used drive : ASUS DRW-1612BL Adapter: 2 ID: 0
Read mode : SecureUtilize accurate stream : YesDefeat audio cache : YesMake use of C2 pointers : No
Read offset correction : 6Overread into Lead-In and Lead-Out : NoFill up missing offset samples with silence : YesDelete leading and trailing silent blocks : NoNull samples used in CRC calculations : YesUsed interface : Installed external ASPI interface
Used output format : User Defined EncoderSelected bitrate : 128 kBit/sQuality : HighAdd ID3 tag : NoCommand line compressor : C:\Program Files\EAC\Exact Audio Copy\Flac\flac.exeAdditional command line options : -V -8 -T "Date=%year%" -T "Genre=%genre%" %source%
TOC of the extracted CD
Track | Start | Length | Start sector | End sector --------------------------------------------------------- 1 | 0:00.00 | 1:07.27 | 0 | 5051 2 | 1:07.27 | 2:46.63 | 5052 | 17564 3 | 3:54.15 | 3:05.72 | 17565 | 31511 4 | 7:00.12 | 3:53.20 | 31512 | 49006 5 | 10:53.32 | 3:48.68 | 49007 | 66174 6 | 14:42.25 | 5:34.40 | 66175 | 91264 7 | 20:16.65 | 2:44.00 | 91265 | 103564 8 | 23:00.65 | 3:16.10 | 103565 | 118274 9 | 26:17.00 | 4:58.40 | 118275 | 140664 10 | 31:15.40 | 4:35.05 | 140665 | 161294 11 | 35:50.45 | 6:47.15 | 161295 | 191834
Range status and errors
Selected range
Filename C:\darkbrides\Moonspell - Irreligious.wav
Peak level 100.0 % Extraction speed 7.3 X Range quality 99.9 % Test CRC 676B0188 Copy CRC 676B0188 Copy OK
No errors occurred
AccurateRip summary
Track 1 accurately ripped (confidence 57) [42F24BCD] (AR v2)Track 2 accurately ripped (confidence 58) [1725FDEA] (AR v2)Track 3 accurately ripped (confidence 57) [FF77E3F7] (AR v2)Track 4 accurately ripped (confidence 57) [24E49899] (AR v2)Track 5 accurately ripped (confidence 58) [E0EA79B3] (AR v2)Track 6 accurately ripped (confidence 56) [4F44513B] (AR v2)Track 7 accurately ripped (confidence 56) [92140B61] (AR v2)Track 8 accurately ripped (confidence 56) [98DC4D82] (AR v2)Track 9 accurately ripped (confidence 56) [0EA67A85] (AR v2)Track 10 accurately ripped (confidence 56) [992FAD10] (AR v2)Track 11 accurately ripped (confidence 57) [1FEE8926] (AR v2)
All tracks accurately ripped
End of status report
---- CUETools DB Plugin V2.1.6
[CTDB TOCID: Yr5hTRWeXgTcCfW7bfweORFaZt8-] foundSubmit result: Yr5hTRWeXgTcCfW7bfweORFaZt8- has been confirmedTrack | CTDB Status 1 | (146/153) Accurately ripped 2 | (147/153) Accurately ripped 3 | (147/153) Accurately ripped 4 | (148/153) Accurately ripped 5 | (148/153) Accurately ripped 6 | (148/153) Accurately ripped 7 | (149/153) Accurately ripped 8 | (148/153) Accurately ripped 9 | (148/153) Accurately ripped 10 | (146/153) Accurately ripped 11 | (146/153) Accurately ripped
==== Log checksum 1469C481A8B99FFC444911A9EE15D75E601D745033C791F657C70675B7ADDE85 ====

1996 (2007) - Irreligious [Century Media, 83992, Germany]

Продолжительность: 00:45:24/00:37:59

CD 1: Irreligious

01. Perverse ... Almost Religious 01:07
02. Opium 02:48
03. Awake! 03:04
04. For A Taste Of Eternity 03:53
05. Ruin & Misery 03:49
06. A Poisoned Gift 05:35
07. Subversion 02:44
08. Raven Claws 03:16
09. Mephisto 04:58
10. Herr Spiegelmann 04:35
11. Full Moon Madness 06:46
12. Opium (radio edit) 02:48

Лог создания рипа

Exact Audio Copy V1.1 from 23. June 2015
EAC extraction logfile from 21. January 2016, 17:44
Moonspell / Irreligious (CD1)
Used drive : ASUS DRW-1612BL Adapter: 2 ID: 0
Read mode : SecureUtilize accurate stream : YesDefeat audio cache : YesMake use of C2 pointers : No
Read offset correction : 6Overread into Lead-In and Lead-Out : NoFill up missing offset samples with silence : YesDelete leading and trailing silent blocks : NoNull samples used in CRC calculations : YesUsed interface : Installed external ASPI interface
Used output format : User Defined EncoderSelected bitrate : 128 kBit/sQuality : HighAdd ID3 tag : NoCommand line compressor : C:\Program Files\EAC\Exact Audio Copy\Flac\flac.exeAdditional command line options : -V -8 -T "Date=%year%" -T "Genre=%genre%" %source%
TOC of the extracted CD
Track | Start | Length | Start sector | End sector --------------------------------------------------------- 1 | 0:00.00 | 1:07.30 | 0 | 5054 2 | 1:07.30 | 2:48.26 | 5055 | 17680 3 | 3:55.56 | 3:04.35 | 17681 | 31515 4 | 7:00.16 | 3:53.22 | 31516 | 49012 5 | 10:53.38 | 3:48.67 | 49013 | 66179 6 | 14:42.30 | 5:34.40 | 66180 | 91269 7 | 20:16.70 | 2:43.73 | 91270 | 103567 8 | 23:00.68 | 3:16.15 | 103568 | 118282 9 | 26:17.08 | 4:58.37 | 118283 | 140669 10 | 31:15.45 | 4:35.04 | 140670 | 161298 11 | 35:50.49 | 6:46.24 | 161299 | 191772 12 | 42:36.73 | 2:47.53 | 191773 | 204350
Range status and errors
Selected range
Filename C:\darkbrides\Moonspell - Irreligious (CD1).wav
Peak level 98.8 % Extraction speed 8.3 X Range quality 100.0 % Test CRC 7AD26449 Copy CRC 7AD26449 Copy OK
No errors occurred
AccurateRip summary
Track 1 accurately ripped (confidence 3) [741AA7EF] (AR v2)Track 2 accurately ripped (confidence 3) [0A80C2D3] (AR v2)Track 3 accurately ripped (confidence 3) [FB135630] (AR v2)Track 4 accurately ripped (confidence 3) [7308FB97] (AR v2)Track 5 accurately ripped (confidence 3) [94F1BD64] (AR v2)Track 6 accurately ripped (confidence 3) [AED172BE] (AR v2)Track 7 accurately ripped (confidence 3) [91DBA422] (AR v2)Track 8 accurately ripped (confidence 3) [A9F8F667] (AR v2)Track 9 accurately ripped (confidence 3) [7C72EE4E] (AR v2)Track 10 accurately ripped (confidence 3) [9172F83C] (AR v2)Track 11 accurately ripped (confidence 3) [88B8A991] (AR v2)Track 12 accurately ripped (confidence 3) [6B2E4884] (AR v2)
All tracks accurately ripped
End of status report
---- CUETools DB Plugin V2.1.6
[CTDB TOCID: vvEE5r1yM555wD_TfaFV3XmGcxo-] foundSubmit result: vvEE5r1yM555wD_TfaFV3XmGcxo- has been confirmedTrack | CTDB Status 1 | (23/23) Accurately ripped 2 | (23/23) Accurately ripped 3 | (23/23) Accurately ripped 4 | (23/23) Accurately ripped 5 | (23/23) Accurately ripped 6 | (23/23) Accurately ripped 7 | (23/23) Accurately ripped 8 | (23/23) Accurately ripped 9 | (23/23) Accurately ripped 10 | (23/23) Accurately ripped 11 | (23/23) Accurately ripped 12 | (23/23) Accurately ripped
==== Log checksum 1D53154F6BA858C50846E5BB9A121BD0FA91804FC3BA26EBBF34793B017F2DE1 ====

CD 2: Live Across Europe, Winter 1996/1997

01. Intro 00:46
02. Opium 02:54
03. Awake! 02:59
04. Ruin & Misery 03:58
05. Raven Claws 03:42
06. Herr Spiegelmann 04:21
07. Mephisto 05:22
08. Intro 01:33
09. For A Taste Of Eternity 03:54
10. Full Moon Madness 08:31

Лог создания рипа

Exact Audio Copy V1.1 from 23. June 2015
EAC extraction logfile from 21. January 2016, 17:58
Moonspell / Irreligious (CD2)
Used drive : ASUS DRW-1612BL Adapter: 2 ID: 0
Read mode : SecureUtilize accurate stream : YesDefeat audio cache : YesMake use of C2 pointers : No
Read offset correction : 6Overread into Lead-In and Lead-Out : NoFill up missing offset samples with silence : YesDelete leading and trailing silent blocks : NoNull samples used in CRC calculations : YesUsed interface : Installed external ASPI interface
Used output format : User Defined EncoderSelected bitrate : 128 kBit/sQuality : HighAdd ID3 tag : NoCommand line compressor : C:\Program Files\EAC\Exact Audio Copy\Flac\flac.exeAdditional command line options : -V -8 -T "Date=%year%" -T "Genre=%genre%" %source%
TOC of the extracted CD
Track | Start | Length | Start sector | End sector --------------------------------------------------------- 1 | 0:00.00 | 0:46.23 | 0 | 3472 2 | 0:46.23 | 2:53.43 | 3473 | 16490 3 | 3:39.66 | 2:58.38 | 16491 | 29878 4 | 6:38.29 | 3:58.08 | 29879 | 47736 5 | 10:36.37 | 3:42.15 | 47737 | 64401 6 | 14:18.52 | 4:20.59 | 64402 | 83960 7 | 18:39.36 | 5:22.31 | 83961 | 108141 8 | 24:01.67 | 1:33.14 | 108142 | 115130 9 | 25:35.06 | 3:53.67 | 115131 | 132672 10 | 29:28.73 | 8:30.70 | 132673 | 170992
Range status and errors
Selected range
Filename C:\darkbrides\Moonspell - Irreligious (CD2).wav
Peak level 98.8 % Extraction speed 8.0 X Range quality 100.0 % Test CRC 873D0285 Copy CRC 873D0285 Copy OK
No errors occurred
AccurateRip summary
Track 1 accurately ripped (confidence 2) [1E5FBB07] (AR v2)Track 2 accurately ripped (confidence 2) [55A9F3DE] (AR v2)Track 3 accurately ripped (confidence 2) [4634FF4A] (AR v2)Track 4 accurately ripped (confidence 2) [9C3A73D3] (AR v2)Track 5 accurately ripped (confidence 2) [395DBEDA] (AR v2)Track 6 accurately ripped (confidence 2) [9C4377CC] (AR v2)Track 7 accurately ripped (confidence 2) [9FE293F6] (AR v2)Track 8 accurately ripped (confidence 2) [EFF75265] (AR v2)Track 9 accurately ripped (confidence 2) [D3601120] (AR v2)Track 10 accurately ripped (confidence 2) [FA6B4A14] (AR v2)
All tracks accurately ripped
End of status report
---- CUETools DB Plugin V2.1.6
[CTDB TOCID: oJWDsiQJC4XNisQI8HBlxXKwkrc-] foundSubmit result: oJWDsiQJC4XNisQI8HBlxXKwkrc- has been confirmedTrack | CTDB Status 1 | (13/13) Accurately ripped 2 | (13/13) Accurately ripped 3 | (13/13) Accurately ripped 4 | (13/13) Accurately ripped 5 | (13/13) Accurately ripped 6 | (13/13) Accurately ripped 7 | (13/13) Accurately ripped 8 | (13/13) Accurately ripped 9 | (13/13) Accurately ripped 10 | (13/13) Accurately ripped
==== Log checksum 30117B3DED15E9D4F86679BD62CA7CD9CEEABE45A5749D38C0997DB7EB074A34 ====

1998 - Sin.Pecado2005 - Sin Pecado [Fono, FO454CD, Russia]

Продолжительность: 01:02:06
01. Slow Down! 00:40
02. handmadeGod 05:34
03. 2econd Skin 04:51
04. Abysmo 05:00
05. Flesh 03:04
06. Magdalene 06:17
07. V.C. (Gloria Domini) 04:59
08. EuroticA 03:50
09. Mute 05:59
10. Dekadance 05:50
11. Let The Children Cum To Me... 06:54
12. The Hanged Man 06:26
13. 13! 02:42

Лог создания рипа

Exact Audio Copy V0.99 prebeta 5 from 4. May 2009
Отчёт EAC об извлечении, выполненном 13. января 2014, 21:48
Moonspell / Sin/Pecado
Дисковод: ASUS DRW-22B2L Adapter: 0 ID: 1
Режим чтения : ДостоверностьИспользование точного потока : ДаОтключение кэша аудио : ДаИспользование указателей C2 : Нет
Коррекция смещения при чтении : 6Способность читать области Lead-in и Lead-out : НетЗаполнение пропущенных сэмплов тишиной : ДаУдаление блоков с тишиной в начале и конце : НетПри вычислениях CRC использовались нулевые сэмплы : ДаИнтерфейс : Встроенный Win32-интерфейс для Win NT/2000
Выходной формат : Внутренние WAV-операцииФормат сэмплов : 44.100 Гц; 16 бит; стерео
TOC извлечённого CD
Трек | Старт | Длительность | Начальный сектор | Конечный сектор --------------------------------------------------------------------- 1 | 0:00.00 | 0:40.07 | 0 | 3006 2 | 0:40.07 | 5:33.50 | 3007 | 28031 3 | 6:13.57 | 4:51.15 | 28032 | 49871 4 | 11:04.72 | 4:59.60 | 49872 | 72356 5 | 16:04.57 | 3:04.28 | 72357 | 86184 6 | 19:09.10 | 6:17.32 | 86185 | 114491 7 | 25:26.42 | 4:59.03 | 114492 | 136919 8 | 30:25.45 | 3:49.65 | 136920 | 154159 9 | 34:15.35 | 5:58.70 | 154160 | 181079 10 | 40:14.30 | 5:49.50 | 181080 | 207304 11 | 46:04.05 | 6:53.72 | 207305 | 238351 12 | 52:58.02 | 6:26.25 | 238352 | 267326 13 | 59:24.27 | 2:42.13 | 267327 | 279489
Характеристики диапазона извлечения и сообщения об ошибках
Выбранный диапазон
Имя файла D:\rip-flacmusic.ru\Moonspell 1997\Moonspell - Sin Pecado.wav
Пиковый уровень 98.8 % Качество диапазона 100.0 % CRC теста 8B03333C CRC копии 8B03333C Копирование... OK
Ошибок не произошло
AccurateRip: сводка
Трек 1 точное извлечение (доверие 2) [2649300F]Трек 2 точное извлечение (доверие 2) [E1CD4C94]Трек 3 точное извлечение (доверие 2) [A4A7301D]Трек 4 точное извлечение (доверие 2) [BAE0BA99]Трек 5 точное извлечение (доверие 2) [BA67E45B]Трек 6 точное извлечение (доверие 2) [478B2420]Трек 7 точное извлечение (доверие 2) [74ABA466]Трек 8 точное извлечение (доверие 2) [AB76DE92]Трек 9 точное извлечение (доверие 2) [2896012F]Трек 10 точное извлечение (доверие 2) [D2480870]Трек 11 точное извлечение (доверие 2) [F73120B2]Трек 12 точное извлечение (доверие 2) [84873961]Трек 13 точное извлечение (доверие 2) [2FBAF4D6]
Все треки извлечены точно
Конец отчёта

1999 - The Butterfly Effect1999 - The Butterfly Effect [Century Media,77290-2, EU]

Продолжительность: 00:57:27
01. Soulsick 04:16
02. Butterfly FX 03:51
03. Can't Bee 05:12
04. Lustmord 03:45
05. Selfabuse 04:17
06. I Am The Eternal Spectator 03:32
07. Soulitary Vice 03:28
08. Disappear Here 03:34
09. Adaptables 03:01
10. Angelizer 04:30
11. Tired 05:24
12. K 12:38

Лог создания рипа

Exact Audio Copy V1.3 from 2. September 2016
Отчёт EAC об извлечении, выполненном 19. июля 2018, 15:05
Moonspell / The Butterfly Effect
Дисковод: Optiarc DVD RW AD-7170S Adapter: 1 ID: 1
Режим чтения : ДостоверностьИспользование точного потока : ДаОтключение кэша аудио : ДаИспользование указателей C2 : Нет
Коррекция смещения при чтении : 48Способность читать области Lead-in и Lead-out : НетЗаполнение пропущенных сэмплов тишиной : ДаУдаление блоков с тишиной в начале и конце : НетПри вычислениях CRC использовались нулевые сэмплы : ДаИнтерфейс : Встроенный Win32-интерфейс для Win NT/2000
Выходной формат : Внутренние WAV-операцииФормат сэмплов : 44.100 Гц; 16 бит; стерео
TOC извлечённого CD
Трек | Старт | Длительность | Начальный сектор | Конечный сектор --------------------------------------------------------------------- 1 | 0:00.00 | 4:16.18 | 0 | 19217 2 | 4:16.18 | 3:51.12 | 19218 | 36554 3 | 8:07.30 | 5:11.46 | 36555 | 59925 4 | 13:19.01 | 3:44.39 | 59926 | 76764 5 | 17:03.40 | 4:16.58 | 76765 | 96022 6 | 21:20.23 | 3:31.58 | 96023 | 111905 7 | 24:52.06 | 3:27.46 | 111906 | 127476 8 | 28:19.52 | 3:33.71 | 127477 | 143522 9 | 31:53.48 | 3:01.06 | 143523 | 157103 10 | 34:54.54 | 4:30.18 | 157104 | 177371 11 | 39:24.72 | 5:24.14 | 177372 | 201685 12 | 44:49.11 | 12:38.33 | 201686 | 258568
Характеристики диапазона извлечения и сообщения об ошибках
Выбранный диапазон
Имя файла C:\Users\Admin\Desktop\moonspell\Moonspell - The Butterfly Effect.wav
Пиковый уровень 98.8 % Скорость извлечения 5.1 X Качество диапазона 100.0 % CRC теста 246FF80A CRC копии 246FF80A Копирование... OK
Ошибок не произошло
AccurateRip: сводка
Трек 1 отсутствует в базе данныхТрек 2 отсутствует в базе данныхТрек 3 отсутствует в базе данныхТрек 4 отсутствует в базе данныхТрек 5 отсутствует в базе данныхТрек 6 отсутствует в базе данныхТрек 7 отсутствует в базе данныхТрек 8 отсутствует в базе данныхТрек 9 отсутствует в базе данныхТрек 10 отсутствует в базе данныхТрек 11 отсутствует в базе данныхТрек 12 отсутствует в базе данных
Ни одного трека нет в базе AccurateRip
Конец отчёта
==== Контрольная сумма отчёта 933BC8F8BF9C5BDBB083BB8F22ED4E3C0EB38F06EC4DA4F7E5873097B5575DB6 ====

1999 - The Butterfly Effect [Victor, VICP-60900, Japan]

Продолжительность: 00:57:25
01. Soulsick 04:15
02. Butterfly FX 03:51
03. Can't Bee 05:12
04. Lustmord 03:45
05. Selfabuse 04:16
06. I Am The Eternal Spectator 03:32
07. Soulitary Vice 03:28
08. Disappear Here 03:34
09. Adaptables 03:01
10. Angelizer 04:30
11. Tired 05:24
12. K 12:37

Лог создания рипа

Exact Audio Copy V1.0 beta 3 from 29. August 2011
EAC extraction logfile from 20. April 2013, 22:53
Moonspell / The Butterfly Effect (Victor Entertainment, Inc., VICP-60900)
Used drive : ASUS DRW-24B1ST Adapter: 3 ID: 0
Read mode : SecureUtilize accurate stream : YesDefeat audio cache : YesMake use of C2 pointers : No
Read offset correction : 6Overread into Lead-In and Lead-Out : NoFill up missing offset samples with silence : YesDelete leading and trailing silent blocks : NoNull samples used in CRC calculations : YesUsed interface : Native Win32 interface for Win NT & 2000
Used output format : User Defined EncoderSelected bitrate : 1024 kBit/sQuality : HighAdd ID3 tag : NoCommand line compressor : C:\Program Files\FLAC\flac.exeAdditional command line options : -8 -V %source% -o %dest%
TOC of the extracted CD
Track | Start | Length | Start sector | End sector --------------------------------------------------------- 1 | 0:00.00 | 4:15.20 | 0 | 19144 2 | 4:15.20 | 3:51.12 | 19145 | 36481 3 | 8:06.32 | 5:11.48 | 36482 | 59854 4 | 13:18.05 | 3:44.40 | 59855 | 76694 5 | 17:02.45 | 4:16.37 | 76695 | 95931 6 | 21:19.07 | 3:32.00 | 95932 | 111831 7 | 24:51.07 | 3:27.55 | 111832 | 127411 8 | 28:18.62 | 3:34.00 | 127412 | 143461 9 | 31:52.62 | 3:00.45 | 143462 | 157006 10 | 34:53.32 | 4:30.25 | 157007 | 177281 11 | 39:23.57 | 5:24.25 | 177282 | 201606 12 | 44:48.07 | 12:37.33 | 201607 | 258414
Range status and errors
Selected range
Filename C:\Mysterons [Skull_of_Sheeps]\Moonspell [1999] The Butterfly Effect (Victor Entertainment, Inc., VICP-60900)\Moonspell - The Butterfly Effect (Japan, VICP-60900).wav
Peak level 98.8 % Extraction speed 4.2 X Range quality 99.9 % Test CRC D05CB2E4 Copy CRC D05CB2E4 Copy OK
No errors occurred
AccurateRip summary
Track 1 not present in databaseTrack 2 not present in databaseTrack 3 not present in databaseTrack 4 not present in databaseTrack 5 not present in databaseTrack 6 not present in databaseTrack 7 not present in databaseTrack 8 not present in databaseTrack 9 not present in databaseTrack 10 not present in databaseTrack 11 not present in databaseTrack 12 not present in database
None of the tracks are present in the AccurateRip database
End of status report
---- CUETools DB Plugin V2.1.4
[CTDB TOCID: .VUnvE5qtARHKGvZbyPc.sCYPhs-] disk not present in databaseSubmit result: .VUnvE5qtARHKGvZbyPc.sCYPhs- has been uploaded
==== Log checksum 685BE9973D8A5E76603B980C1A2DA8F8A348AC2CEF7DE7D1569971488247B179 ====

2001 - Darkness And Hope2001 - Darkness And Hope [Century Media, 77390-0, Germany]

Продолжительность: 00:56:01
01. Darkness And Hope 04:47
02. Firewalking 03:06
03. Nocturna 03:52
04. Heartshaped Abyss 04:08
05. Devilred 03:26
06. Ghostsong 04:21
07. Rapaces 05:32
08. Made Of Storm 04:09
09. How We Became Fire 05:48
10. Than The Serpents In My Hands 05:54
11. Os Senhores Da Guerra 06:31
12. Mr. Crowley (Bonus Track) 04:28

Лог создания рипа

Exact Audio Copy V0.99 prebeta 4 from 23. January 2008
EAC extraction logfile from 23. May 2009, 13:30
Moonspell / Darkness And Hope
Used drive : MATSHITADVD-RAM UJ-842S Adapter: 0 ID: 0
Read mode : SecureUtilize accurate stream : YesDefeat audio cache : YesMake use of C2 pointers : No
Read offset correction : 102Overread into Lead-In and Lead-Out : NoFill up missing offset samples with silence : YesDelete leading and trailing silent blocks : NoNull samples used in CRC calculations : YesUsed interface : Native Win32 interface for Win NT & 2000
Used output format : Internal WAV RoutinesSample format : 44.100 Hz; 16 Bit; Stereo
TOC of the extracted CD
Track | Start | Length | Start sector | End sector --------------------------------------------------------- 1 | 0:00.00 | 4:47.13 | 0 | 21537 2 | 4:47.13 | 3:05.53 | 21538 | 35465 3 | 7:52.66 | 3:52.05 | 35466 | 52870 4 | 11:44.71 | 4:08.25 | 52871 | 71495 5 | 15:53.21 | 3:25.45 | 71496 | 86915 6 | 19:18.66 | 4:21.20 | 86916 | 106510 7 | 23:40.11 | 5:31.50 | 106511 | 131385 8 | 29:11.61 | 4:09.25 | 131386 | 150085 9 | 33:21.11 | 5:47.42 | 150086 | 176152 10 | 39:08.53 | 5:53.55 | 176153 | 202682 11 | 45:02.33 | 6:30.68 | 202683 | 232000 12 | 51:33.26 | 4:28.22 | 232001 | 252122 13 | 58:33.48 | 10:55.06 | 263523 | 312653
Range status and errors
Selected range
Filename C:\Moonspell - Darkness And Hope\Moonspell - Darkness And Hope.wav
Peak level 98.8 % Range quality 100.0 % Test CRC 854E5940 Copy CRC 854E5940 Copy OK
No errors occurred
AccurateRip summary
Track 1 accurately ripped (confidence 5) [1DA6293E]Track 2 accurately ripped (confidence 5) [5BE7313F]Track 3 accurately ripped (confidence 5) [3ADE9ECC]Track 4 accurately ripped (confidence 5) [78831586]Track 5 accurately ripped (confidence 5) [8B50DCE8]Track 6 accurately ripped (confidence 5) [75D84D98]Track 7 accurately ripped (confidence 5) [9CC0C0E2]Track 8 accurately ripped (confidence 5) [C640DCC4]Track 9 accurately ripped (confidence 5) [C3A164C3]Track 10 accurately ripped (confidence 5) [3A93FFB8]Track 11 accurately ripped (confidence 5) [2807DA9B]Track 12 accurately ripped (confidence 5) [2676BD0F]
All tracks accurately ripped
End of status report
2001 (2002) - Darkness And Hope [Fono, FO193CD, Russia] Продолжительность: 00:51:32
01. Darkness And Hope 04:47
02. Firewalking 03:06
03. Nocturna 03:52
04. Heartshaped Abyss 04:08
05. Devilred 03:26
06. Ghostsong 04:21
07. Rapaces 05:32
08. Made Of Storm 04:09
09. How We Became Fire 05:48
10. Than The Serpents In My Arms 05:54
11. Os Senhores da Guerra 06:31
Video bonus tracks:
12. Magdalene - special remix 03:58
13. Butterfly FX - uncensored version 03:51

Лог создания рипа

Exact Audio Copy V0.99 prebeta 5 from 4. May 2009
Отчёт EAC об извлечении, выполненном 13. января 2014, 22:24
Moonspell / Darkness and Hope
Дисковод: ASUS DRW-22B2L Adapter: 0 ID: 1
Режим чтения : ДостоверностьИспользование точного потока : ДаОтключение кэша аудио : ДаИспользование указателей C2 : Нет
Коррекция смещения при чтении : 6Способность читать области Lead-in и Lead-out : НетЗаполнение пропущенных сэмплов тишиной : ДаУдаление блоков с тишиной в начале и конце : НетПри вычислениях CRC использовались нулевые сэмплы : ДаИнтерфейс : Встроенный Win32-интерфейс для Win NT/2000
Выходной формат : Внутренние WAV-операцииФормат сэмплов : 44.100 Гц; 16 бит; стерео
TOC извлечённого CD
Трек | Старт | Длительность | Начальный сектор | Конечный сектор --------------------------------------------------------------------- 1 | 0:00.00 | 4:46.42 | 0 | 21491 2 | 4:46.42 | 3:05.53 | 21492 | 35419 3 | 7:52.20 | 3:52.05 | 35420 | 52824 4 | 11:44.25 | 4:08.25 | 52825 | 71449 5 | 15:52.50 | 3:25.45 | 71450 | 86869 6 | 19:18.20 | 4:21.20 | 86870 | 106464 7 | 23:39.40 | 5:31.50 | 106465 | 131339 8 | 29:11.15 | 4:09.25 | 131340 | 150039 9 | 33:20.40 | 5:47.42 | 150040 | 176106 10 | 39:08.07 | 5:53.55 | 176107 | 202636 11 | 45:01.62 | 6:30.47 | 202637 | 231933 12 | 54:04.34 | 10:55.06 | 243334 | 292464
Характеристики диапазона извлечения и сообщения об ошибках
Выбранный диапазон
Имя файла D:\rip-flacmusic.ru\Moonspell 2001\Moonspell - Darkness and Hope.wav
Пиковый уровень 98.8 % Качество диапазона 100.0 % CRC теста AC9F52CF CRC копии AC9F52CF Копирование... OK
Ошибок не произошло
AccurateRip: сводка
Трек 1 точное извлечение (доверие 2) [63269198]Трек 2 точное извлечение (доверие 2) [EB4DC5BC]Трек 3 точное извлечение (доверие 2) [2A20E044]Трек 4 точное извлечение (доверие 2) [4C0AE18A]Трек 5 точное извлечение (доверие 2) [E99ECD78]Трек 6 точное извлечение (доверие 2) [F4CA2D02]Трек 7 точное извлечение (доверие 2) [3F6C5299]Трек 8 точное извлечение (доверие 2) [CD22F0DB]Трек 9 точное извлечение (доверие 2) [51FDBFB9]Трек 10 точное извлечение (доверие 2) [97FAB432]Трек 11 точное извлечение (доверие 2) [03DA4A45]
Все треки извлечены точно
Конец отчёта

Magdalene - special remixТех. данные видео

Формат: MPEG-PS
Видео кодек: MPEG-1/2 Video (mpgv)
Аудио кодек: MPEG Audio layer 1/2/3 (mpga)
Видео: 352*240 (16:10), 25.000 fps, 1 020 Kbps
Аудио: 44.1 KHz, 1 ch, 192 Kbps

Скриншоты

Butterfly FX - uncensored versionТех. данные видео

Формат: MPEG-PS
Видео кодек: MPEG-1/2 Video (mpgv)
Аудио кодек: MPEG Audio layer 1/2/3 (mpga)
Видео: 352*240 (4:3), 25.000 fps, 1 856 Kbps
Аудио: 44.1 KHz, 2 ch, 224 Kbps

Скриншоты

2003 - The Antidote2003 (2013) - The Antidote [Century Media, 2CD, 9982870, Germany] Продолжительность: 00:54:32/00:52:04
CD 1 01. In And Above Men 04:12
02. From Lowering Skies 05:25
03. Everything Invaded 06:17
04. The Southern Deathstyle 04:07
05. Antidote 04:45
06. Capricorn At Her Feet 06:05
07. Lunar Still 06:56
08. A Walk On The Darkside 04:45
09. Crystal Gazing 04:52
10. As We Eternally Sleep On It 07:09
Video:
Everything Invaded 03:53

Лог создания рипа

Exact Audio Copy V0.99 prebeta 5 from 4. May 2009
EAC extraction logfile from 17. January 2013, 13:44
Moonspell / [CD1] Antidote (Ltd. Edit. MFTM)
Used drive : HL-DT-STDVD-RAM GH15L Adapter: 0 ID: 1
Read mode : SecureUtilize accurate stream : YesDefeat audio cache : YesMake use of C2 pointers : No
Read offset correction : 667Overread into Lead-In and Lead-Out : NoFill up missing offset samples with silence : YesDelete leading and trailing silent blocks : NoNull samples used in CRC calculations : YesUsed interface : Native Win32 interface for Win NT & 2000
Used output format : Monkey's Audio Lossless EncoderSelected bitrate : High Lossless CompressionQuality : HighAdd ID3 tag : NoCommand line compressor : C:\Program Files\Exact Audio Copy\MAC.EXE
TOC of the extracted CD
Track | Start | Length | Start sector | End sector --------------------------------------------------------- 1 | 0:00.00 | 4:11.61 | 0 | 18885 2 | 4:11.61 | 5:25.24 | 18886 | 43284 3 | 9:37.10 | 6:16.49 | 43285 | 71533 4 | 15:53.59 | 4:07.36 | 71534 | 90094 5 | 20:01.20 | 4:45.21 | 90095 | 111490 6 | 24:46.41 | 6:04.58 | 111491 | 138848 7 | 30:51.24 | 6:55.51 | 138849 | 170024 8 | 37:47.00 | 4:44.38 | 170025 | 191362 9 | 42:31.38 | 4:52.03 | 191363 | 213265 10 | 47:23.41 | 7:09.16 | 213266 | 245456 11 | 57:04.57 | 13:55.29 | 256857 | 319510
Range status and errors
Selected range
Filename C:\Documents and Settings\Administrator\Pulpit\MOONSPELL [2013] [CD1] The Antidote (Ltd. Edit. MFTM) [EAC-APE] by Dar_kW [MeTaLMaDNeSS.TeaM]\Moonspell - [CD1] Antidote (Ltd. Edit. MFTM).wav
Peak level 100.0 % Range quality 100.0 % Copy CRC 668F6673 Copy OK
No errors occurred
End of status report

Everything Invaded (Videoclip)Тех. данные видео

Формат: QuickTime
Видео кодек: Sorenson Media Video 3 (Apple QuickTime 5)
Аудио кодек: MPEG Audio layer 1/2/3 (mpga)
Видео: 400*300 (4:3), 25.000 fps, 2 139 Kbps
Аудио: 44.1 KHz, 2 ch, 256 Kbps

Скриншоты

CD 2

01. Everything Invaded (demo winter 2002-2003) 06:22
02. In And Above Man (demo winter 2002-2003 03:44
03. From Lowering Skies (demo winter 2002-2003 05:49
04. The Southern Deathstyle/Wheel Of Death (demo winter 2002-2003) 07:16
05. Antidote (demo winter 2002-2003) 03:56
06. Capricorn At Her Feet (instrumental only) (demo winter 2002-2003) 05:33
07. Lunar Still (demo winter 2002-2003) 03:07
08. A Walk On The Darkside (demo winter 2002-2003) 04:35
09. Crystal Gazing (demo winter 2002-2003) 04:38
10. The Darkening (demo winter 2002-2003) 03:11
11. His Name Will Come To Me (unreleased demo winter 2002-2003) 03:52

Лог создания рипа

Exact Audio Copy V0.99 prebeta 5 from 4. May 2009
EAC extraction logfile from 15. January 2013, 14:20
Moonspell / CD2 Antidote (Ltd. Edit. MFTM)
Used drive : HL-DT-STDVD-RAM GH15L Adapter: 0 ID: 1
Read mode : SecureUtilize accurate stream : YesDefeat audio cache : YesMake use of C2 pointers : No
Read offset correction : 667Overread into Lead-In and Lead-Out : NoFill up missing offset samples with silence : YesDelete leading and trailing silent blocks : NoNull samples used in CRC calculations : YesUsed interface : Native Win32 interface for Win NT & 2000
Used output format : Monkey's Audio Lossless EncoderSelected bitrate : High Lossless CompressionQuality : HighAdd ID3 tag : NoCommand line compressor : C:\Program Files\Exact Audio Copy\MAC.EXE
TOC of the extracted CD
Track | Start | Length | Start sector | End sector --------------------------------------------------------- 1 | 0:00.00 | 6:22.28 | 0 | 28677 2 | 6:22.28 | 3:43.46 | 28678 | 45448 3 | 10:05.74 | 5:48.68 | 45449 | 71616 4 | 15:54.67 | 7:16.33 | 71617 | 104349 5 | 23:11.25 | 3:55.56 | 104350 | 122030 6 | 27:07.06 | 5:33.16 | 122031 | 147021 7 | 32:40.22 | 3:07.34 | 147022 | 161080 8 | 35:47.56 | 4:35.26 | 161081 | 181731 9 | 40:23.07 | 4:38.21 | 181732 | 202602 10 | 45:01.28 | 3:10.46 | 202603 | 216898 11 | 48:11.74 | 3:52.34 | 216899 | 234332
Range status and errors
Selected range
Filename C:\Documents and Settings\Administrator\Pulpit\MOONSPELL [2013] [CD2] Antidote (Ltd. Edit. MFTM)\Moonspell - Antidote MFTM.wav
Peak level 100.0 % Range quality 99.9 % Copy CRC 57959E0E Copy OK
No errors occurred
End of status report

2006 - Memorial2006 - Memorial [Steamhammer, SPV 99820 Digi, Germany]

Продолжительность: 01:04:53
01. In Memoriam 01:26
02. Finisterra 04:09
03. Memento Mori 04:28
04. Sons Of Earth 01:52
05. Blood Tells 04:09
06. Upon The Blood Of Men 04:55
07. At The Image Of Pain 04:22
08. Sanguine 05:51
09. Proliferation 02:40
10. Once It Was Ours! 04:53
11. Mare Nostrum 01:56
12. Luna 04:43
13. Best Forgotten 06:48
14. Atlantic (Bonus Track) 12:43

Лог создания рипа

Exact Audio Copy V1.0 beta 3 from 29. August 2011
EAC extraction logfile from 19. February 2014, 21:16
Moonspell / Memorial
Used drive : ASUS DRW-22B2L Adapter: 0 ID: 1
Read mode : SecureUtilize accurate stream : YesDefeat audio cache : YesMake use of C2 pointers : No
Read offset correction : 6Overread into Lead-In and Lead-Out : NoFill up missing offset samples with silence : YesDelete leading and trailing silent blocks : NoNull samples used in CRC calculations : YesUsed interface : Native Win32 interface for Win NT & 2000
Used output format : Internal WAV RoutinesSample format : 44.100 Hz; 16 Bit; Stereo
TOC of the extracted CD
Track | Start | Length | Start sector | End sector --------------------------------------------------------- 1 | 0:00.00 | 1:25.40 | 0 | 6414 2 | 1:25.40 | 4:08.67 | 6415 | 25081 3 | 5:34.32 | 4:27.43 | 25082 | 45149 4 | 10:02.00 | 1:51.52 | 45150 | 53526 5 | 11:53.52 | 4:08.48 | 53527 | 72174 6 | 16:02.25 | 4:55.07 | 72175 | 94306 7 | 20:57.32 | 4:21.58 | 94307 | 113939 8 | 25:19.15 | 5:50.47 | 113940 | 140236 9 | 31:09.62 | 2:39.55 | 140237 | 152216 10 | 33:49.42 | 4:53.33 | 152217 | 174224 11 | 38:43.00 | 1:56.22 | 174225 | 182946 12 | 40:39.22 | 4:42.70 | 182947 | 204166 13 | 45:22.17 | 6:47.63 | 204167 | 234754 14 | 52:10.05 | 12:43.12 | 234755 | 291991
Range status and errors
Selected range
Filename D:\rip-flacmusic.ru\Scullplug\Moonspell 2006\Moonspell - Memorial.wav
Peak level 99.4 % Extraction speed 3.3 X Range quality 100.0 % Test CRC 3747BC35 Copy CRC 3747BC35 Copy OK
No errors occurred
AccurateRip summary
Track 1 accurately ripped (confidence 15) [7B2B1B75] (AR v2)Track 2 accurately ripped (confidence 15) [2B571D42] (AR v2)Track 3 accurately ripped (confidence 15) [B3F3AC56] (AR v2)Track 4 accurately ripped (confidence 15) [155CBF12] (AR v2)Track 5 accurately ripped (confidence 15) [7964B025] (AR v2)Track 6 accurately ripped (confidence 15) [4E2CFE37] (AR v2)Track 7 accurately ripped (confidence 15) [E4982053] (AR v2)Track 8 accurately ripped (confidence 15) [592F0887] (AR v2)Track 9 accurately ripped (confidence 15) [4B2E189A] (AR v2)Track 10 accurately ripped (confidence 15) [577E2CA2] (AR v2)Track 11 accurately ripped (confidence 15) [8B96F157] (AR v2)Track 12 accurately ripped (confidence 15) [D3AC2086] (AR v2)Track 13 accurately ripped (confidence 15) [5C6D991A] (AR v2)Track 14 accurately ripped (confidence 15) [284E47B9] (AR v2)
All tracks accurately ripped
End of status report
==== Log checksum B089277910526E2CF9A9A26D00FDFC0FAAEC9EF9F2AA7CECF7181DB4A6A70DFF ====

2008 - Night Eternal2008 - Night Eternal [Universal Music Portugal, Steamhammer, 6025-1772251-4, Spain]

Продолжительность: 00:58:39
01. At Tragic Heights 06:52
02. Night Eternal 04:10
03. Shadow Sun 04:24
04. Scorpion Flower 04:33
05. Moon In Mercury 04:22
06. Hers Is The Twilight 04:54
07. Dreamless (Lucifer And Lilith) 05:17
08. Spring Of Rage 04:04
09. First Light 05:48
10. Age Of Mothers (Bonus Track) 05:43
11. Scorpion Flower (Dark Lush Cut) by Orchestra Mortua 04:36
12. Scorpion Flower (The Feeble Cut) by [F.E.V.E.R] 03:58

Лог создания рипа

EAC extraction logfile from 5. June 2008, 13:47 for CDMoonspell / Night Eternal [Limited Edition]
Used drive : PLEXTOR DVD-ROM PX-130A Adapter: 0 ID: 3Read mode : Secure with NO C2, accurate stream, disable cacheRead offset correction : 738Overread into Lead-In and Lead-Out : No
Used output format : Internal WAV Routines 44.100 Hz; 16 Bit; Stereo
Other options : Fill up missing offset samples with silence : Yes Delete leading and trailing silent blocks : No Installed external ASPI interface
Range status and errorsSelected range Filename C:\Documents and Settings\Maglor\Desktop\Night.Eternal.[LE]_2008CD.wav
Peak level 100.0 % Range quality 100.0 % CRC 49E350DD Copy OK
No errors occured
End of status report

2012 - Alpha Noir - Omega White2012 - Alpha Noir - Omega White [Napalm Rec., NPR 425 2CD, Germany]

Продолжительность: 00:40:37/00:38:14

CD 1: Alpha Noir

01. Axis Mundi 04:57
02. Lickanthrope 03:49
03. Versus 04:39
04. Alpha Noir 04:30
05. En Nome Do Medo 04:27
06. Opera Carne 03:53
07. Love Is Blasphemy 04:31
08. Grand Stand 04:54
09. Sine Missione 04:57

Лог создания рипа

Exact Audio Copy V1.1 from 23. June 2015
EAC extraction logfile from 13. June 2016, 19:12
Moonspell / Alpha Noir
Used drive : HP DVD Writer 1170d Adapter: 1 ID: 1
Read mode : SecureUtilize accurate stream : YesDefeat audio cache : YesMake use of C2 pointers : No
Read offset correction : 6Overread into Lead-In and Lead-Out : NoFill up missing offset samples with silence : YesDelete leading and trailing silent blocks : NoNull samples used in CRC calculations : YesUsed interface : Native Win32 interface for Win NT & 2000
Used output format : User Defined EncoderSelected bitrate : 1024 kBit/sQuality : LowAdd ID3 tag : NoCommand line compressor : C:\Program Files (x86)\Exact Audio Copy\FLAC\FLAC.EXEAdditional command line options : -V -8 -T "Date=%year%" -T "Genre=%genre%" -T"COMMENT=Ripped by Ungern666" -8 -V %source%
TOC of the extracted CD
Track | Start | Length | Start sector | End sector --------------------------------------------------------- 1 | 0:00.00 | 4:56.39 | 0 | 22238 2 | 4:56.39 | 3:49.03 | 22239 | 39416 3 | 8:45.42 | 4:39.22 | 39417 | 60363 4 | 13:24.64 | 4:30.09 | 60364 | 80622 5 | 17:54.73 | 4:27.36 | 80623 | 100683 6 | 22:22.34 | 3:52.67 | 100684 | 118150 7 | 26:15.26 | 4:31.22 | 118151 | 138497 8 | 30:46.48 | 4:53.64 | 138498 | 160536 9 | 35:40.37 | 4:57.11 | 160537 | 182822
Range status and errors
Selected range
Filename C:\EAC\Ungern666\Moonspell - Alpha Noir.wav
Peak level 98.8 % Extraction speed 5.5 X Range quality 100.0 % Test CRC A0F31420 Copy CRC A0F31420 Copy OK
No errors occurred
AccurateRip summary
Track 1 accurately ripped (confidence 58) [A9E1B025] (AR v2)Track 2 accurately ripped (confidence 58) [C34CC327] (AR v2)Track 3 accurately ripped (confidence 58) [1370EE64] (AR v2)Track 4 accurately ripped (confidence 58) [B6458036] (AR v2)Track 5 accurately ripped (confidence 58) [7C55E04A] (AR v2)Track 6 accurately ripped (confidence 58) [488BE524] (AR v2)Track 7 accurately ripped (confidence 58) [B5FAACF5] (AR v2)Track 8 accurately ripped (confidence 58) [AEEB189A] (AR v2)Track 9 accurately ripped (confidence 57) [3CEF5601] (AR v2)
All tracks accurately ripped
End of status report
---- CUETools DB Plugin V2.1.6
[CTDB TOCID: kpEI4EJ8esrlPTOGDbvfpWu121c-] foundSubmit result: already submittedTrack | CTDB Status 1 | (84/84) Accurately ripped 2 | (84/84) Accurately ripped 3 | (84/84) Accurately ripped 4 | (84/84) Accurately ripped 5 | (84/84) Accurately ripped 6 | (84/84) Accurately ripped 7 | (84/84) Accurately ripped 8 | (84/84) Accurately ripped 9 | (84/84) Accurately ripped
==== Log checksum AB35EF9992BFC3F645FBB9BBBE0C8B07826A90F05F05215536C58B4628BD35C7 ====

CD 2: Omega White

01. Whiteomega 04:21
02. White Skies 03:35
03. Fireseason 04:29
04. New Tears Eve 04:46
05. Herodisiac 04:47
06. Incantatrix 04:40
07. Sacrificial 04:11
08. A Greater Darkness 07:25

Лог создания рипа

Exact Audio Copy V1.1 from 23. June 2015
EAC extraction logfile from 13. June 2016, 19:30
Moonspell / Omega White
Used drive : HP DVD Writer 1170d Adapter: 1 ID: 1
Read mode : SecureUtilize accurate stream : YesDefeat audio cache : YesMake use of C2 pointers : No
Read offset correction : 6Overread into Lead-In and Lead-Out : NoFill up missing offset samples with silence : YesDelete leading and trailing silent blocks : NoNull samples used in CRC calculations : YesUsed interface : Native Win32 interface for Win NT & 2000
Used output format : User Defined EncoderSelected bitrate : 1024 kBit/sQuality : LowAdd ID3 tag : NoCommand line compressor : C:\Program Files (x86)\Exact Audio Copy\FLAC\FLAC.EXEAdditional command line options : -V -8 -T "Date=%year%" -T "Genre=%genre%" -T"COMMENT=Ripped by Ungern666" -8 -V %source%
TOC of the extracted CD
Track | Start | Length | Start sector | End sector --------------------------------------------------------- 1 | 0:00.00 | 4:21.01 | 0 | 19575 2 | 4:21.01 | 3:34.49 | 19576 | 35674 3 | 7:55.50 | 4:29.14 | 35675 | 55863 4 | 12:24.64 | 4:45.68 | 55864 | 77306 5 | 17:10.57 | 4:46.59 | 77307 | 98815 6 | 21:57.41 | 4:40.37 | 98816 | 119852 7 | 26:38.03 | 4:11.37 | 119853 | 138714 8 | 30:49.40 | 7:24.49 | 138715 | 172063
Range status and errors
Selected range
Filename C:\EAC\Ungern666\Moonspell - Omega White.wav
Peak level 98.8 % Extraction speed 5.4 X Range quality 100.0 % Test CRC 49E937ED Copy CRC 49E937ED Copy OK
No errors occurred
AccurateRip summary
Track 1 accurately ripped (confidence 53) [E0900560] (AR v2)Track 2 accurately ripped (confidence 53) [80BC3874] (AR v2)Track 3 accurately ripped (confidence 53) [BA1170D5] (AR v2)Track 4 accurately ripped (confidence 53) [571F827A] (AR v2)Track 5 accurately ripped (confidence 53) [AA21468D] (AR v2)Track 6 accurately ripped (confidence 53) [D1DDBAC9] (AR v2)Track 7 accurately ripped (confidence 53) [8F964409] (AR v2)Track 8 accurately ripped (confidence 51) [AF4BBAE5] (AR v2)
All tracks accurately ripped
End of status report
---- CUETools DB Plugin V2.1.6
[CTDB TOCID: FdvlDRKcojZmGhcxT8zAWAOVDpU-] foundSubmit result: FdvlDRKcojZmGhcxT8zAWAOVDpU- has been confirmedTrack | CTDB Status 1 | (67/68) Accurately ripped 2 | (68/68) Accurately ripped 3 | (67/68) Accurately ripped 4 | (67/68) Accurately ripped 5 | (67/68) Accurately ripped 6 | (68/68) Accurately ripped 7 | (68/68) Accurately ripped 8 | (68/68) Accurately ripped
==== Log checksum 374B1375C58C5A57A1AAD0F059073C7A6667673C1F49DDBFB7342283203D6521 ====

2012 - Alpha Noir - Omega White [Mazzar, MZRCD542, Russia]

Продолжительность: 00:53:22
01. Axis Mundi 04:59
02. Lickanthrope 03:51
03. Versus 04:41
04. Alpha Noir 04:32
05. Em Nome Do Medo 04:29
06. Opera Carne 03:55
07. Love Is Blasphemy 04:33
08. Grandstand 04:56
09. Sine Missione 04:59
10. White Omega (Bonus Track) 04:22
11. White Skies (Bonus Track) 03:36
12. Fireseason (Bonus Track) 04:29

Лог создания рипа

Exact Audio Copy V1.0 beta 3 from 29. August 2011
EAC extraction logfile from 3. June 2012, 15:53
Moonspell / Alpha Noir
Used drive : PLEXTOR DVDR PX-860A Adapter: 4 ID: 0
Read mode : SecureUtilize accurate stream : YesDefeat audio cache : YesMake use of C2 pointers : No
Read offset correction : 96Overread into Lead-In and Lead-Out : NoFill up missing offset samples with silence : YesDelete leading and trailing silent blocks : NoNull samples used in CRC calculations : YesUsed interface : Installed external ASPI interface
Used output format : User Defined EncoderSelected bitrate : 1024 kBit/sQuality : HighAdd ID3 tag : NoCommand line compressor : C:\Program Files\Exact Audio Copy\FLAC.EXEAdditional command line options : -V -8 -T "Date=%year%" -T "Genre=%genre%" %source%
TOC of the extracted CD
Track | Start | Length | Start sector | End sector --------------------------------------------------------- 1 | 0:00.00 | 4:58.39 | 0 | 22388 2 | 4:58.39 | 3:51.03 | 22389 | 39716 3 | 8:49.42 | 4:41.22 | 39717 | 60813 4 | 13:30.64 | 4:32.09 | 60814 | 81222 5 | 18:02.73 | 4:29.36 | 81223 | 101433 6 | 22:32.34 | 3:54.67 | 101434 | 119050 7 | 26:27.26 | 4:33.22 | 119051 | 139547 8 | 31:00.48 | 4:55.64 | 139548 | 161736 9 | 35:56.37 | 4:59.11 | 161737 | 184172 10 | 40:55.48 | 4:22.05 | 184173 | 203827 11 | 45:17.53 | 3:36.29 | 203828 | 220056 12 | 48:54.07 | 4:28.60 | 220057 | 240216
Range status and errors
Selected range
Filename J:\MUSIC\Moonspell - Alpha Noir.wav
Peak level 98.8 % Extraction speed 7.5 X Range quality 100.0 % Test CRC 3068E0FC Copy CRC 3068E0FC Copy OK
No errors occurred
AccurateRip summary
Track 1 not present in databaseTrack 2 not present in databaseTrack 3 not present in databaseTrack 4 not present in databaseTrack 5 not present in databaseTrack 6 not present in databaseTrack 7 not present in databaseTrack 8 not present in databaseTrack 9 not present in databaseTrack 10 not present in databaseTrack 11 not present in databaseTrack 12 not present in database
None of the tracks are present in the AccurateRip database
End of status report
==== Log checksum CE82C34A242149B305B62BA4079D4A5E56C29D8A00E9D5EF729B8386569B0393 ====

2015 - Extinct2015 - Extinct [Napalm Rec., NPR 581 LTD, Germany]

Продолжительность: 01:08:35
01. Breathe (Until We Are No More) 05:33
02. Extinct 04:42
03. Medusalem 05:06
04. Domina 05:09
05. The Last Of Us 03:26
06. Malignia 05:06
07. Funeral Bloom 04:10
08. A Dying Breed 04:29
09. The Future Is Dark 05:09
10. La Baphomette 02:47
11. Until We Are No Less (Bonus Track) 07:02
12. Doomina (Bonus Track) 04:49
13. Last Of Them (Bonus Track) 05:24
14. The Past Is Darker (Bonus Track) 05:43

Лог создания рипа

Exact Audio Copy V1.1 from 23. June 2015
EAC extraction logfile from 13. June 2016, 18:33
Moonspell / Extinct (Limited Edition)
Used drive : HP DVD Writer 1170d Adapter: 1 ID: 1
Read mode : SecureUtilize accurate stream : YesDefeat audio cache : YesMake use of C2 pointers : No
Read offset correction : 6Overread into Lead-In and Lead-Out : NoFill up missing offset samples with silence : YesDelete leading and trailing silent blocks : NoNull samples used in CRC calculations : YesUsed interface : Native Win32 interface for Win NT & 2000
Used output format : User Defined EncoderSelected bitrate : 1024 kBit/sQuality : LowAdd ID3 tag : NoCommand line compressor : C:\Program Files (x86)\Exact Audio Copy\FLAC\FLAC.EXEAdditional command line options : -V -8 -T "Date=%year%" -T "Genre=%genre%" -T"COMMENT=Ripped by Ungern666" -8 -V %source%
TOC of the extracted CD
Track | Start | Length | Start sector | End sector --------------------------------------------------------- 1 | 0:00.00 | 5:32.67 | 0 | 24966 2 | 5:32.67 | 4:42.11 | 24967 | 46127 3 | 10:15.03 | 5:06.21 | 46128 | 69098 4 | 15:21.24 | 5:08.38 | 69099 | 92236 5 | 20:29.62 | 3:25.44 | 92237 | 107655 6 | 23:55.31 | 5:06.09 | 107656 | 130614 7 | 29:01.40 | 4:10.07 | 130615 | 149371 8 | 33:11.47 | 4:29.09 | 149372 | 169555 9 | 37:40.56 | 5:08.66 | 169556 | 192721 10 | 42:49.47 | 2:47.29 | 192722 | 205275 11 | 45:37.01 | 7:02.03 | 205276 | 236928 12 | 52:39.04 | 4:49.20 | 236929 | 258623 13 | 57:28.24 | 5:23.59 | 258624 | 282907 14 | 62:52.08 | 5:42.67 | 282908 | 308624
Range status and errors
Selected range
Filename C:\EAC\Ungern666\Moonspell - Extinct (Limited Edition).wav
Peak level 100.0 % Extraction speed 7.8 X Range quality 100.0 % Test CRC A237FB04 Copy CRC A237FB04 Copy OK
No errors occurred
AccurateRip summary
Track 1 accurately ripped (confidence 32) [DFA99A1C] (AR v2)Track 2 accurately ripped (confidence 32) [631A2953] (AR v2)Track 3 accurately ripped (confidence 31) [DC7C996E] (AR v2)Track 4 accurately ripped (confidence 33) [D6652D95] (AR v2)Track 5 accurately ripped (confidence 33) [A7F61B78] (AR v2)Track 6 accurately ripped (confidence 33) [C7E10EE6] (AR v2)Track 7 accurately ripped (confidence 33) [F13F7D2D] (AR v2)Track 8 accurately ripped (confidence 33) [2DE8A4E4] (AR v2)Track 9 accurately ripped (confidence 33) [5950A582] (AR v2)Track 10 accurately ripped (confidence 33) [3172F755] (AR v2)Track 11 accurately ripped (confidence 33) [8648EB24] (AR v2)Track 12 accurately ripped (confidence 33) [5C5B9BE1] (AR v2)Track 13 accurately ripped (confidence 33) [BF6860CB] (AR v2)Track 14 accurately ripped (confidence 33) [521C157F] (AR v2)
All tracks accurately ripped
End of status report
---- CUETools DB Plugin V2.1.6
[CTDB TOCID: _UM4AqXfG0s5QKi3096PiR1rsfY-] foundSubmit result: _UM4AqXfG0s5QKi3096PiR1rsfY- has been confirmedTrack | CTDB Status 1 | (95/96) Accurately ripped 2 | (95/96) Accurately ripped 3 | (95/96) Accurately ripped 4 | (95/96) Accurately ripped 5 | (95/96) Accurately ripped 6 | (95/96) Accurately ripped 7 | (95/96) Accurately ripped 8 | (94/96) Accurately ripped 9 | (93/96) Accurately ripped 10 | (94/96) Accurately ripped 11 | (94/96) Accurately ripped 12 | (95/96) Accurately ripped 13 | (94/96) Accurately ripped 14 | (94/96) Accurately ripped
==== Log checksum 5FC3B3D6D595C6CBA8B7C6F7E651E4B21B855D0901F2B17BF6A96CC2F47C8408 ====

2017 - 17552017 - 1755 [Napalm Rec., NPR 25 DP, Germany]

Продолжительность: 00:51:12
01. Em Nome do Medo (Orchestral Version by Jon Phipps) 05:32
02. 1755 05:12
03. In Tremor Dei (feat. Paulo Bragança) 04:26
04. Desastre 03:22
05. Abanão 04:08
06. Evento 04:44
07. 1 de Novembro 03:53
08. Ruínas 04:45
09. Todos os Santos 05:10
10. Lanterna dos Afogados 06:30
11. Desastre (Bonus Song/Spanish Version) 03:26

Лог создания рипа

Exact Audio Copy V1.3 from 2. September 2016
EAC extraction logfile from 17. February 2019, 20:31
Moonspell / 1755
Used drive : HP DVD Writer 1170d Adapter: 1 ID: 1
Read mode : SecureUtilize accurate stream : YesDefeat audio cache : YesMake use of C2 pointers : No
Read offset correction : 6Overread into Lead-In and Lead-Out : NoFill up missing offset samples with silence : YesDelete leading and trailing silent blocks : NoNull samples used in CRC calculations : YesUsed interface : Native Win32 interface for Win NT & 2000
Used output format : User Defined EncoderSelected bitrate : 1024 kBit/sQuality : HighAdd ID3 tag : NoCommand line compressor : C:\Program Files (x86)\Exact Audio Copy\Flac\flac.exeAdditional command line options : -V -8 -T "Date=%year%" -T "Genre=%genre%" %source%
TOC of the extracted CD
Track | Start | Length | Start sector | End sector --------------------------------------------------------- 1 | 0:00.00 | 5:32.20 | 0 | 24919 2 | 5:32.20 | 5:12.01 | 24920 | 48320 3 | 10:44.21 | 4:26.49 | 48321 | 68319 4 | 15:10.70 | 3:22.46 | 68320 | 83515 5 | 18:33.41 | 4:08.61 | 83516 | 102176 6 | 22:42.27 | 4:43.74 | 102177 | 123475 7 | 27:26.26 | 3:53.51 | 123476 | 141001 8 | 31:20.02 | 4:45.37 | 141002 | 162413 9 | 36:05.39 | 5:10.21 | 162414 | 185684 10 | 41:15.60 | 6:30.33 | 185685 | 214967 11 | 47:46.18 | 3:26.14 | 214968 | 230431
Range status and errors
Selected range
Filename C:\EAC\ungern666\Moonspell - 1755.wav
Peak level 100.0 % Extraction speed 6.7 X Range quality 100.0 % Test CRC 57087A80 Copy CRC 57087A80 Copy OK
No errors occurred
AccurateRip summary
Track 1 accurately ripped (confidence 27) [000D33C0] (AR v2)Track 2 accurately ripped (confidence 27) [BA031C1B] (AR v2)Track 3 accurately ripped (confidence 27) [756EFCFC] (AR v2)Track 4 accurately ripped (confidence 27) [A07902EB] (AR v2)Track 5 accurately ripped (confidence 27) [1B2BA2FF] (AR v2)Track 6 accurately ripped (confidence 27) [0BA199A0] (AR v2)Track 7 accurately ripped (confidence 27) [4F3183B9] (AR v2)Track 8 accurately ripped (confidence 27) [92667A50] (AR v2)Track 9 accurately ripped (confidence 27) [A351E482] (AR v2)Track 10 accurately ripped (confidence 27) [3314517B] (AR v2)Track 11 accurately ripped (confidence 27) [C159A0E2] (AR v2)
All tracks accurately ripped
End of status report
---- CUETools DB Plugin V2.1.6
[CTDB TOCID: 6s5YrZTVa97u3xSzCEl0UHBVsys-] foundSubmit result: 6s5YrZTVa97u3xSzCEl0UHBVsys- has been confirmedTrack | CTDB Status 1 | (143/145) Accurately ripped 2 | (143/145) Accurately ripped 3 | (142/145) Accurately ripped 4 | (143/145) Accurately ripped 5 | (143/145) Accurately ripped 6 | (143/145) Accurately ripped 7 | (143/145) Accurately ripped 8 | (143/145) Accurately ripped 9 | (142/145) Accurately ripped 10 | (143/145) Accurately ripped 11 | (142/145) Accurately ripped
==== Log checksum CACF2911CE10F7C5CF418BC83B8235BAFE9EE83DEBFF29C93191997863850533 ====
Live And Compilation-

2007 - The Great Silver Eye [Fono, FO716CD, Russia]

Продолжительность: 01:19:07
01. Wolfshade (A Werewolf Masquerade) 07:44
02. Vampiria 05:36
03. Alma Mater 05:37
04. Opium 02:47
05. Raven Claws 03:16
06. Full Moon Madness 06:47
07. Second Skin 04:51
08. Magdalene 06:17
09. Soulsick 04:16
10. Lustmord 03:45
11. Firewalking 03:06
12. Nocturna 03:52
13. Everything Invaded 06:17
14. Capricorn At Her Feet 06:05
15. Finisterra 04:09
16. Luna 04:43

Лог создания рипа

Exact Audio Copy V0.99 prebeta 5 from 4. May 2009
Отчёт EAC об извлечении, выполненном 19. января 2014, 13:15
Moonspell / The Great Silver Eye
Дисковод: ASUS DRW-22B2L Adapter: 0 ID: 1
Режим чтения : ДостоверностьИспользование точного потока : ДаОтключение кэша аудио : ДаИспользование указателей C2 : Нет
Коррекция смещения при чтении : 6Способность читать области Lead-in и Lead-out : НетЗаполнение пропущенных сэмплов тишиной : ДаУдаление блоков с тишиной в начале и конце : НетПри вычислениях CRC использовались нулевые сэмплы : ДаИнтерфейс : Встроенный Win32-интерфейс для Win NT/2000
Выходной формат : Внутренние WAV-операцииФормат сэмплов : 44.100 Гц; 16 бит; стерео
TOC извлечённого CD
Трек | Старт | Длительность | Начальный сектор | Конечный сектор --------------------------------------------------------------------- 1 | 0:00.00 | 7:43.46 | 0 | 34770 2 | 7:43.46 | 5:35.68 | 34771 | 59963 3 | 13:19.39 | 5:37.24 | 59964 | 85262 4 | 18:56.63 | 2:46.64 | 85263 | 97776 5 | 21:43.52 | 3:16.11 | 97777 | 112487 6 | 24:59.63 | 6:47.16 | 112488 | 143028 7 | 31:47.04 | 4:51.16 | 143029 | 164869 8 | 36:38.20 | 6:17.33 | 164870 | 193177 9 | 42:55.53 | 4:16.19 | 193178 | 212396 10 | 47:11.72 | 3:44.40 | 212397 | 229236 11 | 50:56.37 | 3:05.54 | 229237 | 243165 12 | 54:02.16 | 3:52.06 | 243166 | 260571 13 | 57:54.22 | 6:16.50 | 260572 | 288821 14 | 64:10.72 | 6:04.59 | 288822 | 316180 15 | 70:15.56 | 4:08.68 | 316181 | 334848 16 | 74:24.49 | 4:42.71 | 334849 | 356069
Характеристики диапазона извлечения и сообщения об ошибках
Выбранный диапазон
Имя файла D:\rip-flacmusic.ru\Moonspell 2007\Moonspell - The Great Silver Eye.wav
Пиковый уровень 100.0 % Качество диапазона 100.0 % CRC теста 79E8FE99 CRC копии 79E8FE99 Копирование... OK
Ошибок не произошло
AccurateRip: сводка
Трек 1 точность не определена (достоверность 11) [67F26814], AccurateRip вернул [15C1D206]Трек 2 точность не определена (достоверность 10) [F6539B63], AccurateRip вернул [1E0B6FC1]Трек 3 точность не определена (достоверность 10) [9806D3EC], AccurateRip вернул [EBC74C06]Трек 4 точность не определена (достоверность 10) [0B1563C8], AccurateRip вернул [A9D7CB8C]Трек 5 точность не определена (достоверность 10) [409F338C], AccurateRip вернул [4C9950A2]Трек 6 точность не определена (достоверность 10) [8980BB75], AccurateRip вернул [00960E9B]Трек 7 точность не определена (достоверность 10) [553601CB], AccurateRip вернул [2F30E34D]Трек 8 точность не определена (достоверность 10) [5B71AADE], AccurateRip вернул [CE0514D6]Трек 9 точность не определена (достоверность 10) [DB3359A2], AccurateRip вернул [54F3E8A7]Трек 10 точность не определена (достоверность 10) [476FD422], AccurateRip вернул [98AA4041]Трек 11 точность не определена (достоверность 10) [8AE5F1E1], AccurateRip вернул [FE4BBE5D]Трек 12 точность не определена (достоверность 10) [25D08A7C], AccurateRip вернул [479C1698]Трек 13 точность не определена (достоверность 10) [7204E52C], AccurateRip вернул [19BE10C9]Трек 14 точность не определена (достоверность 10) [E8698F5C], AccurateRip вернул [7F7DC954]Трек 15 точность не определена (достоверность 10) [88AC4B5F], AccurateRip вернул [FFAAAA13]Трек 16 точность не определена (достоверность 9) [A5E6FF9E], AccurateRip вернул [EB22EB77]
Ни один трек не прошёл проверки на точностьВ вашей базе может быть иной вариант штамповки диска
Конец отчёта

2007 - Under Satanae2007 - Under Satanae [Steamhammer, SPV 98512 CD, Germany]

Продолжительность: 00:50:30
01. Halla Alle Halla Al Rabka Halla (Praeludium/Incantatum Solistitium) 02:19
02. Tenebrarum Oratorium (Andamento I/Erudit Compendyum) 06:23
03. Interludium/Incantatum Oequinoctum 01:33
04. Tenebrarum Oratorium (Andamento II/Erotic Compendyum) 06:16
05. Opus Diabolicum (Andamento III/Instrumental Compendyum) 05:09
06. Chorai Lusitânia! (Epilogus/Incantatam Maresia) 01:50
07. Goat On Fire 06:35
08. Ancient Winter Goddess 06:09
09. Wolves From The Fog 07:03
10. Serpent Angel 07:14

Лог создания рипа

Exact Audio Copy V1.1 from 23. June 2015
EAC extraction logfile from 13. June 2016, 18:10
Moonspell / Under Satanae
Used drive : HP DVD Writer 1170d Adapter: 1 ID: 1
Read mode : SecureUtilize accurate stream : YesDefeat audio cache : YesMake use of C2 pointers : No
Read offset correction : 6Overread into Lead-In and Lead-Out : NoFill up missing offset samples with silence : YesDelete leading and trailing silent blocks : NoNull samples used in CRC calculations : YesUsed interface : Native Win32 interface for Win NT & 2000
Used output format : User Defined EncoderSelected bitrate : 1024 kBit/sQuality : LowAdd ID3 tag : NoCommand line compressor : C:\Program Files (x86)\Exact Audio Copy\FLAC\FLAC.EXEAdditional command line options : -V -8 -T "Date=%year%" -T "Genre=%genre%" -T"COMMENT=Ripped by Ungern666" -8 -V %source%
TOC of the extracted CD
Track | Start | Length | Start sector | End sector --------------------------------------------------------- 1 | 0:00.00 | 2:18.48 | 0 | 10397 2 | 2:18.48 | 6:23.13 | 10398 | 39135 3 | 8:41.61 | 1:33.22 | 39136 | 46132 4 | 10:15.08 | 6:15.38 | 46133 | 74295 5 | 16:30.46 | 5:08.68 | 74296 | 97463 6 | 21:39.39 | 1:50.02 | 97464 | 105715 7 | 23:29.41 | 6:34.71 | 105716 | 135336 8 | 30:04.37 | 6:08.45 | 135337 | 162981 9 | 36:13.07 | 7:03.32 | 162982 | 194738 10 | 43:16.39 | 7:13.54 | 194739 | 227267
Range status and errors
Selected range
Filename C:\EAC\Ungern666\Moonspell - Under Satanae.wav
Peak level 100.0 % Extraction speed 7.0 X Range quality 100.0 % Test CRC 2C06AEBD Copy CRC 2C06AEBD Copy OK
No errors occurred
AccurateRip summary
Track 1 accurately ripped (confidence 20) [6E35F98D] (AR v2)Track 2 accurately ripped (confidence 19) [622BB5A7] (AR v2)Track 3 accurately ripped (confidence 20) [DDA27028] (AR v2)Track 4 accurately ripped (confidence 20) [907427DF] (AR v2)Track 5 accurately ripped (confidence 20) [0AD5D292] (AR v2)Track 6 accurately ripped (confidence 20) [3F04015D] (AR v2)Track 7 accurately ripped (confidence 20) [F42A0A6F] (AR v2)Track 8 accurately ripped (confidence 20) [72C0F5E9] (AR v2)Track 9 accurately ripped (confidence 20) [4556DC99] (AR v2)Track 10 accurately ripped (confidence 18) [A5F28672] (AR v2)
All tracks accurately ripped
End of status report
---- CUETools DB Plugin V2.1.6
[CTDB TOCID: U3QzJ8CnnOgcUcouBZUWCDzRsss-] foundSubmit result: U3QzJ8CnnOgcUcouBZUWCDzRsss- has been confirmedTrack | CTDB Status 1 | (35/36) Accurately ripped 2 | (35/36) Accurately ripped 3 | (35/36) Accurately ripped 4 | (35/36) Accurately ripped 5 | (35/36) Accurately ripped 6 | (35/36) Accurately ripped 7 | (35/36) Accurately ripped 8 | (35/36) Accurately ripped 9 | (35/36) Accurately ripped 10 | (35/36) Accurately ripped
==== Log checksum DE1752FFC877BF39992059902DD813328EC25A42A966F3B1E334B68D27FC6C18 ====

2008 - Lusitanian Metal [Metal Mind, MASS CD 1248, Poland]

Продолжительность: 00:59:41
01. Intro/In And Above Men 04:29
02. From Lowering Skies 06:34
03. Alma Mater 03:30
04. Vampiria 05:36
05. The Southern Deathstyle 05:01
06. Everything Invaded 06:25
07. Opium 02:58
08. Devilred 03:50
09. Abysmo 04:35
10. Ruin & Misery 04:18
11. Mephisto 05:44
12. Full Moon Madness 06:40

Лог создания рипа

EAC extraction logfile from 17. March 2009, 13:06 for CDMOONSPELL / Lusitanian Metal
Used drive : ASUS DRW-1814BLT Adapter: 2 ID: 0Read mode : Secure with NO C2, accurate stream, disable cacheRead offset correction : 6Overread into Lead-In and Lead-Out : No
Used output format : C:\Program Files\Exact Audio Copy\MAC.EXE (Monkey's Audio Lossless Encoder) High Lossless Compression
Other options : Fill up missing offset samples with silence : Yes Delete leading and trailing silent blocks : No Installed external ASPI interface
Range status and errorsSelected range Filename C:\Documents and Settings\User\Pulpit\MOONSPELL [2008][CD] LUSITANIAN METAL\CDImage.wav
Peak level 100.0 % Range quality 100.0 % CRC 4362EEB3 Copy OK
No errors occured
End of status report

2018 - Lisboa Under The Spell [Napalm Rec., NPR 774 DP, Germany]

Продолжительность: 00:60:32/00:47:41/00:54:34

CD 1 Wolfheart Show

01. Wolfshade (A Werewolf Masquerade) 10:40
02. Love Crimes 07:44
03. Of Dream And Drama 04:06
04. Lua d'Inverno 02:04
05. Trebaruna 04:50
06. Ataegina 04:52
07. Vampiria 08:47
08. An Erotic Alchemy 10:38
09. Alma Mater 06:52

Лог создания рипа

Exact Audio Copy V1.3 from 2. September 2016
EAC extraction logfile from 16. August 2018, 14:03
Moonspell / Lisboa Under The Spell CD 1 Wolfheart Show
Used drive : HP DVD Writer 1170d Adapter: 1 ID: 1
Read mode : SecureUtilize accurate stream : YesDefeat audio cache : YesMake use of C2 pointers : No
Read offset correction : 6Overread into Lead-In and Lead-Out : NoFill up missing offset samples with silence : YesDelete leading and trailing silent blocks : NoNull samples used in CRC calculations : YesUsed interface : Native Win32 interface for Win NT & 2000
Used output format : User Defined EncoderSelected bitrate : 1024 kBit/sQuality : HighAdd ID3 tag : NoCommand line compressor : C:\Program Files (x86)\Exact Audio Copy\Flac\flac.exeAdditional command line options : -V -8 -T "Date=%year%" -T "Genre=%genre%" %source%
TOC of the extracted CD
Track | Start | Length | Start sector | End sector --------------------------------------------------------- 1 | 0:00.00 | 10:40.14 | 0 | 48013 2 | 10:40.14 | 7:43.54 | 48014 | 82792 3 | 18:23.68 | 4:06.16 | 82793 | 101258 4 | 22:30.09 | 2:03.65 | 101259 | 110548 5 | 24:33.74 | 4:49.73 | 110549 | 132296 6 | 29:23.72 | 4:51.63 | 132297 | 154184 7 | 34:15.60 | 8:46.74 | 154185 | 193708 8 | 43:02.59 | 10:38.10 | 193709 | 241568 9 | 53:40.69 | 6:51.38 | 241569 | 272431
Range status and errors
Selected range
Filename C:\EAC\ungern666\Moonspell - Lisboa Under The Spell CD 1 Wolfheart Show.wav
Peak level 100.0 % Extraction speed 7.1 X Range quality 99.9 % Test CRC 45F76C34 Copy CRC 45F76C34 Copy OK
No errors occurred
AccurateRip summary
Track 1 not present in databaseTrack 2 not present in databaseTrack 3 not present in databaseTrack 4 not present in databaseTrack 5 not present in databaseTrack 6 not present in databaseTrack 7 not present in databaseTrack 8 not present in databaseTrack 9 not present in database
None of the tracks are present in the AccurateRip database
End of status report
---- CUETools DB Plugin V2.1.6
[CTDB TOCID: lR9ySRKEwsbiIJVlmRFFG4GC6UI-] foundSubmit result: lR9ySRKEwsbiIJVlmRFFG4GC6UI- has been confirmedTrack | CTDB Status 1 | (1/1) Accurately ripped 2 | (1/1) Accurately ripped 3 | (1/1) Accurately ripped 4 | (1/1) Accurately ripped 5 | (1/1) Accurately ripped 6 | (1/1) Accurately ripped 7 | (1/1) Accurately ripped 8 | (1/1) Accurately ripped 9 | (1/1) Accurately ripped
==== Log checksum 5B23BC005DF20CFD78AB466868175E4B14126157AE00E3D6C547A913EA49E0A2 ====

CD 2 Irreligious Show

01. Perverse Almost Religious 01:09
02. Opium 02:54
03. Awake! 02:59
04. For A Taste Of Eternity 04:32
05. Ruin & Misery 04:21
06. A Poisoned Gift 05:59
07. Raven Claws (feat. Mariangela Demurtas) 04:30
08. Mephisto 06:36
09. Herr Spiegelmann 07:09
10. Fullmoon Madness 07:33

Лог создания рипа

Exact Audio Copy V1.3 from 2. September 2016
EAC extraction logfile from 16. August 2018, 14:23
Moonspell / Lisboa Under The Spell CD 2 Irreligious Show
Used drive : HP DVD Writer 1170d Adapter: 1 ID: 1
Read mode : SecureUtilize accurate stream : YesDefeat audio cache : YesMake use of C2 pointers : No
Read offset correction : 6Overread into Lead-In and Lead-Out : NoFill up missing offset samples with silence : YesDelete leading and trailing silent blocks : NoNull samples used in CRC calculations : YesUsed interface : Native Win32 interface for Win NT & 2000
Used output format : User Defined EncoderSelected bitrate : 1024 kBit/sQuality : HighAdd ID3 tag : NoCommand line compressor : C:\Program Files (x86)\Exact Audio Copy\Flac\flac.exeAdditional command line options : -V -8 -T "Date=%year%" -T "Genre=%genre%" %source%
TOC of the extracted CD
Track | Start | Length | Start sector | End sector --------------------------------------------------------- 1 | 0:00.00 | 1:09.21 | 0 | 5195 2 | 1:09.21 | 2:53.43 | 5196 | 18213 3 | 4:02.64 | 2:59.22 | 18214 | 31660 4 | 7:02.11 | 4:32.29 | 31661 | 52089 5 | 11:34.40 | 4:20.48 | 52090 | 71637 6 | 15:55.13 | 5:58.43 | 71638 | 98530 7 | 21:53.56 | 4:29.74 | 98531 | 118779 8 | 26:23.55 | 6:35.54 | 118780 | 148458 9 | 32:59.34 | 7:08.42 | 148459 | 180600 10 | 40:08.01 | 7:33.37 | 180601 | 214612
Range status and errors
Selected range
Filename C:\EAC\ungern666\Moonspell - Lisboa Under The Spell CD 2 Irreligious Show.wav
Peak level 100.0 % Extraction speed 5.4 X Range quality 99.9 % Test CRC 4C67A594 Copy CRC 4C67A594 Copy OK
No errors occurred
AccurateRip summary
Track 1 not present in databaseTrack 2 not present in databaseTrack 3 not present in databaseTrack 4 not present in databaseTrack 5 not present in databaseTrack 6 not present in databaseTrack 7 not present in databaseTrack 8 not present in databaseTrack 9 not present in databaseTrack 10 not present in database
None of the tracks are present in the AccurateRip database
End of status report
---- CUETools DB Plugin V2.1.6
[CTDB TOCID: h3RA6FbZpcVJ79Qknl8zn7JFmuc-] foundSubmit result: h3RA6FbZpcVJ79Qknl8zn7JFmuc- has been confirmedTrack | CTDB Status 1 | (1/1) Accurately ripped 2 | (1/1) Accurately ripped 3 | (1/1) Accurately ripped 4 | (1/1) Accurately ripped 5 | (1/1) Accurately ripped 6 | (1/1) Accurately ripped 7 | (1/1) Accurately ripped 8 | (1/1) Accurately ripped 9 | (1/1) Accurately ripped 10 | (1/1) Accurately ripped
==== Log checksum 0E6FA9D7F7B1126AD454209078D32BEC3B0E56EF6A1DB8740AD2F9B277293149 ====

CD 3 Extinct Show

01. All Gone From The Wild - La Baphomette (Intro) 02:39
02. Breathe (Until We Are No More) 05:37
03. Extinct (feat. Carolina Torres) 05:03
04. Medusalem 05:24
05. Domina 05:27
06. The Last Of Us 03:33
07. Malignia 05:35
08. Funeral Bloom 05:22
09. A Dying Breed 07:22
10. The Future Is Dark 08:33

Лог создания рипа

Exact Audio Copy V1.3 from 2. September 2016
EAC extraction logfile from 16. August 2018, 14:46
Moonspell / Lisboa Under The Spell CD 3 Extinct Show
Used drive : HP DVD Writer 1170d Adapter: 1 ID: 1
Read mode : SecureUtilize accurate stream : YesDefeat audio cache : YesMake use of C2 pointers : No
Read offset correction : 6Overread into Lead-In and Lead-Out : NoFill up missing offset samples with silence : YesDelete leading and trailing silent blocks : NoNull samples used in CRC calculations : YesUsed interface : Native Win32 interface for Win NT & 2000
Used output format : User Defined EncoderSelected bitrate : 1024 kBit/sQuality : HighAdd ID3 tag : NoCommand line compressor : C:\Program Files (x86)\Exact Audio Copy\Flac\flac.exeAdditional command line options : -V -8 -T "Date=%year%" -T "Genre=%genre%" %source%
TOC of the extracted CD
Track | Start | Length | Start sector | End sector --------------------------------------------------------- 1 | 0:00.00 | 2:38.63 | 0 | 11912 2 | 2:38.63 | 5:37.23 | 11913 | 37210 3 | 8:16.11 | 5:02.55 | 37211 | 59915 4 | 13:18.66 | 5:23.51 | 59916 | 84191 5 | 18:42.42 | 5:27.10 | 84192 | 108726 6 | 24:09.52 | 3:32.59 | 108727 | 124685 7 | 27:42.36 | 5:34.68 | 124686 | 149803 8 | 33:17.29 | 5:22.03 | 149804 | 173956 9 | 38:39.32 | 7:22.04 | 173957 | 207110 10 | 46:01.36 | 8:32.56 | 207111 | 245566
Range status and errors
Selected range
Filename C:\EAC\ungern666\Moonspell - Lisboa Under The Spell CD 3 Extinct Show.wav
Peak level 100.0 % Extraction speed 5.6 X Range quality 100.0 % Test CRC F7CF5325 Copy CRC F7CF5325 Copy OK
No errors occurred
AccurateRip summary
Track 1 not present in databaseTrack 2 not present in databaseTrack 3 not present in databaseTrack 4 not present in databaseTrack 5 not present in databaseTrack 6 not present in databaseTrack 7 not present in databaseTrack 8 not present in databaseTrack 9 not present in databaseTrack 10 not present in database
None of the tracks are present in the AccurateRip database
End of status report
---- CUETools DB Plugin V2.1.6
[CTDB TOCID: FV.fbrczpgBFUCXM.9gaiaEzW7k-] foundSubmit result: FV.fbrczpgBFUCXM.9gaiaEzW7k- has been confirmedTrack | CTDB Status 1 | (1/1) Accurately ripped 2 | (1/1) Accurately ripped 3 | (1/1) Accurately ripped 4 | (1/1) Accurately ripped 5 | (1/1) Accurately ripped 6 | (1/1) Accurately ripped 7 | (1/1) Accurately ripped 8 | (1/1) Accurately ripped 9 | (1/1) Accurately ripped 10 | (1/1) Accurately ripped
==== Log checksum 9F43B01922A25EDFA08881D4B3157E0CAF1A242DFE34D17B809B6D06206CBF0F ====
Singles And EP-

1994 (2001) - Under The Moonspell [Adipocere Rec., CD AR 021, France]

Продолжительность: 00:21:20
01. Allah Akbar La Allah Ella Allah [Praeludium - Incantatum Solstitium] 01:51
02. Tenebrarum Oratorium [Andamento I] 07:25
03. Tenebrarum Oratorium [Andamento II] 06:02
04. Opus Diabolicum [Andamento III] 04:18
05. Choral Lusitânia! [Epilogus] 01:44

Лог создания рипа

EAC extraction logfile from 22. May 2006, 13:46 for CDMoonspell / Under the Moonspell
Used drive : PLEXTOR DVD-ROM PX-130A Adapter: 1 ID: 3Read mode : Secure with NO C2, accurate stream, disable cacheRead offset correction : 738Overread into Lead-In and Lead-Out : No
Used output format : C:\Program Files\Exact Audio Copy\FLAC.exe (User Defined Encoder) 32 kBit/s Additional command line options : -6 -V -T "artist=%a" -T "title=%t" -T "album=%g" -T "date=%y" -T "tracknumber=%n" -T "genre=%m" -T "comment=EAC 0.9beta4 / FLAC 1.1.0 q6" %s
Other options : Fill up missing offset samples with silence : Yes Delete leading and trailing silent blocks : No Installed external ASPI interface
Range status and errorsSelected range Filename C:\Documents and Settings\Maglor\Desktop\Moonspell.[1994].[CD].Under.the.Moonspell.[EAC-FLAC].by.Maglor.[MeTalMaDNeSS.TeaM]\Under.the.Moonspell_1994CD.flac.wav
Peak level 98.8 % Range quality 100.0 % CRC 03515AFC Copy OK
No errors occured
End of status report

1997 - 2econd Skin [Century Media, 2CD, 77189-2, Germany]

Продолжительность: 00:20:03/00:32:35

CD 1

01. 2econd Skin 04:55
02. Erotik Alkemy (Per-version) 05:56
03. Sacred 05:14
04. 2econd Skin (Video Edit) 03:59

Лог создания рипа

Exact Audio Copy V1.0 beta 3 from 29. August 2011
Отчёт EAC об извлечении, выполненном 15. июля 2016, 21:36
Moonspell / 2econd Skin
Дисковод: Optiarc DVD RW AD-7170S Adapter: 3 ID: 0
Режим чтения : ДостоверностьИспользование точного потока : ДаОтключение кэша аудио : ДаИспользование указателей C2 : Нет
Коррекция смещения при чтении : 48Способность читать области Lead-in и Lead-out : НетЗаполнение пропущенных сэмплов тишиной : ДаУдаление блоков с тишиной в начале и конце : НетПри вычислениях CRC использовались нулевые сэмплы : ДаИнтерфейс : Встроенный Win32-интерфейс для Win NT/2000
Выходной формат : Внутренние WAV-операцииФормат сэмплов : 44.100 Гц; 16 бит; стерео
TOC извлечённого CD
Трек | Старт | Длительность | Начальный сектор | Конечный сектор --------------------------------------------------------------------- 1 | 0:00.00 | 4:54.50 | 0 | 22099 2 | 4:54.50 | 5:56.05 | 22100 | 48804 3 | 10:50.55 | 5:13.45 | 48805 | 72324 4 | 16:04.25 | 3:58.50 | 72325 | 90224
Характеристики диапазона извлечения и сообщения об ошибках
Выбранный диапазон
Имя файла C:\Users\Admin\Desktop\Moonspell - 2econd Skin\Moonspell - 2econd Skin - One.wav
Пиковый уровень 100.0 % Скорость извлечения 3.9 X Качество диапазона 100.0 % CRC теста E719E649 CRC копии E719E649 Копирование... OK
Ошибок не произошло
Конец отчёта
==== Контрольная сумма отчёта 61CA16DD00E43088184F94CE4531EF361417B0B4B32639326F28F2F53F30052C ====

CD 2

01. Opium 03:58
02. Awake 03:13
03. Herr Spiegelmann 04:55
04. ...Of Dream And Drama (Midnight Ride) 03:59
05. Ruin And Misery 04:16
06. Mephisto 04:49
07. Alma Mater 07:24

Лог создания рипа

Exact Audio Copy V1.0 beta 3 from 29. August 2011
Отчёт EAC об извлечении, выполненном 15. июля 2016, 21:56
Moonspell / 2econd Skin
Дисковод: Optiarc DVD RW AD-7170S Adapter: 3 ID: 0
Режим чтения : ДостоверностьИспользование точного потока : ДаОтключение кэша аудио : ДаИспользование указателей C2 : Нет
Коррекция смещения при чтении : 48Способность читать области Lead-in и Lead-out : НетЗаполнение пропущенных сэмплов тишиной : ДаУдаление блоков с тишиной в начале и конце : НетПри вычислениях CRC использовались нулевые сэмплы : ДаИнтерфейс : Встроенный Win32-интерфейс для Win NT/2000
Выходной формат : Внутренние WAV-операцииФормат сэмплов : 44.100 Гц; 16 бит; стерео
TOC извлечённого CD
Трек | Старт | Длительность | Начальный сектор | Конечный сектор --------------------------------------------------------------------- 1 | 0:00.00 | 3:58.35 | 0 | 17884 2 | 3:58.35 | 3:13.35 | 17885 | 32394 3 | 7:11.70 | 4:54.45 | 32395 | 54489 4 | 12:06.40 | 3:58.45 | 54490 | 72384 5 | 16:05.10 | 4:16.27 | 72385 | 91611 6 | 20:21.37 | 4:49.20 | 91612 | 113306 7 | 25:10.57 | 7:24.35 | 113307 | 146641
Характеристики диапазона извлечения и сообщения об ошибках
Выбранный диапазон
Имя файла C:\Users\Admin\Desktop\Moonspell - 2econd Skin\Moonspell - 2econd Skin - Two.wav
Пиковый уровень 98.8 % Скорость извлечения 4.4 X Качество диапазона 100.0 % CRC теста D28626A5 CRC копии D28626A5 Копирование... OK
Ошибок не произошло
AccurateRip: сводка
Трек 1 : извлечено точно (доверие 18) [A9C63F2E] (AR v2)Трек 2 : извлечено точно (доверие 18) [50B9201B] (AR v2)Трек 3 : извлечено точно (доверие 18) [FE0EEF07] (AR v2)Трек 4 : извлечено точно (доверие 18) [3F1F2846] (AR v2)Трек 5 : извлечено точно (доверие 18) [0FCE301F] (AR v2)Трек 6 : извлечено точно (доверие 18) [83FE54A0] (AR v2)Трек 7 : извлечено точно (доверие 18) [95B75C5A] (AR v2)
Все треки извлечены точно
Конец отчёта
==== Контрольная сумма отчёта F7ED099D7956FBC1C5A15B5D9AA5593022BFFBF134DAABAF6713E134291904FB ====

2003 - Everything Invaded [Century Media, CM 77489-3, Germany]

Продолжительность: 00:13:35
01. Everything Invaded (Single Edit) 03:57
02. Crystal Gazing (Album Version) 04:54
03. (The) Darkening 04:45

Лог создания рипа

Exact Audio Copy V1.0 beta 3 from 29. August 2011
Отчёт EAC об извлечении, выполненном 7. августа 2018, 14:15
Moonspell / Everything Invaded
Дисковод: HL-DT-STDVDRAM GT31N Adapter: 0 ID: 1
Режим чтения : ДостоверностьИспользование точного потока : ДаОтключение кэша аудио : ДаИспользование указателей C2 : Нет
Коррекция смещения при чтении : 103Способность читать области Lead-in и Lead-out : НетЗаполнение пропущенных сэмплов тишиной : ДаУдаление блоков с тишиной в начале и конце : НетПри вычислениях CRC использовались нулевые сэмплы : ДаИнтерфейс : Встроенный Win32-интерфейс для Win NT/2000
Выходной формат : Внутренние WAV-операцииФормат сэмплов : 44.100 Гц; 16 бит; стерео
TOC извлечённого CD
Трек | Старт | Длительность | Начальный сектор | Конечный сектор --------------------------------------------------------------------- 1 | 0:00.00 | 3:56.70 | 0 | 17769 2 | 3:56.70 | 4:53.71 | 17770 | 39815 3 | 8:50.66 | 4:44.68 | 39816 | 61183
Характеристики диапазона извлечения и сообщения об ошибках
Выбранный диапазон
Имя файла C:\Users\Admin\Desktop\moonspell - ei\Moonspell - Everything Invaded.wav
Пиковый уровень 98.8 % Скорость извлечения 1.5 X Качество диапазона 100.0 % CRC теста 74958B3C CRC копии 74958B3C Копирование... OK
Ошибок не произошло
AccurateRip: сводка
Трек 1 : извлечено точно (доверие 3) [B5A9F704] (AR v2)Трек 2 : извлечено точно (доверие 3) [988A4767] (AR v2)Трек 3 : извлечено точно (доверие 3) [C2B1A4C6] (AR v2)
Все треки извлечены точно
Конец отчёта
---- CUETools DB Plugin V2.1.3
[CTDB TOCID: kaGmQVl3KgokSJaZjP6OocVnvts-] found, Submit result: kaGmQVl3KgokSJaZjP6OocVnvts- has been confirmed[328d6477] (7/7) Accurately ripped
==== Контрольная сумма отчёта 30445CD56914890762A67AEE4D9446994EE1DB1D4879B90FF6548762E2D5BCAE ====
Материал предназначен для ознакомления!
[ru-zerkalo.org]_t_5154528
Torrent: Registered ·  [ 2019-03-03 12:22 ] ·  39092d3a86d0f548d499705769b1ad0818f66e98

121 KB

Status: checked
Completed: 0 times
Size: 11.39 GB
Rating: 
(Votes: 0)
Say thanks: 0  Thanks
 
Похожие темы
[Profile] [PM]
Display posts from previous:    
Reply to topic

The time now is: Today 01:33

All times are GMT + 7 Hours



You cannot post new topics in this forum
You cannot reply to topics in this forum
You cannot edit your posts in this forum
You cannot delete your posts in this forum
You cannot vote in polls in this forum
You cannot attach files in this forum
You can download files in this forum