Register · 
Username: Password:
 ·  Forgot password?

(Swing, Ragtime, Big Band, Early Jazz) [25xCD] VA - La Grande Histoire Du Jazz From Ragtime To Swing 1898-1952 (Louis Armstrong, Bix Beidebecke, Fletcher Henderson, Bessie Smith, Earl Hines, etc.) - 2009, FLAC (tracks+.cue), lossless

Reply to topic
DL-List and Torrent activity [Update пиров]
Size:  8.86 GB   |    Registered:  10 months 19 days   |    Completed:  0 times

Seeder not seen: Never

 
   
 
 
 
Author Message

ANTON1404 ®

Gender:

Longevity: 6 years 3 months

Posts: 18923

Post 04-Mar-2019 15:53

[Quote]

La Grande Histoire Du Jazz From Ragtime To Swing 1898-1952 Жанр: Swing, Ragtime, Big Band, Early Jazz, New Orleans Jazz, Dixieland, etc.
Год выпуска диска: 2009
Страна: France
Лейбл: Le Chant Du Monde (#574 1900.24)
Аудио кодек: FLAC
Тип рипа: tracks+.cue
Битрейт аудио: lossless
Продолжительность: 1d 07:55:50
Источник: what.cd
Наличие сканов: да
Amazon.com

CD 01


Продолжительность: 1:16:50
Трэклист:
01 - Joseph Cullen & Williams Collins - Eli Green's Cake-Walk (2:12)
02 - Dinwiddie Colored Quartet - Gabriel's Trumpet (2:37)
03 - Scott Joplin - The Cascades (2:10)
04 - Victor Dance Orchestra - Cake-Walk in The Sky (3:40)
05 - Vess Ossman - St. Louis Tickle (3:00)
06 - Arthur Pryor - St. Louis Rag (2:29)
07 - Chris Chapman - Dill Pickles (2:37)
08 - Vess Ossman - A Bunch Of Rags (2:20)
09 - Victor Military Band - Alexander's Ragtime Band (2:40)
10 - Joseph Lamb - American Beauty Rag (2:45)
11 - James Europe Orchestra - Castle House Rag (3:17)
12 - Fred Van Eps - Notoriety Rag (2:55)
13 - Scott Joplin - Mapple Leaf Rag (3:11)
14 - Original Diexiland Jass Band - Livery Stable Blues (3:10)
15 - Eubie Blake - Charleston Rag (3:07)
16 - W.C. Handy Orchestra - Ole Miss Rag (2:48)
17 - Original Diexiland Jass Band - Tiger Rag (3:09)
18 - Wilbur Sweatman - The Darktown Strutter's Ball (2:45)
19 - Earl Fuller - Jazz De Luxe (4:12)
20 - The 369th Infantry 'Hell Fighters' - St. Louis Blues (3:06)
21 - Louisiana Five - Slow and Easy (3:19)
22 - Paul Whiteman - Wang Wang Blues (3:21)
23 - Mamie Smith - Crazy Blues (3:28)
24 - Billy Arnold - Left Alone Blues (3:08)
25 - James P. Johnson - Harlem Strut (2:38)
26 - James P. Johnson - Carolina Shout (2:44)

log

Exact Audio Copy V1.0 beta 1 from 15. November 2010
EAC extraction logfile from 3. September 2011, 6:54
Various / From Ragtime To Swing CD1
Used drive : PLEXTOR DVDR PX-860A Adapter: 0 ID: 0
Read mode : SecureUtilize accurate stream : YesDefeat audio cache : YesMake use of C2 pointers : No
Read offset correction : 96Overread into Lead-In and Lead-Out : NoFill up missing offset samples with silence : YesDelete leading and trailing silent blocks : NoNull samples used in CRC calculations : YesUsed interface : Native Win32 interface for Win NT & 2000Gap handling : Appended to previous track
Used output format : User Defined EncoderSelected bitrate : 1024 kBit/sQuality : HighAdd ID3 tag : NoCommand line compressor : C:\Program Files\Exact Audio Copy\Flac\flac.exeAdditional command line options : -8 -V -T "ARTIST=%a" -T "TITLE=%t" -T "ALBUM=%g" -T "DATE=%y" -T "TRACKNUMBER=%n" -T "TOTALTRACKS=%x" -T "GENRE=%m" -T "ALBUM ARTIST=%v" -T "ALBUMARTIST=%v" -T "COMMENT=EAC V1.0 beta 1, Secure Mode, Test & Copy, AccurateRip
TOC of the extracted CD
Track | Start | Length | Start sector | End sector --------------------------------------------------------- 1 | 0:00.00 | 2:12.26 | 0 | 9925 2 | 2:12.26 | 2:37.16 | 9926 | 21716 3 | 4:49.42 | 2:09.55 | 21717 | 31446 4 | 6:59.22 | 3:40.11 | 31447 | 47957 5 | 10:39.33 | 2:59.73 | 47958 | 61455 6 | 13:39.31 | 2:29.05 | 61456 | 72635 7 | 16:08.36 | 2:37.29 | 72636 | 84439 8 | 18:45.65 | 2:19.51 | 84440 | 94915 9 | 21:05.41 | 2:40.33 | 94916 | 106948 10 | 23:45.74 | 2:45.15 | 106949 | 119338 11 | 26:31.14 | 3:16.61 | 119339 | 134099 12 | 29:48.00 | 2:55.09 | 134100 | 147233 13 | 32:43.09 | 3:11.29 | 147234 | 161587 14 | 35:54.38 | 3:09.47 | 161588 | 175809 15 | 39:04.10 | 3:06.48 | 175810 | 189807 16 | 42:10.58 | 2:47.64 | 189808 | 202396 17 | 44:58.47 | 3:09.00 | 202397 | 216571 18 | 48:07.47 | 2:45.25 | 216572 | 228971 19 | 50:52.72 | 4:12.34 | 228972 | 247905 20 | 55:05.31 | 3:06.09 | 247906 | 261864 21 | 58:11.40 | 3:18.61 | 261865 | 276775 22 | 61:30.26 | 3:20.68 | 276776 | 291843 23 | 64:51.19 | 3:28.19 | 291844 | 307462 24 | 68:19.38 | 3:07.63 | 307463 | 321550 25 | 71:27.26 | 2:37.59 | 321551 | 333384 26 | 74:05.10 | 2:44.28 | 333385 | 345712
Track 1
Filename S:\DL\Various Artists - From Ragtime To Swing CD1 (2010) [FLAC]\01 - Joseph Cullen & Williams Collins - Eli Green's Cake-Walk.wav
Pre-gap length 0:00:02.00
Peak level 85.1 % Extraction speed 4.1 X Track quality 100.0 % Test CRC D224EC1D Copy CRC D224EC1D Accurately ripped (confidence 1) [9A5B2CC0] Copy OK
Track 2
Filename S:\DL\Various Artists - From Ragtime To Swing CD1 (2010) [FLAC]\02 - Dinwiddie Colored Quartet - Gabriel's Trumpet.wav
Pre-gap length 0:00:04.00
Peak level 76.3 % Extraction speed 4.5 X Track quality 100.0 % Test CRC F762B6A9 Copy CRC F762B6A9 Accurately ripped (confidence 1) [53D4CF76] Copy OK
Track 3
Filename S:\DL\Various Artists - From Ragtime To Swing CD1 (2010) [FLAC]\03 - Scott Joplin - The Cascades.wav
Pre-gap length 0:00:04.00
Peak level 70.7 % Extraction speed 4.5 X Track quality 100.0 % Test CRC 2F565723 Copy CRC 2F565723 Accurately ripped (confidence 1) [946290D4] Copy OK
Track 4
Filename S:\DL\Various Artists - From Ragtime To Swing CD1 (2010) [FLAC]\04 - Victor Dance Orchestra - Cake-Walk in The Sky.wav
Pre-gap length 0:00:04.00
Peak level 89.0 % Extraction speed 4.6 X Track quality 99.9 % Test CRC 7FB3B27A Copy CRC 7FB3B27A Accurately ripped (confidence 1) [92FF0F43] Copy OK
Track 5
Filename S:\DL\Various Artists - From Ragtime To Swing CD1 (2010) [FLAC]\05 - Vess Ossman - St. Louis Tickle.wav
Pre-gap length 0:00:04.00
Peak level 69.2 % Extraction speed 4.6 X Track quality 99.9 % Test CRC 5D4CB28F Copy CRC 5D4CB28F Cannot be verified as accurate (confidence 1) [D78C3366], AccurateRip returned [81650243] Copy OK
Track 6
Filename S:\DL\Various Artists - From Ragtime To Swing CD1 (2010) [FLAC]\06 - Arthur Pryor - St. Louis Rag.wav
Pre-gap length 0:00:04.00
Peak level 89.7 % Extraction speed 4.5 X Track quality 99.9 % Test CRC 6285FD03 Copy CRC 6285FD03 Accurately ripped (confidence 1) [7C1298AC] Copy OK
Track 7
Filename S:\DL\Various Artists - From Ragtime To Swing CD1 (2010) [FLAC]\07 - Chris Chapman - Dill Pickles.wav
Pre-gap length 0:00:04.00
Peak level 81.8 % Extraction speed 4.7 X Track quality 99.9 % Test CRC C4FADDD9 Copy CRC C4FADDD9 Accurately ripped (confidence 1) [30C4AC3C] Copy OK
Track 8
Filename S:\DL\Various Artists - From Ragtime To Swing CD1 (2010) [FLAC]\08 - Vess Ossman - A Bunch Of Rags.wav
Pre-gap length 0:00:04.00
Peak level 63.9 % Extraction speed 5.8 X Track quality 100.0 % Test CRC 3C77EF0E Copy CRC 3C77EF0E Accurately ripped (confidence 1) [4BC79BB6] Copy OK
Track 9
Filename S:\DL\Various Artists - From Ragtime To Swing CD1 (2010) [FLAC]\09 - Victor Military Band - Alexander's Ragtime Band.wav
Pre-gap length 0:00:04.00
Peak level 86.3 % Extraction speed 6.1 X Track quality 100.0 % Test CRC 6EFDBE7F Copy CRC 6EFDBE7F Accurately ripped (confidence 1) [B1EFDCD0] Copy OK
Track 10
Filename S:\DL\Various Artists - From Ragtime To Swing CD1 (2010) [FLAC]\10 - Joseph Lamb - American Beauty Rag.wav
Pre-gap length 0:00:04.00
Peak level 64.7 % Extraction speed 6.2 X Track quality 100.0 % Test CRC CDE7B44A Copy CRC CDE7B44A Accurately ripped (confidence 1) [B3AF9368] Copy OK
Track 11
Filename S:\DL\Various Artists - From Ragtime To Swing CD1 (2010) [FLAC]\11 - James Europe Orchestra - Castle House Rag.wav
Pre-gap length 0:00:04.00
Peak level 88.3 % Extraction speed 6.7 X Track quality 100.0 % Test CRC 6E686BA4 Copy CRC 6E686BA4 Accurately ripped (confidence 1) [8F3589DC] Copy OK
Track 12
Filename S:\DL\Various Artists - From Ragtime To Swing CD1 (2010) [FLAC]\12 - Fred Van Eps - Notoriety Rag.wav
Pre-gap length 0:00:04.00
Peak level 66.3 % Extraction speed 6.7 X Track quality 100.0 % Test CRC 74FE3EDE Copy CRC 74FE3EDE Accurately ripped (confidence 1) [0A4FB13B] Copy OK
Track 13
Filename S:\DL\Various Artists - From Ragtime To Swing CD1 (2010) [FLAC]\13 - Scott Joplin - Mapple Leaf Rag.wav
Pre-gap length 0:00:04.00
Peak level 97.4 % Extraction speed 7.0 X Track quality 100.0 % Test CRC 63EEA171 Copy CRC 63EEA171 Accurately ripped (confidence 1) [FEAB5270] Copy OK
Track 14
Filename S:\DL\Various Artists - From Ragtime To Swing CD1 (2010) [FLAC]\14 - Original Diexiland Jass Band - Livery Stable Blues.wav
Pre-gap length 0:00:04.00
Peak level 87.4 % Extraction speed 7.1 X Track quality 100.0 % Test CRC 09E45C60 Copy CRC 09E45C60 Accurately ripped (confidence 1) [EE02CD38] Copy OK
Track 15
Filename S:\DL\Various Artists - From Ragtime To Swing CD1 (2010) [FLAC]\15 - Eubie Blake - Charleston Rag.wav
Pre-gap length 0:00:04.00
Peak level 94.9 % Extraction speed 6.3 X Track quality 99.9 % Test CRC 2DB626D5 Copy CRC 2DB626D5 Accurately ripped (confidence 1) [139BEAED] Copy OK
Track 16
Filename S:\DL\Various Artists - From Ragtime To Swing CD1 (2010) [FLAC]\16 - W.C. Handy Orchestra - Ole Miss Rag.wav
Pre-gap length 0:00:04.00
Peak level 85.5 % Extraction speed 7.4 X Track quality 100.0 % Test CRC 392E246F Copy CRC 392E246F Accurately ripped (confidence 1) [6393FE73] Copy OK
Track 17
Filename S:\DL\Various Artists - From Ragtime To Swing CD1 (2010) [FLAC]\17 - Original Diexiland Jass Band - Tiger Rag.wav
Pre-gap length 0:00:04.00
Peak level 75.3 % Extraction speed 7.7 X Track quality 100.0 % Test CRC 9AF08F2E Copy CRC 9AF08F2E Accurately ripped (confidence 1) [8BC6FEA8] Copy OK
Track 18
Filename S:\DL\Various Artists - From Ragtime To Swing CD1 (2010) [FLAC]\18 - Wilbur Sweatman - The Darktown Strutter's Ball.wav
Pre-gap length 0:00:04.00
Peak level 87.1 % Extraction speed 7.7 X Track quality 100.0 % Test CRC 9213C36E Copy CRC 9213C36E Accurately ripped (confidence 1) [046AEA93] Copy OK
Track 19
Filename S:\DL\Various Artists - From Ragtime To Swing CD1 (2010) [FLAC]\19 - Earl Fuller - Jazz De Luxe.wav
Pre-gap length 0:00:04.00
Peak level 85.6 % Extraction speed 8.4 X Track quality 100.0 % Test CRC 1B73992F Copy CRC 1B73992F Accurately ripped (confidence 1) [130730D5] Copy OK
Track 20
Filename S:\DL\Various Artists - From Ragtime To Swing CD1 (2010) [FLAC]\20 - The 369th Infantry 'Hell Fighters' - St. Louis Blues.wav
Pre-gap length 0:00:04.00
Peak level 88.1 % Extraction speed 8.2 X Track quality 100.0 % Test CRC DCEE16A0 Copy CRC DCEE16A0 Accurately ripped (confidence 1) [81CAEABB] Copy OK
Track 21
Filename S:\DL\Various Artists - From Ragtime To Swing CD1 (2010) [FLAC]\21 - Louisiana Five - Slow and Easy.wav
Pre-gap length 0:00:04.00
Peak level 86.6 % Extraction speed 8.5 X Track quality 100.0 % Test CRC 60A30043 Copy CRC 60A30043 Accurately ripped (confidence 1) [1587C55B] Copy OK
Track 22
Filename S:\DL\Various Artists - From Ragtime To Swing CD1 (2010) [FLAC]\22 - Paul Whiteman - Wang Wang Blues.wav
Pre-gap length 0:00:04.00
Peak level 87.6 % Extraction speed 7.4 X Track quality 99.9 % Test CRC E9613C9C Copy CRC E9613C9C Accurately ripped (confidence 1) [1C0E3D85] Copy OK
Track 23
Filename S:\DL\Various Artists - From Ragtime To Swing CD1 (2010) [FLAC]\23 - Mamie Smith - Crazy Blues.wav
Pre-gap length 0:00:04.00
Peak level 73.7 % Extraction speed 8.9 X Track quality 100.0 % Test CRC 41609C17 Copy CRC 41609C17 Accurately ripped (confidence 1) [DFB56F1D] Copy OK
Track 24
Filename S:\DL\Various Artists - From Ragtime To Swing CD1 (2010) [FLAC]\24 - Billy Arnold - Left Alone Blues.wav
Pre-gap length 0:00:04.00
Peak level 89.5 % Extraction speed 8.9 X Track quality 100.0 % Test CRC 89E192C0 Copy CRC 89E192C0 Accurately ripped (confidence 1) [BA7C9C78] Copy OK
Track 25
Filename S:\DL\Various Artists - From Ragtime To Swing CD1 (2010) [FLAC]\25 - James P. Johnson - Harlem Strut.wav
Pre-gap length 0:00:04.00
Peak level 81.5 % Extraction speed 2.3 X Track quality 99.3 % Test CRC DB919BD3 Copy CRC DB919BD3 Accurately ripped (confidence 1) [2D458E77] Copy OK
Track 26
Filename S:\DL\Various Artists - From Ragtime To Swing CD1 (2010) [FLAC]\26 - James P. Johnson - Carolina Shout.wav
Pre-gap length 0:00:04.00
Peak level 68.7 % Extraction speed 4.8 X Track quality 99.9 % Test CRC CA4E77F6 Copy CRC CA4E77F6 Accurately ripped (confidence 1) [F94E5BA8] Copy OK
25 track(s) accurately ripped 1 track(s) could not be verified as accurate
Some tracks could not be verified as accurate
No errors occurred
End of status report
==== Log checksum D94DB7BF580DA046D13F7F987351003B923F73A8B9D7F186100EDE1BDC27D26B ====

.cue

REM GENRE JazzREM DATE 2010REM DISCID 7912011AREM COMMENT "ExactAudioCopy v1.0b1"REM DISCNUMBER 01REM TOTALDISCS 25PERFORMER VariousTITLE "La Grande Histoire Du Jazz From Ragtime To Swing 1898-1952"FILE "01 - Joseph Cullen & Williams Collins - Eli Green's Cake-Walk.wav" WAVE TRACK 01 AUDIO TITLE "Eli Green's Cake-Walk" PERFORMER "Joseph Cullen & Williams Collins" INDEX 01 00:00:00 TRACK 02 AUDIO TITLE "Gabriel's Trumpet" PERFORMER "Dinwiddie Colored Quartet" INDEX 00 02:08:26FILE "02 - Dinwiddie Colored Quartet - Gabriel's Trumpet.wav" WAVE INDEX 01 00:00:00 TRACK 03 AUDIO TITLE "The Cascades" PERFORMER "Scott Joplin" INDEX 00 02:33:16FILE "03 - Scott Joplin - The Cascades.wav" WAVE INDEX 01 00:00:00 TRACK 04 AUDIO TITLE "Cake-Walk in The Sky" PERFORMER "Victor Dance Orchestra" INDEX 00 02:05:55FILE "04 - Victor Dance Orchestra - Cake-Walk in The Sky.wav" WAVE INDEX 01 00:00:00 TRACK 05 AUDIO TITLE "St. Louis Tickle" PERFORMER "Vess Ossman" INDEX 00 03:36:11FILE "05 - Vess Ossman - St. Louis Tickle.wav" WAVE INDEX 01 00:00:00 TRACK 06 AUDIO TITLE "St. Louis Rag" PERFORMER "Arthur Pryor" INDEX 00 02:55:73FILE "06 - Arthur Pryor - St. Louis Rag.wav" WAVE INDEX 01 00:00:00 TRACK 07 AUDIO TITLE "Dill Pickles" PERFORMER "Chris Chapman" INDEX 00 02:25:05FILE "07 - Chris Chapman - Dill Pickles.wav" WAVE INDEX 01 00:00:00 TRACK 08 AUDIO TITLE "A Bunch Of Rags" PERFORMER "Vess Ossman" INDEX 00 02:33:29FILE "08 - Vess Ossman - A Bunch Of Rags.wav" WAVE INDEX 01 00:00:00 TRACK 09 AUDIO TITLE "Alexander's Ragtime Band" PERFORMER "Victor Military Band" INDEX 00 02:15:51FILE "09 - Victor Military Band - Alexander's Ragtime Band.wav" WAVE INDEX 01 00:00:00 TRACK 10 AUDIO TITLE "American Beauty Rag" PERFORMER "Joseph Lamb" INDEX 00 02:36:33FILE "10 - Joseph Lamb - American Beauty Rag.wav" WAVE INDEX 01 00:00:00 TRACK 11 AUDIO TITLE "Castle House Rag" PERFORMER "James Europe Orchestra" INDEX 00 02:41:15FILE "11 - James Europe Orchestra - Castle House Rag.wav" WAVE INDEX 01 00:00:00 TRACK 12 AUDIO TITLE "Notoriety Rag" PERFORMER "Fred Van Eps" INDEX 00 03:12:61FILE "12 - Fred Van Eps - Notoriety Rag.wav" WAVE INDEX 01 00:00:00 TRACK 13 AUDIO TITLE "Mapple Leaf Rag" PERFORMER "Scott Joplin" INDEX 00 02:51:09FILE "13 - Scott Joplin - Mapple Leaf Rag.wav" WAVE INDEX 01 00:00:00 TRACK 14 AUDIO TITLE "Livery Stable Blues" PERFORMER "Original Diexiland Jass Band" INDEX 00 03:07:29FILE "14 - Original Diexiland Jass Band - Livery Stable Blues.wav" WAVE INDEX 01 00:00:00 TRACK 15 AUDIO TITLE "Charleston Rag" PERFORMER "Eubie Blake" INDEX 00 03:05:47FILE "15 - Eubie Blake - Charleston Rag.wav" WAVE INDEX 01 00:00:00 TRACK 16 AUDIO TITLE "Ole Miss Rag" PERFORMER "W.C. Handy Orchestra" INDEX 00 03:02:48FILE "16 - W.C. Handy Orchestra - Ole Miss Rag.wav" WAVE INDEX 01 00:00:00 TRACK 17 AUDIO TITLE "Tiger Rag" PERFORMER "Original Diexiland Jass Band" INDEX 00 02:43:64FILE "17 - Original Diexiland Jass Band - Tiger Rag.wav" WAVE INDEX 01 00:00:00 TRACK 18 AUDIO TITLE "The Darktown Strutter's Ball" PERFORMER "Wilbur Sweatman" INDEX 00 03:05:00FILE "18 - Wilbur Sweatman - The Darktown Strutter's Ball.wav" WAVE INDEX 01 00:00:00 TRACK 19 AUDIO TITLE "Jazz De Luxe" PERFORMER "Earl Fuller" INDEX 00 02:41:25FILE "19 - Earl Fuller - Jazz De Luxe.wav" WAVE INDEX 01 00:00:00 TRACK 20 AUDIO TITLE "St. Louis Blues" PERFORMER "The 369th Infantry 'Hell Fighters'" INDEX 00 04:08:34FILE "20 - The 369th Infantry 'Hell Fighters' - St. Louis Blues.wav" WAVE INDEX 01 00:00:00 TRACK 21 AUDIO TITLE "Slow and Easy" PERFORMER "Louisiana Five" INDEX 00 03:02:09FILE "21 - Louisiana Five - Slow and Easy.wav" WAVE INDEX 01 00:00:00 TRACK 22 AUDIO TITLE "Wang Wang Blues" PERFORMER "Paul Whiteman" INDEX 00 03:14:61FILE "22 - Paul Whiteman - Wang Wang Blues.wav" WAVE INDEX 01 00:00:00 TRACK 23 AUDIO TITLE "Crazy Blues" PERFORMER "Mamie Smith" INDEX 00 03:16:68FILE "23 - Mamie Smith - Crazy Blues.wav" WAVE INDEX 01 00:00:00 TRACK 24 AUDIO TITLE "Left Alone Blues" PERFORMER "Billy Arnold" INDEX 00 03:24:19FILE "24 - Billy Arnold - Left Alone Blues.wav" WAVE INDEX 01 00:00:00 TRACK 25 AUDIO TITLE "Harlem Strut" PERFORMER "James P. Johnson" INDEX 00 03:03:63FILE "25 - James P. Johnson - Harlem Strut.wav" WAVE INDEX 01 00:00:00 TRACK 26 AUDIO TITLE "Carolina Shout" PERFORMER "James P. Johnson" INDEX 00 02:33:59FILE "26 - James P. Johnson - Carolina Shout.wav" WAVE INDEX 01 00:00:00

CD 02


Продолжительность: 1:17:57
Трэклист:
01 - California Ramblers - The Sheik Of Araby (2:57)
02 - Mitchell's Jazz Kings - Hep! (2:15)
03 - Original Jazz Hounds - Moanful Blues (3:05)
04 - The Virginians - Memphis Blues (2:59)
05 - Jazzbo's Carolina Serenaders - Yankey Doodle Blues (3:04)
06 - New Orleans Rhythm Kings - Panama (2:35)
07 - Isham Jones - Frankie And Johnny (3:13)
08 - Ted Lewis - Tiger Rag (3:12)
09 - Bessie Smith - Down Hearted Blues (3:28)
10 - New Orleans Rhythm Kings - Tin Roof Blues (3:03)
11 - King Oliver - Canal Street Blues (2:29)
12 - King Oliver - Dipper Mouth Blues (2:31)
13 - Jerry Roll Morton - New Orleans Joys (2:46)
14 - Jerry Roll Morton - The Pearls (3:16)
15 - Clarence William - Wild Cat Blues (3:02)
16 - James P. Johnson - Toddlin' (2:46)
17 - Fats Waller - Mama's Got The Blues (2:54)
18 - Fred Van Eps - Ragtime Oriole (3:23)
19 - Bessie Smith - Any Woman's Blues (3:28)
20 - Piron's New Orleans Orchestra - Mama's Gone Goodbye (3:03)
21 - Cook's Dreamland Orchestra - The Memphis Man (2:44)
22 - Johnnie De Droit - The Swing (3:09)
23 - Fletcher Henderson - Copenhagen (2:58)
24 - The Washingtonians - Rainy Nights (3:27)
25 - Eva Taylor - Cake-Walking Babies From Home (3:03)
26 - Bessie Smith & Louis Armstrong - St. Louis Blues (3:09)

log

Exact Audio Copy V1.0 beta 1 from 15. November 2010
EAC extraction logfile from 21. February 2011, 16:32
Various / From Ragtime To Swing CD 2
Used drive : PLEXTOR DVDR PX-860A Adapter: 0 ID: 0
Read mode : SecureUtilize accurate stream : YesDefeat audio cache : YesMake use of C2 pointers : No
Read offset correction : 96Overread into Lead-In and Lead-Out : NoFill up missing offset samples with silence : YesDelete leading and trailing silent blocks : NoNull samples used in CRC calculations : YesUsed interface : Native Win32 interface for Win NT & 2000Gap handling : Appended to previous track
Used output format : User Defined EncoderSelected bitrate : 1024 kBit/sQuality : HighAdd ID3 tag : NoCommand line compressor : C:\Program Files\Exact Audio Copy\flac.exeAdditional command line options : -8 -V -T "ARTIST=%a" -T "TITLE=%t" -T "ALBUM=%g" -T "DATE=%y" -T "TRACKNUMBER=%n" -T "TOTALTRACKS=%x" -T "GENRE=%m" -T "ALBUM ARTIST=%v" -T "ALBUMARTIST=%v" -T "COMMENT=EAC V1.0 beta 1, Secure Mode, Test & Copy, AccurateRip
TOC of the extracted CD
Track | Start | Length | Start sector | End sector --------------------------------------------------------- 1 | 0:00.00 | 2:56.40 | 0 | 13239 2 | 2:56.40 | 2:15.17 | 13240 | 23381 3 | 5:11.57 | 3:05.09 | 23382 | 37265 4 | 8:16.66 | 2:58.48 | 37266 | 50663 5 | 11:15.39 | 3:03.74 | 50664 | 64462 6 | 14:19.38 | 2:35.33 | 64463 | 76120 7 | 16:54.71 | 3:12.41 | 76121 | 90561 8 | 20:07.37 | 3:12.00 | 90562 | 104961 9 | 23:19.37 | 3:27.58 | 104962 | 120544 10 | 26:47.20 | 3:02.41 | 120545 | 134235 11 | 29:49.61 | 2:28.64 | 134236 | 145399 12 | 32:18.50 | 2:31.35 | 145400 | 156759 13 | 34:50.10 | 2:45.68 | 156760 | 169202 14 | 37:36.03 | 3:15.66 | 169203 | 183893 15 | 40:51.69 | 3:01.67 | 183894 | 197535 16 | 43:53.61 | 2:45.40 | 197536 | 209950 17 | 46:39.26 | 2:54.22 | 209951 | 223022 18 | 49:33.48 | 3:23.04 | 223023 | 238251 19 | 52:56.52 | 3:28.06 | 238252 | 253857 20 | 56:24.58 | 3:03.24 | 253858 | 267606 21 | 59:28.07 | 2:43.40 | 267607 | 279871 22 | 62:11.47 | 3:09.21 | 279872 | 294067 23 | 65:20.68 | 2:57.60 | 294068 | 307402 24 | 68:18.53 | 3:27.12 | 307403 | 322939 25 | 71:45.65 | 3:02.48 | 322940 | 336637 26 | 74:48.38 | 3:08.60 | 336638 | 350797
Track 1
Filename S:\DL\Various Artists - From Ragtime To Swing CD 2 (2010) [FLAC]\01 - California Ramblers - The Sheik Of Araby.wav
Pre-gap length 0:00:02.00
Peak level 85.1 % Extraction speed 2.6 X Track quality 100.0 % Test CRC 6B249A8D Copy CRC 6B249A8D Track not present in AccurateRip database Copy OK
Track 2
Filename S:\DL\Various Artists - From Ragtime To Swing CD 2 (2010) [FLAC]\02 - Mitchell's Jazz Kings - Hep!.wav
Pre-gap length 0:00:04.00
Peak level 83.8 % Extraction speed 2.6 X Track quality 100.0 % Test CRC 4CF53300 Copy CRC 4CF53300 Track not present in AccurateRip database Copy OK
Track 3
Filename S:\DL\Various Artists - From Ragtime To Swing CD 2 (2010) [FLAC]\03 - Original Jazz Hounds - Moanful Blues.wav
Pre-gap length 0:00:04.00
Peak level 87.6 % Extraction speed 3.0 X Track quality 100.0 % Test CRC 403590EC Copy CRC 403590EC Track not present in AccurateRip database Copy OK
Track 4
Filename S:\DL\Various Artists - From Ragtime To Swing CD 2 (2010) [FLAC]\04 - The Virginians - Memphis Blues.wav
Pre-gap length 0:00:04.00
Peak level 95.9 % Extraction speed 2.6 X Track quality 99.9 % Test CRC 68A84959 Copy CRC 68A84959 Track not present in AccurateRip database Copy OK
Track 5
Filename S:\DL\Various Artists - From Ragtime To Swing CD 2 (2010) [FLAC]\05 - Jazzbo's Carolina Serenaders - Yankey Doodle Blues.wav
Pre-gap length 0:00:04.00
Peak level 87.0 % Extraction speed 3.3 X Track quality 100.0 % Test CRC BE14DF83 Copy CRC BE14DF83 Track not present in AccurateRip database Copy OK
Track 6
Filename S:\DL\Various Artists - From Ragtime To Swing CD 2 (2010) [FLAC]\06 - New Orleans Rhythm Kings - Panama.wav
Pre-gap length 0:00:04.00
Peak level 88.8 % Extraction speed 3.3 X Track quality 100.0 % Test CRC 6D494BBC Copy CRC 6D494BBC Track not present in AccurateRip database Copy OK
Track 7
Filename S:\DL\Various Artists - From Ragtime To Swing CD 2 (2010) [FLAC]\07 - Isham Jones - Frankie And Johnny.wav
Pre-gap length 0:00:04.00
Peak level 85.4 % Extraction speed 3.6 X Track quality 100.0 % Test CRC B1413C83 Copy CRC B1413C83 Track not present in AccurateRip database Copy OK
Track 8
Filename S:\DL\Various Artists - From Ragtime To Swing CD 2 (2010) [FLAC]\08 - Ted Lewis - Tiger Rag.wav
Pre-gap length 0:00:04.00
Peak level 88.7 % Extraction speed 3.7 X Track quality 100.0 % Test CRC 48708CAF Copy CRC 48708CAF Track not present in AccurateRip database Copy OK
Track 9
Filename S:\DL\Various Artists - From Ragtime To Swing CD 2 (2010) [FLAC]\09 - Bessie Smith - Down Hearted Blues.wav
Pre-gap length 0:00:03.74
Peak level 77.2 % Extraction speed 3.9 X Track quality 100.0 % Test CRC 708B7735 Copy CRC 708B7735 Track not present in AccurateRip database Copy OK
Track 10
Filename S:\DL\Various Artists - From Ragtime To Swing CD 2 (2010) [FLAC]\10 - New Orleans Rhythm Kings - Tin Roof Blues.wav
Pre-gap length 0:00:04.00
Peak level 89.4 % Extraction speed 4.0 X Track quality 100.0 % Test CRC 9E74E695 Copy CRC 9E74E695 Track not present in AccurateRip database Copy OK
Track 11
Filename S:\DL\Various Artists - From Ragtime To Swing CD 2 (2010) [FLAC]\11 - King Oliver - Canal Street Blues.wav
Pre-gap length 0:00:04.00
Peak level 89.0 % Extraction speed 3.9 X Track quality 100.0 % Test CRC 09297C2B Copy CRC 09297C2B Track not present in AccurateRip database Copy OK
Track 12
Filename S:\DL\Various Artists - From Ragtime To Swing CD 2 (2010) [FLAC]\12 - King Oliver - Dipper Mouth Blues.wav
Pre-gap length 0:00:04.00
Peak level 88.0 % Extraction speed 4.0 X Track quality 100.0 % Test CRC F6950D0E Copy CRC F6950D0E Track not present in AccurateRip database Copy OK
Track 13
Filename S:\DL\Various Artists - From Ragtime To Swing CD 2 (2010) [FLAC]\13 - Jerry Roll Morton - New Orleans Joys.wav
Pre-gap length 0:00:04.00
Peak level 86.4 % Extraction speed 4.2 X Track quality 100.0 % Test CRC 4E6BD4CA Copy CRC 4E6BD4CA Track not present in AccurateRip database Copy OK
Track 14
Filename S:\DL\Various Artists - From Ragtime To Swing CD 2 (2010) [FLAC]\14 - Jerry Roll Morton - The Pearls.wav
Pre-gap length 0:00:04.00
Peak level 78.0 % Extraction speed 3.8 X Track quality 99.9 % Test CRC E22D0F9D Copy CRC E22D0F9D Track not present in AccurateRip database Copy OK
Track 15
Filename S:\DL\Various Artists - From Ragtime To Swing CD 2 (2010) [FLAC]\15 - Clarence William - Wild Cat Blues.wav
Pre-gap length 0:00:04.00
Peak level 86.6 % Extraction speed 4.5 X Track quality 100.0 % Test CRC EFF7370B Copy CRC EFF7370B Track not present in AccurateRip database Copy OK
Track 16
Filename S:\DL\Various Artists - From Ragtime To Swing CD 2 (2010) [FLAC]\16 - James P. Johnson - Toddlin'.wav
Pre-gap length 0:00:04.00
Peak level 88.1 % Extraction speed 4.5 X Track quality 100.0 % Test CRC C27C4CDE Copy CRC C27C4CDE Track not present in AccurateRip database Copy OK
Track 17
Filename S:\DL\Various Artists - From Ragtime To Swing CD 2 (2010) [FLAC]\17 - Fats Waller - Mama's Got The Blues.wav
Pre-gap length 0:00:04.00
Peak level 78.8 % Extraction speed 4.7 X Track quality 100.0 % Test CRC C7AAA768 Copy CRC C7AAA768 Track not present in AccurateRip database Copy OK
Track 18
Filename S:\DL\Various Artists - From Ragtime To Swing CD 2 (2010) [FLAC]\18 - Fred Van Eps - Ragtime Oriole.wav
Pre-gap length 0:00:04.00
Peak level 83.5 % Extraction speed 4.9 X Track quality 100.0 % Test CRC 4B07F939 Copy CRC 4B07F939 Track not present in AccurateRip database Copy OK
Track 19
Filename S:\DL\Various Artists - From Ragtime To Swing CD 2 (2010) [FLAC]\19 - Bessie Smith - Any Woman's Blues.wav
Pre-gap length 0:00:04.00
Peak level 82.6 % Extraction speed 5.0 X Track quality 100.0 % Test CRC 4FBA722D Copy CRC 4FBA722D Track not present in AccurateRip database Copy OK
Track 20
Filename S:\DL\Various Artists - From Ragtime To Swing CD 2 (2010) [FLAC]\20 - Piron's New Orleans Orchestra - Mama's Gone Goodbye.wav
Pre-gap length 0:00:04.00
Peak level 89.6 % Extraction speed 4.9 X Track quality 100.0 % Test CRC F226CB82 Copy CRC F226CB82 Track not present in AccurateRip database Copy OK
Track 21
Filename S:\DL\Various Artists - From Ragtime To Swing CD 2 (2010) [FLAC]\21 - Cook's Dreamland Orchestra - The Memphis Man.wav
Pre-gap length 0:00:04.00
Peak level 95.4 % Extraction speed 5.0 X Track quality 100.0 % Test CRC 501A230E Copy CRC 501A230E Track not present in AccurateRip database Copy OK
Track 22
Filename S:\DL\Various Artists - From Ragtime To Swing CD 2 (2010) [FLAC]\22 - Johnnie De Droit - The Swing.wav
Pre-gap length 0:00:04.00
Peak level 89.8 % Extraction speed 4.5 X Track quality 99.9 % Test CRC 46060290 Copy CRC 46060290 Track not present in AccurateRip database Copy OK
Track 23
Filename S:\DL\Various Artists - From Ragtime To Swing CD 2 (2010) [FLAC]\23 - Fletcher Henderson - Copenhagen.wav
Pre-gap length 0:00:04.00
Peak level 85.6 % Extraction speed 5.2 X Track quality 100.0 % Test CRC 0733EC6C Copy CRC 0733EC6C Track not present in AccurateRip database Copy OK
Track 24
Filename S:\DL\Various Artists - From Ragtime To Swing CD 2 (2010) [FLAC]\24 - The Washingtonians - Rainy Nights.wav
Pre-gap length 0:00:04.00
Peak level 100.0 % Extraction speed 5.5 X Track quality 100.0 % Test CRC 09BD57F4 Copy CRC 09BD57F4 Track not present in AccurateRip database Copy OK
Track 25
Filename S:\DL\Various Artists - From Ragtime To Swing CD 2 (2010) [FLAC]\25 - Eva Taylor - Cake-Walking Babies From Home.wav
Pre-gap length 0:00:04.00
Peak level 83.4 % Extraction speed 4.6 X Track quality 99.9 % Test CRC A43BE281 Copy CRC A43BE281 Track not present in AccurateRip database Copy OK
Track 26
Filename S:\DL\Various Artists - From Ragtime To Swing CD 2 (2010) [FLAC]\26 - Bessie Smith & Louis Armstrong - St. Louis Blues.wav
Pre-gap length 0:00:04.00
Peak level 85.2 % Extraction speed 5.6 X Track quality 100.0 % Test CRC 324D8195 Copy CRC 324D8195 Track not present in AccurateRip database Copy OK
None of the tracks are present in the AccurateRip database
No errors occurred
End of status report
==== Log checksum F51800EE81887DF2308EA84284CFF8EBE11D649E4334453469A9F97152604851 ====

.cue

REM GENRE JazzREM DATE 2010REM DISCID 7412451AREM COMMENT "ExactAudioCopy v1.0b1"REM DISCNUMBER 02REM TOTALDISCS 25PERFORMER "Various"TITLE "La Grande Histoire Du Jazz From Ragtime To Swing 1898-1952"FILE "01 - California Ramblers - The Sheik Of Araby.flac" WAVE TRACK 01 AUDIO TITLE "The Sheik Of Araby" PERFORMER "California Ramblers" INDEX 01 00:00:00 TRACK 02 AUDIO TITLE "Hep!" PERFORMER "Mitchell's Jazz Kings" INDEX 00 02:52:40FILE "02 - Mitchell's Jazz Kings - Hep!.flac" WAVE INDEX 01 00:00:00 TRACK 03 AUDIO TITLE "Moanful Blues" PERFORMER "Original Jazz Hounds" INDEX 00 02:11:17FILE "03 - Original Jazz Hounds - Moanful Blues.flac" WAVE INDEX 01 00:00:00 TRACK 04 AUDIO TITLE "Memphis Blues" PERFORMER "The Virginians" INDEX 00 03:01:09FILE "04 - The Virginians - Memphis Blues.flac" WAVE INDEX 01 00:00:00 TRACK 05 AUDIO TITLE "Yankey Doodle Blues" PERFORMER "Jazzbo's Carolina Serenaders" INDEX 00 02:54:48FILE "05 - Jazzbo's Carolina Serenaders - Yankey Doodle Blues.flac" WAVE INDEX 01 00:00:00 TRACK 06 AUDIO TITLE "Panama" PERFORMER "New Orleans Rhythm Kings" INDEX 00 02:59:74FILE "06 - New Orleans Rhythm Kings - Panama.flac" WAVE INDEX 01 00:00:00 TRACK 07 AUDIO TITLE "Frankie And Johnny" PERFORMER "Isham Jones" INDEX 00 02:31:33FILE "07 - Isham Jones - Frankie And Johnny.flac" WAVE INDEX 01 00:00:00 TRACK 08 AUDIO TITLE "Tiger Rag" PERFORMER "Ted Lewis" INDEX 00 03:08:41FILE "08 - Ted Lewis - Tiger Rag.flac" WAVE INDEX 01 00:00:00 TRACK 09 AUDIO TITLE "Down Hearted Blues" PERFORMER "Bessie Smith" INDEX 00 03:08:01FILE "09 - Bessie Smith - Down Hearted Blues.flac" WAVE INDEX 01 00:00:00 TRACK 10 AUDIO TITLE "Tin Roof Blues" PERFORMER "New Orleans Rhythm Kings" INDEX 00 03:23:58FILE "10 - New Orleans Rhythm Kings - Tin Roof Blues.flac" WAVE INDEX 01 00:00:00 TRACK 11 AUDIO TITLE "Canal Street Blues" PERFORMER "King Oliver" INDEX 00 02:58:41FILE "11 - King Oliver - Canal Street Blues.flac" WAVE INDEX 01 00:00:00 TRACK 12 AUDIO TITLE "Dipper Mouth Blues" PERFORMER "King Oliver" INDEX 00 02:24:64FILE "12 - King Oliver - Dipper Mouth Blues.flac" WAVE INDEX 01 00:00:00 TRACK 13 AUDIO TITLE "New Orleans Joys" PERFORMER "Jerry Roll Morton" INDEX 00 02:27:35FILE "13 - Jerry Roll Morton - New Orleans Joys.flac" WAVE INDEX 01 00:00:00 TRACK 14 AUDIO TITLE "The Pearls" PERFORMER "Jerry Roll Morton" INDEX 00 02:41:68FILE "14 - Jerry Roll Morton - The Pearls.flac" WAVE INDEX 01 00:00:00 TRACK 15 AUDIO TITLE "Wild Cat Blues" PERFORMER "Clarence William" INDEX 00 03:11:66FILE "15 - Clarence William - Wild Cat Blues.flac" WAVE INDEX 01 00:00:00 TRACK 16 AUDIO TITLE "Toddlin'" PERFORMER "James P. Johnson" INDEX 00 02:57:67FILE "16 - James P. Johnson - Toddlin'.flac" WAVE INDEX 01 00:00:00 TRACK 17 AUDIO TITLE "Mama's Got The Blues" PERFORMER "Fats Waller" INDEX 00 02:41:40FILE "17 - Fats Waller - Mama's Got The Blues.flac" WAVE INDEX 01 00:00:00 TRACK 18 AUDIO TITLE "Ragtime Oriole" PERFORMER "Fred Van Eps" INDEX 00 02:50:22FILE "18 - Fred Van Eps - Ragtime Oriole.flac" WAVE INDEX 01 00:00:00 TRACK 19 AUDIO TITLE "Any Woman's Blues" PERFORMER "Bessie Smith" INDEX 00 03:19:04FILE "19 - Bessie Smith - Any Woman's Blues.flac" WAVE INDEX 01 00:00:00 TRACK 20 AUDIO TITLE "Mama's Gone Goodbye" PERFORMER "Piron's New Orleans Orchestra" INDEX 00 03:24:06FILE "20 - Piron's New Orleans Orchestra - Mama's Gone Goodbye.flac" WAVE INDEX 01 00:00:00 TRACK 21 AUDIO TITLE "The Memphis Man" PERFORMER "Cook's Dreamland Orchestra" INDEX 00 02:59:24FILE "21 - Cook's Dreamland Orchestra - The Memphis Man.flac" WAVE INDEX 01 00:00:00 TRACK 22 AUDIO TITLE "The Swing" PERFORMER "Johnnie De Droit" INDEX 00 02:39:40FILE "22 - Johnnie De Droit - The Swing.flac" WAVE INDEX 01 00:00:00 TRACK 23 AUDIO TITLE "Copenhagen" PERFORMER "Fletcher Henderson" INDEX 00 03:05:21FILE "23 - Fletcher Henderson - Copenhagen.flac" WAVE INDEX 01 00:00:00 TRACK 24 AUDIO TITLE "Rainy Nights" PERFORMER "The Washingtonians" INDEX 00 02:53:60FILE "24 - The Washingtonians - Rainy Nights.flac" WAVE INDEX 01 00:00:00 TRACK 25 AUDIO TITLE "Cake-Walking Babies From Home" PERFORMER "Eva Taylor" INDEX 00 03:23:12FILE "25 - Eva Taylor - Cake-Walking Babies From Home.flac" WAVE INDEX 01 00:00:00 TRACK 26 AUDIO TITLE "St. Louis Blues" PERFORMER "Bessie Smith & Louis Armstrong" INDEX 00 02:58:48FILE "26 - Bessie Smith & Louis Armstrong - St. Louis Blues.flac" WAVE INDEX 01 00:00:00

CD 03


Продолжительность: 1:17:57
Трэклист:
01 - Bessie Smith - Sobbin' Hearted Blues (3:03)
02 - Bix Beidebecke - Davenport Blues (2:43)
03 - Fletcher Henderson - Sugar Foot Stomp (2:49)
04 - The Stomp Six - Why Couldn't It Be Poor Little Me (2:38)
05 - Charleston Chasers - Red Hot Henry Brown (3:04)
06 - California Ramblers - Sweet Man (3:35)
07 - Frank Banta - I Wonder Where My Baby Is Tonight (2:38)
08 - Louis Armstrong - My Heart (2:25)
09 - Ma Rainey - Titanic Man Blues (2:44)
10 - Ethel Waters - Shake That Thing (3:12)
11 - Louis Armstrong - Heebie Jeebies (3:09)
12 - Louis Armstrong - Cornet Chop Suey (2:57)
13 - Louis Armstrong - Muskrat Ramble (2:32)
14 - Luis Russell - 29th And Dearborn (2:50)
15 - Lovie Austin - Jackass Blues (3:05)
16 - Louis Armstrong - Sweet Little Papa (2:45)
17 - New Orleans Wanderers - Perdido Street Blues (3:10)
18 - Cliff Jackson - Hock Shop Blues (4:24)
19 - Jerry Roll Morton - The Chant (3:20)
20 - Jerry Roll Morton - Black Bottom Stomp (3:09)
21 - King Oliver - Dead Man Blues (2:44)
22 - Fletcher Henderson - The Henderson Stomp (2:53)
23 - Diexieland Jug Blowers - Banjoreno (3:09)
24 - Bennie Moten - Kansas City Shuffle (2:51)
25 - Reverent Gates - I'm Going To Heaven If It Takes My Life (2:47)
26 - Jerry Roll Morton - Dr. Jazz (3:21)

log

Exact Audio Copy V1.0 beta 1 from 15. November 2010
EAC extraction logfile from 21. February 2011, 10:19
Various / From Ragtime To Swing CD3
Used drive : PLEXTOR DVDR PX-860A Adapter: 0 ID: 0
Read mode : SecureUtilize accurate stream : YesDefeat audio cache : YesMake use of C2 pointers : No
Read offset correction : 96Overread into Lead-In and Lead-Out : NoFill up missing offset samples with silence : YesDelete leading and trailing silent blocks : NoNull samples used in CRC calculations : YesUsed interface : Native Win32 interface for Win NT & 2000Gap handling : Appended to previous track
Used output format : User Defined EncoderSelected bitrate : 1024 kBit/sQuality : HighAdd ID3 tag : NoCommand line compressor : C:\Program Files\Exact Audio Copy\flac.exeAdditional command line options : -8 -V -T "ARTIST=%a" -T "TITLE=%t" -T "ALBUM=%g" -T "DATE=%y" -T "TRACKNUMBER=%n" -T "TOTALTRACKS=%x" -T "GENRE=%m" -T "ALBUM ARTIST=%v" -T "ALBUMARTIST=%v" -T "COMMENT=EAC V1.0 beta 1, Secure Mode, Test & Copy, AccurateRip
TOC of the extracted CD
Track | Start | Length | Start sector | End sector --------------------------------------------------------- 1 | 0:00.00 | 3:02.47 | 0 | 13696 2 | 3:02.47 | 2:42.49 | 13697 | 25895 3 | 5:45.21 | 2:48.43 | 25896 | 38538 4 | 8:33.64 | 2:38.12 | 38539 | 50400 5 | 11:12.01 | 3:04.06 | 50401 | 64206 6 | 14:16.07 | 3:35.27 | 64207 | 80358 7 | 17:51.34 | 2:38.04 | 80359 | 92212 8 | 20:29.38 | 2:25.08 | 92213 | 103095 9 | 22:54.46 | 2:44.34 | 103096 | 115429 10 | 25:39.05 | 3:11.61 | 115430 | 129815 11 | 28:50.66 | 3:09.26 | 129816 | 144016 12 | 32:00.17 | 2:56.66 | 144017 | 157282 13 | 34:57.08 | 2:32.05 | 157283 | 168687 14 | 37:29.13 | 2:49.42 | 168688 | 181404 15 | 40:18.55 | 3:05.33 | 181405 | 195312 16 | 43:24.13 | 2:44.53 | 195313 | 207665 17 | 46:08.66 | 3:10.06 | 207666 | 221921 18 | 49:18.72 | 4:24.18 | 221922 | 241739 19 | 53:43.15 | 3:20.02 | 241740 | 256741 20 | 57:03.17 | 3:08.50 | 256742 | 270891 21 | 60:11.67 | 2:43.44 | 270892 | 283160 22 | 62:55.36 | 2:53.27 | 283161 | 296162 23 | 65:48.63 | 3:08.44 | 296163 | 310306 24 | 68:57.32 | 2:50.72 | 310307 | 323128 25 | 71:48.29 | 2:46.55 | 323129 | 335633 26 | 74:35.09 | 3:21.33 | 335634 | 350741
Track 1
Filename S:\DL\Various Artists - From Ragtime To Swing CD3 (2010) [FLAC]\01 - Bessie Smith - Sobbin' Hearted Blues.wav
Pre-gap length 0:00:02.00
Peak level 86.0 % Extraction speed 3.8 X Track quality 99.9 % Test CRC 5132C88F Copy CRC 5132C88F Track not present in AccurateRip database Copy OK
Track 2
Filename S:\DL\Various Artists - From Ragtime To Swing CD3 (2010) [FLAC]\02 - Bix Beidebecke - Davenport Blues.wav
Pre-gap length 0:00:03.00
Peak level 84.3 % Extraction speed 4.7 X Track quality 100.0 % Test CRC 1C1AAF81 Copy CRC 1C1AAF81 Track not present in AccurateRip database Copy OK
Track 3
Filename S:\DL\Various Artists - From Ragtime To Swing CD3 (2010) [FLAC]\03 - Fletcher Henderson - Sugar Foot Stomp.wav
Pre-gap length 0:00:03.00
Peak level 61.8 % Extraction speed 5.0 X Track quality 100.0 % Test CRC 142602A5 Copy CRC 142602A5 Track not present in AccurateRip database Copy OK
Track 4
Filename S:\DL\Various Artists - From Ragtime To Swing CD3 (2010) [FLAC]\04 - The Stomp Six - Why Couldn't It Be Poor Little Me.wav
Pre-gap length 0:00:03.00
Peak level 88.5 % Extraction speed 5.2 X Track quality 100.0 % Test CRC 0F898AA7 Copy CRC 0F898AA7 Track not present in AccurateRip database Copy OK
Track 5
Filename S:\DL\Various Artists - From Ragtime To Swing CD3 (2010) [FLAC]\05 - Charleston Chasers - Red Hot Henry Brown.wav
Pre-gap length 0:00:03.00
Peak level 95.6 % Extraction speed 5.5 X Track quality 100.0 % Test CRC 24598DFD Copy CRC 24598DFD Track not present in AccurateRip database Copy OK
Track 6
Filename S:\DL\Various Artists - From Ragtime To Swing CD3 (2010) [FLAC]\06 - California Ramblers - Sweet Man.wav
Pre-gap length 0:00:03.00
Peak level 87.5 % Extraction speed 6.0 X Track quality 100.0 % Test CRC C48AFA1B Copy CRC C48AFA1B Track not present in AccurateRip database Copy OK
Track 7
Filename S:\DL\Various Artists - From Ragtime To Swing CD3 (2010) [FLAC]\07 - Frank Banta - I Wonder Where My Baby Is Tonight.wav
Pre-gap length 0:00:03.00
Peak level 78.1 % Extraction speed 4.9 X Track quality 99.9 % Test CRC 34BABD4B Copy CRC 34BABD4B Track not present in AccurateRip database Copy OK
Track 8
Filename S:\DL\Various Artists - From Ragtime To Swing CD3 (2010) [FLAC]\08 - Louis Armstrong - My Heart.wav
Pre-gap length 0:00:03.00
Peak level 93.0 % Extraction speed 5.0 X Track quality 99.9 % Test CRC 30EE09D8 Copy CRC 30EE09D8 Track not present in AccurateRip database Copy OK
Track 9
Filename S:\DL\Various Artists - From Ragtime To Swing CD3 (2010) [FLAC]\09 - Ma Rainey - Titanic Man Blues.wav
Pre-gap length 0:00:03.00
Peak level 71.3 % Extraction speed 6.3 X Track quality 100.0 % Test CRC 5B78F44F Copy CRC 5B78F44F Track not present in AccurateRip database Copy OK
Track 10
Filename S:\DL\Various Artists - From Ragtime To Swing CD3 (2010) [FLAC]\10 - Ethel Waters - Shake That Thing.wav
Pre-gap length 0:00:03.00
Peak level 84.1 % Extraction speed 6.7 X Track quality 100.0 % Test CRC 0F859CFC Copy CRC 0F859CFC Track not present in AccurateRip database Copy OK
Track 11
Filename S:\DL\Various Artists - From Ragtime To Swing CD3 (2010) [FLAC]\11 - Louis Armstrong - Heebie Jeebies.wav
Pre-gap length 0:00:03.00
Peak level 79.7 % Extraction speed 6.8 X Track quality 100.0 % Test CRC E389E16B Copy CRC E389E16B Track not present in AccurateRip database Copy OK
Track 12
Filename S:\DL\Various Artists - From Ragtime To Swing CD3 (2010) [FLAC]\12 - Louis Armstrong - Cornet Chop Suey.wav
Pre-gap length 0:00:03.00
Peak level 73.7 % Extraction speed 7.0 X Track quality 100.0 % Test CRC 4BFA22D0 Copy CRC 4BFA22D0 Track not present in AccurateRip database Copy OK
Track 13
Filename S:\DL\Various Artists - From Ragtime To Swing CD3 (2010) [FLAC]\13 - Louis Armstrong - Muskrat Ramble.wav
Pre-gap length 0:00:03.00
Peak level 81.9 % Extraction speed 5.8 X Track quality 99.9 % Test CRC 94663BCB Copy CRC 94663BCB Track not present in AccurateRip database Copy OK
Track 14
Filename S:\DL\Various Artists - From Ragtime To Swing CD3 (2010) [FLAC]\14 - Luis Russell - 29th And Dearborn.wav
Pre-gap length 0:00:03.00
Peak level 84.6 % Extraction speed 7.2 X Track quality 100.0 % Test CRC 92C6FF41 Copy CRC 92C6FF41 Track not present in AccurateRip database Copy OK
Track 15
Filename S:\DL\Various Artists - From Ragtime To Swing CD3 (2010) [FLAC]\15 - Lovie Austin - Jackass Blues.wav
Pre-gap length 0:00:03.00
Peak level 98.2 % Extraction speed 7.5 X Track quality 100.0 % Test CRC C9CA3FD9 Copy CRC C9CA3FD9 Track not present in AccurateRip database Copy OK
Track 16
Filename S:\DL\Various Artists - From Ragtime To Swing CD3 (2010) [FLAC]\16 - Louis Armstrong - Sweet Little Papa.wav
Pre-gap length 0:00:03.00
Peak level 72.4 % Extraction speed 6.3 X Track quality 99.9 % Test CRC 6AF634A9 Copy CRC 6AF634A9 Track not present in AccurateRip database Copy OK
Track 17
Filename S:\DL\Various Artists - From Ragtime To Swing CD3 (2010) [FLAC]\17 - New Orleans Wanderers - Perdido Street Blues.wav
Pre-gap length 0:00:03.00
Peak level 68.6 % Extraction speed 7.8 X Track quality 100.0 % Test CRC 8A5BB4A1 Copy CRC 8A5BB4A1 Track not present in AccurateRip database Copy OK
Track 18
Filename S:\DL\Various Artists - From Ragtime To Swing CD3 (2010) [FLAC]\18 - Cliff Jackson - Hock Shop Blues.wav
Pre-gap length 0:00:03.00
Peak level 65.2 % Extraction speed 8.6 X Track quality 100.0 % Test CRC F1751E0B Copy CRC F1751E0B Track not present in AccurateRip database Copy OK
Track 19
Filename S:\DL\Various Artists - From Ragtime To Swing CD3 (2010) [FLAC]\19 - Jerry Roll Morton - The Chant.wav
Pre-gap length 0:00:03.00
Peak level 81.6 % Extraction speed 8.3 X Track quality 100.0 % Test CRC 2E8CC49B Copy CRC 2E8CC49B Track not present in AccurateRip database Copy OK
Track 20
Filename S:\DL\Various Artists - From Ragtime To Swing CD3 (2010) [FLAC]\20 - Jerry Roll Morton - Black Bottom Stomp.wav
Pre-gap length 0:00:03.00
Peak level 64.1 % Extraction speed 4.9 X Track quality 99.7 % Test CRC 6C797025 Copy CRC 6C797025 Track not present in AccurateRip database Copy OK
Track 21
Filename S:\DL\Various Artists - From Ragtime To Swing CD3 (2010) [FLAC]\21 - King Oliver - Dead Man Blues.wav
Pre-gap length 0:00:02.74
Peak level 70.2 % Extraction speed 8.3 X Track quality 100.0 % Test CRC 1D0FD163 Copy CRC 1D0FD163 Track not present in AccurateRip database Copy OK
Track 22
Filename S:\DL\Various Artists - From Ragtime To Swing CD3 (2010) [FLAC]\22 - Fletcher Henderson - The Henderson Stomp.wav
Pre-gap length 0:00:03.00
Peak level 74.7 % Extraction speed 7.3 X Track quality 99.9 % Test CRC D74A4258 Copy CRC D74A4258 Track not present in AccurateRip database Copy OK
Track 23
Filename S:\DL\Various Artists - From Ragtime To Swing CD3 (2010) [FLAC]\23 - Diexieland Jug Blowers - Banjoreno.wav
Pre-gap length 0:00:03.00
Peak level 66.2 % Extraction speed 8.9 X Track quality 100.0 % Test CRC 0F6EF76D Copy CRC 0F6EF76D Track not present in AccurateRip database Copy OK
Track 24
Filename S:\DL\Various Artists - From Ragtime To Swing CD3 (2010) [FLAC]\24 - Bennie Moten - Kansas City Shuffle.wav
Pre-gap length 0:00:03.00
Peak level 76.3 % Extraction speed 8.7 X Track quality 100.0 % Test CRC 0E6929E2 Copy CRC 0E6929E2 Track not present in AccurateRip database Copy OK
Track 25
Filename S:\DL\Various Artists - From Ragtime To Swing CD3 (2010) [FLAC]\25 - Reverent Gates - I'm Going To Heaven If It Takes My Life.wav
Pre-gap length 0:00:03.00
Peak level 92.7 % Extraction speed 8.8 X Track quality 100.0 % Test CRC 2F8F4868 Copy CRC 2F8F4868 Track not present in AccurateRip database Copy OK
Track 26
Filename S:\DL\Various Artists - From Ragtime To Swing CD3 (2010) [FLAC]\26 - Jerry Roll Morton - Dr. Jazz.wav
Pre-gap length 0:00:03.00
Peak level 68.6 % Extraction speed 9.3 X Track quality 100.0 % Test CRC 60ACF93F Copy CRC 60ACF93F Track not present in AccurateRip database Copy OK
None of the tracks are present in the AccurateRip database
No errors occurred
End of status report
==== Log checksum CB525F0EC6C82C3FB7F843AF88357F27CC6BF72DC0EF9D5852829444FA86C420 ====

.cue

REM GENRE JazzREM DATE 2010REM DISCID 6C12441AREM COMMENT "ExactAudioCopy v1.0b1"REM DISCNUMBER 03REM TOTALDISCS 25PERFORMER VariousTITLE "La Grande Histoire Du Jazz From Ragtime To Swing 1898-1952"FILE "01 - Bessie Smith - Sobbin' Hearted Blues.wav" WAVE TRACK 01 AUDIO TITLE "Sobbin' Hearted Blues" PERFORMER "Bessie Smith" INDEX 01 00:00:00 TRACK 02 AUDIO TITLE "Davenport Blues" PERFORMER "Bix Beidebecke" INDEX 00 02:59:47FILE "02 - Bix Beidebecke - Davenport Blues.wav" WAVE INDEX 01 00:00:00 TRACK 03 AUDIO TITLE "Sugar Foot Stomp" PERFORMER "Fletcher Henderson" INDEX 00 02:39:49FILE "03 - Fletcher Henderson - Sugar Foot Stomp.wav" WAVE INDEX 01 00:00:00 TRACK 04 AUDIO TITLE "Why Couldn't It Be Poor Little Me" PERFORMER "The Stomp Six" INDEX 00 02:45:43FILE "04 - The Stomp Six - Why Couldn't It Be Poor Little Me.wav" WAVE INDEX 01 00:00:00 TRACK 05 AUDIO TITLE "Red Hot Henry Brown" PERFORMER "Charleston Chasers" INDEX 00 02:35:12FILE "05 - Charleston Chasers - Red Hot Henry Brown.wav" WAVE INDEX 01 00:00:00 TRACK 06 AUDIO TITLE "Sweet Man" PERFORMER "California Ramblers" INDEX 00 03:01:06FILE "06 - California Ramblers - Sweet Man.wav" WAVE INDEX 01 00:00:00 TRACK 07 AUDIO TITLE "I Wonder Where My Baby Is Tonight" PERFORMER "Frank Banta" INDEX 00 03:32:27FILE "07 - Frank Banta - I Wonder Where My Baby Is Tonight.wav" WAVE INDEX 01 00:00:00 TRACK 08 AUDIO TITLE "My Heart" PERFORMER "Louis Armstrong" INDEX 00 02:35:04FILE "08 - Louis Armstrong - My Heart.wav" WAVE INDEX 01 00:00:00 TRACK 09 AUDIO TITLE "Titanic Man Blues" PERFORMER "Ma Rainey" INDEX 00 02:22:08FILE "09 - Ma Rainey - Titanic Man Blues.wav" WAVE INDEX 01 00:00:00 TRACK 10 AUDIO TITLE "Shake That Thing" PERFORMER "Ethel Waters" INDEX 00 02:41:34FILE "10 - Ethel Waters - Shake That Thing.wav" WAVE INDEX 01 00:00:00 TRACK 11 AUDIO TITLE "Heebie Jeebies" PERFORMER "Louis Armstrong" INDEX 00 03:08:61FILE "11 - Louis Armstrong - Heebie Jeebies.wav" WAVE INDEX 01 00:00:00 TRACK 12 AUDIO TITLE "Cornet Chop Suey" PERFORMER "Louis Armstrong" INDEX 00 03:06:26FILE "12 - Louis Armstrong - Cornet Chop Suey.wav" WAVE INDEX 01 00:00:00 TRACK 13 AUDIO TITLE "Muskrat Ramble" PERFORMER "Louis Armstrong" INDEX 00 02:53:66FILE "13 - Louis Armstrong - Muskrat Ramble.wav" WAVE INDEX 01 00:00:00 TRACK 14 AUDIO TITLE "29th And Dearborn" PERFORMER "Luis Russell" INDEX 00 02:29:05FILE "14 - Luis Russell - 29th And Dearborn.wav" WAVE INDEX 01 00:00:00 TRACK 15 AUDIO TITLE "Jackass Blues" PERFORMER "Lovie Austin" INDEX 00 02:46:42FILE "15 - Lovie Austin - Jackass Blues.wav" WAVE INDEX 01 00:00:00 TRACK 16 AUDIO TITLE "Sweet Little Papa" PERFORMER "Louis Armstrong" INDEX 00 03:02:33FILE "16 - Louis Armstrong - Sweet Little Papa.wav" WAVE INDEX 01 00:00:00 TRACK 17 AUDIO TITLE "Perdido Street Blues" PERFORMER "New Orleans Wanderers" INDEX 00 02:41:53FILE "17 - New Orleans Wanderers - Perdido Street Blues.wav" WAVE INDEX 01 00:00:00 TRACK 18 AUDIO TITLE "Hock Shop Blues" PERFORMER "Cliff Jackson" INDEX 00 03:07:06FILE "18 - Cliff Jackson - Hock Shop Blues.wav" WAVE INDEX 01 00:00:00 TRACK 19 AUDIO TITLE "The Chant" PERFORMER "Jerry Roll Morton" INDEX 00 04:21:18FILE "19 - Jerry Roll Morton - The Chant.wav" WAVE INDEX 01 00:00:00 TRACK 20 AUDIO TITLE "Black Bottom Stomp" PERFORMER "Jerry Roll Morton" INDEX 00 03:17:02FILE "20 - Jerry Roll Morton - Black Bottom Stomp.wav" WAVE INDEX 01 00:00:00 TRACK 21 AUDIO TITLE "Dead Man Blues" PERFORMER "King Oliver" INDEX 00 03:05:51FILE "21 - King Oliver - Dead Man Blues.wav" WAVE INDEX 01 00:00:00 TRACK 22 AUDIO TITLE "The Henderson Stomp" PERFORMER "Fletcher Henderson" INDEX 00 02:40:44FILE "22 - Fletcher Henderson - The Henderson Stomp.wav" WAVE INDEX 01 00:00:00 TRACK 23 AUDIO TITLE Banjoreno PERFORMER "Diexieland Jug Blowers" INDEX 00 02:50:27FILE "23 - Diexieland Jug Blowers - Banjoreno.wav" WAVE INDEX 01 00:00:00 TRACK 24 AUDIO TITLE "Kansas City Shuffle" PERFORMER "Bennie Moten" INDEX 00 03:05:44FILE "24 - Bennie Moten - Kansas City Shuffle.wav" WAVE INDEX 01 00:00:00 TRACK 25 AUDIO TITLE "I'm Going To Heaven If It Takes My Life" PERFORMER "Reverent Gates" INDEX 00 02:47:72FILE "25 - Reverent Gates - I'm Going To Heaven If It Takes My Life.wav" WAVE INDEX 01 00:00:00 TRACK 26 AUDIO TITLE "Dr. Jazz" PERFORMER "Jerry Roll Morton" INDEX 00 02:43:55FILE "26 - Jerry Roll Morton - Dr. Jazz.wav" WAVE INDEX 01 00:00:00

CD 04


Продолжительность: 1:16:33
Трэклист:
01 - Frankie Trumbauer - Clarinet Marmalade (3:16)
02 - Red & Miff's Stompers - Davenport Blues (3:06)
03 - James P. Johnson - All That I Had Is Gone (2:47)
04 - Clarence Williams - Cushion Foot Stomp (3:23)
05 - Jimmy Bertrand - Easy Come Easy Go Blues (2:35)
06 - Fletcher Henderson - St. Louis Shuffle (2:53)
07 - Louis Armstrong - Wild Man Blues (3:12)
08 - Louis Armstrong - S.O.L. Blues (2:55)
09 - Jelly Roll Morton - Wolverine Blues (3:21)
10 - Sugar Underwood - Dew-Drop Alley (3:18)
11 - Bix Beiderbecke - In A Mist (2:47)
12 - Jean Goldkette - Clementine From New Orleans (3:05)
13 - Bix Beiderbecke - Jazz Me Blues (3:06)
14 - Bix Beiderbecke - Since My Best Gal Turned Me Down (3:07)
15 - Duke Ellington - Black And Tan Fantasy (3:10)
16 - Duke Ellington - Creole Love Call (3:14)
17 - Ma Rainey - New Bow-Weawil Blues (2:52)
18 - Louis Armstrong - Struttin' With Some Barbecue (3:06)
19 - Paul Whiteman - San (3:23)
20 - Duke Ellington - Jubilee Stomp (2:38)
21 - Bessie Smith - Empty Bed Blues (3:04)
22 - Johnny Miller - Panama (3:07)
23 - Joe Venuti - Doin' Things (2:46)
24 - Louis Armstrong - Fireworks (3:07)
25 - Louis Armstrong - West End Blues (3:15)

log

Exact Audio Copy V1.0 beta 1 from 15. November 2010
EAC extraction logfile from 21. February 2011, 18:26
Various / From Ragtime To Swing CD4
Used drive : PLEXTOR DVDR PX-860A Adapter: 0 ID: 0
Read mode : SecureUtilize accurate stream : YesDefeat audio cache : YesMake use of C2 pointers : No
Read offset correction : 96Overread into Lead-In and Lead-Out : NoFill up missing offset samples with silence : YesDelete leading and trailing silent blocks : NoNull samples used in CRC calculations : YesUsed interface : Native Win32 interface for Win NT & 2000Gap handling : Appended to previous track
Used output format : User Defined EncoderSelected bitrate : 1024 kBit/sQuality : HighAdd ID3 tag : NoCommand line compressor : C:\Program Files\Exact Audio Copy\flac.exeAdditional command line options : -8 -V -T "ARTIST=%a" -T "TITLE=%t" -T "ALBUM=%g" -T "DATE=%y" -T "TRACKNUMBER=%n" -T "TOTALTRACKS=%x" -T "GENRE=%m" -T "ALBUM ARTIST=%v" -T "ALBUMARTIST=%v" -T "COMMENT=EAC V1.0 beta 1, Secure Mode, Test & Copy, AccurateRip
TOC of the extracted CD
Track | Start | Length | Start sector | End sector --------------------------------------------------------- 1 | 0:00.00 | 3:16.28 | 0 | 14727 2 | 3:16.28 | 3:06.25 | 14728 | 28702 3 | 6:22.53 | 2:47.05 | 28703 | 41232 4 | 9:09.58 | 3:23.22 | 41233 | 56479 5 | 12:33.05 | 2:35.23 | 56480 | 68127 6 | 15:08.28 | 2:52.74 | 68128 | 81101 7 | 18:01.27 | 3:11.61 | 81102 | 95487 8 | 21:13.13 | 2:55.16 | 95488 | 108628 9 | 24:08.29 | 3:20.68 | 108629 | 123696 10 | 27:29.22 | 3:17.65 | 123697 | 138536 11 | 30:47.12 | 2:46.71 | 138537 | 151057 12 | 33:34.08 | 3:04.41 | 151058 | 164898 13 | 36:38.49 | 3:05.52 | 164899 | 178825 14 | 39:44.26 | 3:07.02 | 178826 | 192852 15 | 42:51.28 | 3:09.55 | 192853 | 207082 16 | 46:01.08 | 3:13.70 | 207083 | 221627 17 | 49:15.03 | 2:51.62 | 221628 | 234514 18 | 52:06.65 | 3:05.43 | 234515 | 248432 19 | 55:12.33 | 3:22.64 | 248433 | 263646 20 | 58:35.22 | 2:38.03 | 263647 | 275499 21 | 61:13.25 | 3:04.27 | 275500 | 289326 22 | 64:17.52 | 3:07.29 | 289327 | 303380 23 | 67:25.06 | 2:46.22 | 303381 | 315852 24 | 70:11.28 | 3:06.68 | 315853 | 329870 25 | 73:18.21 | 3:14.50 | 329871 | 344470
Track 1
Filename S:\DL\Various Artists - From Ragtime To Swing CD4 (2010) [FLAC]\01 - Frankie Trumbauer - Clarinet Marmalade.wav
Pre-gap length 0:00:02.00
Peak level 75.0 % Extraction speed 4.5 X Track quality 100.0 % Test CRC 7646E444 Copy CRC 7646E444 Track not present in AccurateRip database Copy OK
Track 2
Filename S:\DL\Various Artists - From Ragtime To Swing CD4 (2010) [FLAC]\02 - Red & Miff's Stompers - Davenport Blues.wav
Pre-gap length 0:00:04.00
Peak level 96.1 % Extraction speed 4.8 X Track quality 100.0 % Test CRC AF6FA7B2 Copy CRC AF6FA7B2 Track not present in AccurateRip database Copy OK
Track 3
Filename S:\DL\Various Artists - From Ragtime To Swing CD4 (2010) [FLAC]\03 - James P. Johnson - All That I Had Is Gone.wav
Pre-gap length 0:00:04.00
Peak level 63.7 % Extraction speed 4.9 X Track quality 100.0 % Test CRC E1EA5F21 Copy CRC E1EA5F21 Track not present in AccurateRip database Copy OK
Track 4
Filename S:\DL\Various Artists - From Ragtime To Swing CD4 (2010) [FLAC]\04 - Clarence Williams - Cushion Foot Stomp.wav
Pre-gap length 0:00:04.00
Peak level 83.9 % Extraction speed 5.4 X Track quality 100.0 % Test CRC 60D4EA7F Copy CRC 60D4EA7F Track not present in AccurateRip database Copy OK
Track 5
Filename S:\DL\Various Artists - From Ragtime To Swing CD4 (2010) [FLAC]\05 - Jimmy Bertrand - Easy Come Easy Go Blues.wav
Pre-gap length 0:00:04.00
Peak level 89.0 % Extraction speed 5.4 X Track quality 100.0 % Test CRC B5A640A4 Copy CRC B5A640A4 Track not present in AccurateRip database Copy OK
Track 6
Filename S:\DL\Various Artists - From Ragtime To Swing CD4 (2010) [FLAC]\06 - Fletcher Henderson - St. Louis Shuffle.wav
Pre-gap length 0:00:04.00
Peak level 87.8 % Extraction speed 4.9 X Track quality 99.9 % Test CRC 7A0BAB07 Copy CRC 7A0BAB07 Track not present in AccurateRip database Copy OK
Track 7
Filename S:\DL\Various Artists - From Ragtime To Swing CD4 (2010) [FLAC]\07 - Louis Armstrong - Wild Man Blues.wav
Pre-gap length 0:00:04.00
Peak level 73.8 % Extraction speed 6.1 X Track quality 100.0 % Test CRC 0E590F1F Copy CRC 0E590F1F Track not present in AccurateRip database Copy OK
Track 8
Filename S:\DL\Various Artists - From Ragtime To Swing CD4 (2010) [FLAC]\08 - Louis Armstrong - S.O.L. Blues.wav
Pre-gap length 0:00:04.00
Peak level 89.2 % Extraction speed 6.2 X Track quality 100.0 % Test CRC 47510C2C Copy CRC 47510C2C Track not present in AccurateRip database Copy OK
Track 9
Filename S:\DL\Various Artists - From Ragtime To Swing CD4 (2010) [FLAC]\09 - Jelly Roll Morton - Wolverine Blues.wav
Pre-gap length 0:00:04.00
Peak level 87.5 % Extraction speed 5.7 X Track quality 99.9 % Test CRC B9C16EBB Copy CRC B9C16EBB Track not present in AccurateRip database Copy OK
Track 10
Filename S:\DL\Various Artists - From Ragtime To Swing CD4 (2010) [FLAC]\10 - Sugar Underwood - Dew-Drop Alley.wav
Pre-gap length 0:00:04.00
Peak level 85.5 % Extraction speed 6.8 X Track quality 100.0 % Test CRC D33E4967 Copy CRC D33E4967 Track not present in AccurateRip database Copy OK
Track 11
Filename S:\DL\Various Artists - From Ragtime To Swing CD4 (2010) [FLAC]\11 - Bix Beiderbecke - In A Mist.wav
Pre-gap length 0:00:04.00
Peak level 75.4 % Extraction speed 6.8 X Track quality 100.0 % Test CRC A39AA13B Copy CRC A39AA13B Track not present in AccurateRip database Copy OK
Track 12
Filename S:\DL\Various Artists - From Ragtime To Swing CD4 (2010) [FLAC]\12 - Jean Goldkette - Clementine From New Orleans.wav
Pre-gap length 0:00:04.00
Peak level 86.0 % Extraction speed 7.0 X Track quality 100.0 % Test CRC 6DFD9811 Copy CRC 6DFD9811 Track not present in AccurateRip database Copy OK
Track 13
Filename S:\DL\Various Artists - From Ragtime To Swing CD4 (2010) [FLAC]\13 - Bix Beiderbecke - Jazz Me Blues.wav
Pre-gap length 0:00:04.00
Peak level 82.9 % Extraction speed 7.2 X Track quality 100.0 % Test CRC 4BB3D5C4 Copy CRC 4BB3D5C4 Track not present in AccurateRip database Copy OK
Track 14
Filename S:\DL\Various Artists - From Ragtime To Swing CD4 (2010) [FLAC]\14 - Bix Beiderbecke - Since My Best Gal Turned Me Down.wav
Pre-gap length 0:00:04.00
Peak level 81.7 % Extraction speed 7.4 X Track quality 100.0 % Test CRC 52C1435A Copy CRC 52C1435A Track not present in AccurateRip database Copy OK
Track 15
Filename S:\DL\Various Artists - From Ragtime To Swing CD4 (2010) [FLAC]\15 - Duke Ellington - Black And Tan Fantasy.wav
Pre-gap length 0:00:04.00
Peak level 85.9 % Extraction speed 7.6 X Track quality 100.0 % Test CRC ECC90D24 Copy CRC ECC90D24 Track not present in AccurateRip database Copy OK
Track 16
Filename S:\DL\Various Artists - From Ragtime To Swing CD4 (2010) [FLAC]\16 - Duke Ellington - Creole Love Call.wav
Pre-gap length 0:00:03.74
Peak level 89.1 % Extraction speed 6.7 X Track quality 99.9 % Test CRC 8CBE8261 Copy CRC 8CBE8261 Track not present in AccurateRip database Copy OK
Track 17
Filename S:\DL\Various Artists - From Ragtime To Swing CD4 (2010) [FLAC]\17 - Ma Rainey - New Bow-Weawil Blues.wav
Pre-gap length 0:00:04.00
Peak level 72.7 % Extraction speed 7.8 X Track quality 100.0 % Test CRC BF3A0BF3 Copy CRC BF3A0BF3 Track not present in AccurateRip database Copy OK
Track 18
Filename S:\DL\Various Artists - From Ragtime To Swing CD4 (2010) [FLAC]\18 - Louis Armstrong - Struttin' With Some Barbecue - Louis Armstrong - Struttin' With Some Barbecue.wav
Pre-gap length 0:00:04.00
Peak level 75.9 % Extraction speed 8.1 X Track quality 100.0 % Test CRC 98738493 Copy CRC 98738493 Track not present in AccurateRip database Copy OK
Track 19
Filename S:\DL\Various Artists - From Ragtime To Swing CD4 (2010) [FLAC]\19 - Paul Whiteman - San.wav
Pre-gap length 0:00:04.00
Peak level 88.0 % Extraction speed 3.0 X Track quality 99.5 % Test CRC 15A65974 Copy CRC 15A65974 Track not present in AccurateRip database Copy OK
Track 20
Filename S:\DL\Various Artists - From Ragtime To Swing CD4 (2010) [FLAC]\20 - Duke Ellington - Jubilee Stomp.wav
Pre-gap length 0:00:04.00
Peak level 93.2 % Extraction speed 6.7 X Track quality 99.9 % Test CRC 4A0A1C4C Copy CRC 4A0A1C4C Track not present in AccurateRip database Copy OK
Track 21
Filename S:\DL\Various Artists - From Ragtime To Swing CD4 (2010) [FLAC]\21 - Bessie Smith - Empty Bed Blues.wav
Pre-gap length 0:00:04.00
Peak level 89.1 % Extraction speed 8.5 X Track quality 100.0 % Test CRC CC4DDDF1 Copy CRC CC4DDDF1 Track not present in AccurateRip database Copy OK
Track 22
Filename S:\DL\Various Artists - From Ragtime To Swing CD4 (2010) [FLAC]\22 - Johnny Miller - Panama.wav
Pre-gap length 0:00:04.00
Peak level 87.4 % Extraction speed 8.7 X Track quality 100.0 % Test CRC F0467F66 Copy CRC F0467F66 Track not present in AccurateRip database Copy OK
Track 23
Filename S:\DL\Various Artists - From Ragtime To Swing CD4 (2010) [FLAC]\23 - Joe Venuti - Doin' Things.wav
Pre-gap length 0:00:04.00
Peak level 74.8 % Extraction speed 4.8 X Track quality 99.7 % Test CRC 0C69A6D4 Copy CRC 0C69A6D4 Track not present in AccurateRip database Copy OK
Track 24
Filename S:\DL\Various Artists - From Ragtime To Swing CD4 (2010) [FLAC]\24 - Louis Armstrong - Fireworks.wav
Pre-gap length 0:00:04.00
Peak level 88.3 % Extraction speed 8.9 X Track quality 100.0 % Test CRC 72B13FC5 Copy CRC 72B13FC5 Track not present in AccurateRip database Copy OK
Track 25
Filename S:\DL\Various Artists - From Ragtime To Swing CD4 (2010) [FLAC]\25 - Louis Armstrong - West End Blues.wav
Pre-gap length 0:00:04.00
Peak level 78.3 % Extraction speed 9.2 X Track quality 100.0 % Test CRC B37AD3B9 Copy CRC B37AD3B9 Track not present in AccurateRip database Copy OK
None of the tracks are present in the AccurateRip database
No errors occurred
End of status report
==== Log checksum 9DA5AEB4D7DC76A9731967DF6320D9D17EFC5240860D803FACBCFF6B2CD56D05 ====

.cue

REM GENRE JazzREM DATE 2010REM DISCID 6411F019REM COMMENT "ExactAudioCopy v1.0b1"REM DISCNUMBER 04REM TOTALDISCS 25PERFORMER "Various"TITLE "La Grande Histoire Du Jazz From Ragtime To Swing 1898-1952"FILE "01 - Frankie Trumbauer - Clarinet Marmalade.wav" WAVE TRACK 01 AUDIO TITLE "Clarinet Marmalade" PERFORMER "Frankie Trumbauer" INDEX 01 00:00:00 TRACK 02 AUDIO TITLE "Davenport Blues" PERFORMER "Red & Miff's Stompers" INDEX 00 03:12:28FILE "02 - Red & Miff's Stompers - Davenport Blues.wav" WAVE INDEX 01 00:00:00 TRACK 03 AUDIO TITLE "All That I Had Is Gone" PERFORMER "James P. Johnson" INDEX 00 03:02:25FILE "03 - James P. Johnson - All That I Had Is Gone.wav" WAVE INDEX 01 00:00:00 TRACK 04 AUDIO TITLE "Cushion Foot Stomp" PERFORMER "Clarence Williams" INDEX 00 02:43:05FILE "04 - Clarence Williams - Cushion Foot Stomp.wav" WAVE INDEX 01 00:00:00 TRACK 05 AUDIO TITLE "Easy Come Easy Go Blues" PERFORMER "Jimmy Bertrand" INDEX 00 03:19:22FILE "05 - Jimmy Bertrand - Easy Come Easy Go Blues.wav" WAVE INDEX 01 00:00:00 TRACK 06 AUDIO TITLE "St. Louis Shuffle" PERFORMER "Fletcher Henderson" INDEX 00 02:31:23FILE "06 - Fletcher Henderson - St. Louis Shuffle.wav" WAVE INDEX 01 00:00:00 TRACK 07 AUDIO TITLE "Wild Man Blues" PERFORMER "Louis Armstrong" INDEX 00 02:48:74FILE "07 - Louis Armstrong - Wild Man Blues.wav" WAVE INDEX 01 00:00:00 TRACK 08 AUDIO TITLE "S.O.L. Blues" PERFORMER "Louis Armstrong" INDEX 00 03:07:61FILE "08 - Louis Armstrong - S.O.L. Blues.wav" WAVE INDEX 01 00:00:00 TRACK 09 AUDIO TITLE "Wolverine Blues" PERFORMER "Jelly Roll Morton" INDEX 00 02:51:16FILE "09 - Jelly Roll Morton - Wolverine Blues.wav" WAVE INDEX 01 00:00:00 TRACK 10 AUDIO TITLE "Dew-Drop Alley" PERFORMER "Sugar Underwood" INDEX 00 03:16:68FILE "10 - Sugar Underwood - Dew-Drop Alley.wav" WAVE INDEX 01 00:00:00 TRACK 11 AUDIO TITLE "In A Mist" PERFORMER "Bix Beiderbecke" INDEX 00 03:13:65FILE "11 - Bix Beiderbecke - In A Mist.wav" WAVE INDEX 01 00:00:00 TRACK 12 AUDIO TITLE "Clementine From New Orleans" PERFORMER "Jean Goldkette" INDEX 00 02:42:71FILE "12 - Jean Goldkette - Clementine From New Orleans.wav" WAVE INDEX 01 00:00:00 TRACK 13 AUDIO TITLE "Jazz Me Blues" PERFORMER "Bix Beiderbecke" INDEX 00 03:00:41FILE "13 - Bix Beiderbecke - Jazz Me Blues.wav" WAVE INDEX 01 00:00:00 TRACK 14 AUDIO TITLE "Since My Best Gal Turned Me Down" PERFORMER "Bix Beiderbecke" INDEX 00 03:01:52FILE "14 - Bix Beiderbecke - Since My Best Gal Turned Me Down.wav" WAVE INDEX 01 00:00:00 TRACK 15 AUDIO TITLE "Black And Tan Fantasy" PERFORMER "Duke Ellington" INDEX 00 03:03:02FILE "15 - Duke Ellington - Black And Tan Fantasy.wav" WAVE INDEX 01 00:00:00 TRACK 16 AUDIO TITLE "Creole Love Call" PERFORMER "Duke Ellington" INDEX 00 03:05:56FILE "16 - Duke Ellington - Creole Love Call.wav" WAVE INDEX 01 00:00:00 TRACK 17 AUDIO TITLE "New Bow-Weawil Blues" PERFORMER "Ma Rainey" INDEX 00 03:09:70FILE "17 - Ma Rainey - New Bow-Weawil Blues.wav" WAVE INDEX 01 00:00:00 TRACK 18 AUDIO TITLE "Louis Armstrong - Struttin' With Some Barbecue" PERFORMER "Louis Armstrong - Struttin' With Some Barbecue" INDEX 00 02:47:62FILE "18 - Louis Armstrong - Struttin' With Some Barbecue - Louis Armstrong - Struttin' With Some Barbecue.wav" WAVE INDEX 01 00:00:00 TRACK 19 AUDIO TITLE "San" PERFORMER "Paul Whiteman" INDEX 00 03:01:43FILE "19 - Paul Whiteman - San.wav" WAVE INDEX 01 00:00:00 TRACK 20 AUDIO TITLE "Jubilee Stomp" PERFORMER "Duke Ellington" INDEX 00 03:18:64FILE "20 - Duke Ellington - Jubilee Stomp.wav" WAVE INDEX 01 00:00:00 TRACK 21 AUDIO TITLE "Empty Bed Blues" PERFORMER "Bessie Smith" INDEX 00 02:34:03FILE "21 - Bessie Smith - Empty Bed Blues.wav" WAVE INDEX 01 00:00:00 TRACK 22 AUDIO TITLE "Panama" PERFORMER "Johnny Miller" INDEX 00 03:00:27FILE "22 - Johnny Miller - Panama.wav" WAVE INDEX 01 00:00:00 TRACK 23 AUDIO TITLE "Doin' Things" PERFORMER "Joe Venuti" INDEX 00 03:03:29FILE "23 - Joe Venuti - Doin' Things.wav" WAVE INDEX 01 00:00:00 TRACK 24 AUDIO TITLE "Fireworks" PERFORMER "Louis Armstrong" INDEX 00 02:42:22FILE "24 - Louis Armstrong - Fireworks.wav" WAVE INDEX 01 00:00:00 TRACK 25 AUDIO TITLE "West End Blues" PERFORMER "Louis Armstrong" INDEX 00 03:02:68FILE "25 - Louis Armstrong - West End Blues.wav" WAVE INDEX 01 00:00:00

CD 05


Продолжительность: 1:15:58
Трэклист:
01 - Johnny Dodds - Blue Clarinet Stomp (3:14)
02 - Miff Mole's Molers - Shim-Me-Sha-Wabble (3:03)
03 - McKinney's Cotton Pickers - Four Or Five Times (2:50)
04 - Jimmie Noone - Apex Blues (3:11)
05 - Bennie Moten - South (2:36)
06 - Duke Ellington - The Mooche (3:18)
07 - Duke Ellington - Hot And Bothered (3:19)
08 - Eddie Condon - Makin' Friends (3:04)
09 - McKinney's Cotton Pickers - It's Tight Like That (2:43)
10 - Louis Armstrong & Earl Hines - Weather Bird (2:45)
11 - Earl Hines - Chimes In Blues (2:56)
12 - Louis Armstrong - St. James Infirmary (3:23)
13 - Louis Armstrong - Tight Like This (3:21)
14 - Pinetop Smith - Pinetop's Boogie Woogie (3:14)
15 - Clarence Williams - Too Law (2:59)
16 - Earl Hines - Everybody Loves My Baby (3:18)
17 - Fats Waller - Handful Of Keys (2:48)
18 - Frankie Trumbauer - Raisin The Roof (3:03)
19 - Paul Howard's Quality Serenaders - Stuff (2:57)
20 - Lonnie Johnson & Eddie Lang - Blue Guitars (3:13)
21 - The Missourians - Ozark Mountain Blues (3:05)
22 - Kansas City Stompers - Shanghai Honeymoon (2:31)
23 - Jelly Roll Morton - Freakish (2:58)
24 - Henry 'Red' Allen - It Should Be You (3:09)
25 - Fats Waller - Ain't Misbehavin' (2:58)

log

Exact Audio Copy V1.0 beta 1 from 15. November 2010
EAC extraction logfile from 22. February 2011, 9:28
Various / From Ragtime To Swing CD05
Used drive : PLEXTOR DVDR PX-860A Adapter: 0 ID: 0
Read mode : SecureUtilize accurate stream : YesDefeat audio cache : YesMake use of C2 pointers : No
Read offset correction : 96Overread into Lead-In and Lead-Out : NoFill up missing offset samples with silence : YesDelete leading and trailing silent blocks : NoNull samples used in CRC calculations : YesUsed interface : Native Win32 interface for Win NT & 2000Gap handling : Appended to previous track
Used output format : User Defined EncoderSelected bitrate : 1024 kBit/sQuality : HighAdd ID3 tag : NoCommand line compressor : C:\Program Files\Exact Audio Copy\flac.exeAdditional command line options : -8 -V -T "ARTIST=%a" -T "TITLE=%t" -T "ALBUM=%g" -T "DATE=%y" -T "TRACKNUMBER=%n" -T "TOTALTRACKS=%x" -T "GENRE=%m" -T "ALBUM ARTIST=%v" -T "ALBUMARTIST=%v" -T "COMMENT=EAC V1.0 beta 1, Secure Mode, Test & Copy, AccurateRip
TOC of the extracted CD
Track | Start | Length | Start sector | End sector --------------------------------------------------------- 1 | 0:00.00 | 3:13.61 | 0 | 14535 2 | 3:13.61 | 3:03.27 | 14536 | 28287 3 | 6:17.13 | 2:50.30 | 28288 | 41067 4 | 9:07.43 | 3:11.15 | 41068 | 55407 5 | 12:18.58 | 2:36.06 | 55408 | 67113 6 | 14:54.64 | 3:17.60 | 67114 | 81948 7 | 18:12.49 | 3:19.25 | 81949 | 96898 8 | 21:31.74 | 3:04.08 | 96899 | 110706 9 | 24:36.07 | 2:43.31 | 110707 | 122962 10 | 27:19.38 | 2:44.59 | 122963 | 135321 11 | 30:04.22 | 2:56.37 | 135322 | 148558 12 | 33:00.59 | 3:23.22 | 148559 | 163805 13 | 36:24.06 | 3:20.71 | 163806 | 178876 14 | 39:45.02 | 3:13.53 | 178877 | 193404 15 | 42:58.55 | 2:58.64 | 193405 | 206818 16 | 45:57.44 | 3:17.43 | 206819 | 221636 17 | 49:15.12 | 2:48.34 | 221637 | 234270 18 | 52:03.46 | 3:03.00 | 234271 | 247995 19 | 55:06.46 | 2:56.51 | 247996 | 261246 20 | 58:03.22 | 3:13.27 | 261247 | 275748 21 | 61:16.49 | 3:05.11 | 275749 | 289634 22 | 64:21.60 | 2:30.48 | 289635 | 300932 23 | 66:52.33 | 2:58.09 | 300933 | 314291 24 | 69:50.42 | 3:09.21 | 314292 | 328487 25 | 72:59.63 | 2:57.73 | 328488 | 341835
Track 1
Filename S:\DL\Various Artists - From Ragtime To Swing CD05 (2010) [FLAC]\01 - Johnny Dodds - Blue Clarinet Stomp.wav
Pre-gap length 0:00:02.00
Peak level 85.6 % Extraction speed 4.4 X Track quality 100.0 % Test CRC FFE1B352 Copy CRC FFE1B352 Track not present in AccurateRip database Copy OK
Track 2
Filename S:\DL\Various Artists - From Ragtime To Swing CD05 (2010) [FLAC]\02 - Miff Mole's Molers - Shim-Me-Sha-Wabble.wav
Pre-gap length 0:00:04.00
Peak level 84.8 % Extraction speed 4.7 X Track quality 100.0 % Test CRC 09268096 Copy CRC 09268096 Track not present in AccurateRip database Copy OK
Track 3
Filename S:\DL\Various Artists - From Ragtime To Swing CD05 (2010) [FLAC]\03 - McKinney's Cotton Pickers - Four Or Five Times.wav
Pre-gap length 0:00:04.00
Peak level 88.0 % Extraction speed 4.9 X Track quality 100.0 % Test CRC 5E83453D Copy CRC 5E83453D Track not present in AccurateRip database Copy OK
Track 4
Filename S:\DL\Various Artists - From Ragtime To Swing CD05 (2010) [FLAC]\04 - Jimmie Noone - Apex Blues.wav
Pre-gap length 0:00:04.00
Peak level 82.7 % Extraction speed 5.3 X Track quality 100.0 % Test CRC 3E355429 Copy CRC 3E355429 Track not present in AccurateRip database Copy OK
Track 5
Filename S:\DL\Various Artists - From Ragtime To Swing CD05 (2010) [FLAC]\05 - Bennie Moten - South.wav
Pre-gap length 0:00:04.00
Peak level 84.7 % Extraction speed 4.5 X Track quality 99.9 % Test CRC B452F14C Copy CRC B452F14C Track not present in AccurateRip database Copy OK
Track 6
Filename S:\DL\Various Artists - From Ragtime To Swing CD05 (2010) [FLAC]\06 - Duke Ellington - The Mooche.wav
Pre-gap length 0:00:04.00
Peak level 86.1 % Extraction speed 5.8 X Track quality 100.0 % Test CRC D25DF459 Copy CRC D25DF459 Track not present in AccurateRip database Copy OK
Track 7
Filename S:\DL\Various Artists - From Ragtime To Swing CD05 (2010) [FLAC]\07 - Duke Ellington - Hot And Bothered.wav
Pre-gap length 0:00:04.00
Peak level 84.4 % Extraction speed 6.1 X Track quality 100.0 % Test CRC 78953993 Copy CRC 78953993 Track not present in AccurateRip database Copy OK
Track 8
Filename S:\DL\Various Artists - From Ragtime To Swing CD05 (2010) [FLAC]\08 - Eddie Condon - Makin' Friends.wav
Pre-gap length 0:00:04.00
Peak level 83.4 % Extraction speed 6.2 X Track quality 100.0 % Test CRC 02070753 Copy CRC 02070753 Track not present in AccurateRip database Copy OK
Track 9
Filename S:\DL\Various Artists - From Ragtime To Swing CD05 (2010) [FLAC]\09 - McKinney's Cotton Pickers - It's Tight Like That.wav
Pre-gap length 0:00:04.00
Peak level 86.1 % Extraction speed 6.2 X Track quality 100.0 % Test CRC 900E6FC5 Copy CRC 900E6FC5 Track not present in AccurateRip database Copy OK
Track 10
Filename S:\DL\Various Artists - From Ragtime To Swing CD05 (2010) [FLAC]\10 - Louis Armstrong & Earl Hines - Weather Bird.wav
Pre-gap length 0:00:04.00
Peak level 81.3 % Extraction speed 6.4 X Track quality 100.0 % Test CRC 04CFF440 Copy CRC 04CFF440 Track not present in AccurateRip database Copy OK
Track 11
Filename S:\DL\Various Artists - From Ragtime To Swing CD05 (2010) [FLAC]\11 - Earl Hines - Chimes In Blues.wav
Pre-gap length 0:00:04.00
Peak level 87.9 % Extraction speed 6.7 X Track quality 100.0 % Test CRC 5EB295EA Copy CRC 5EB295EA Track not present in AccurateRip database Copy OK
Track 12
Filename S:\DL\Various Artists - From Ragtime To Swing CD05 (2010) [FLAC]\12 - Louis Armstrong - St. James Infirmary.wav
Pre-gap length 0:00:04.00
Peak level 88.9 % Extraction speed 7.1 X Track quality 100.0 % Test CRC E7286A6B Copy CRC E7286A6B Track not present in AccurateRip database Copy OK
Track 13
Filename S:\DL\Various Artists - From Ragtime To Swing CD05 (2010) [FLAC]\13 - Louis Armstrong - Tight Like This.wav
Pre-gap length 0:00:04.00
Peak level 79.8 % Extraction speed 7.3 X Track quality 100.0 % Test CRC 24821C95 Copy CRC 24821C95 Track not present in AccurateRip database Copy OK
Track 14
Filename S:\DL\Various Artists - From Ragtime To Swing CD05 (2010) [FLAC]\14 - Pinetop Smith - Pinetop's Boogie Woogie.wav
Pre-gap length 0:00:04.00
Peak level 88.1 % Extraction speed 7.4 X Track quality 100.0 % Test CRC 63575191 Copy CRC 63575191 Track not present in AccurateRip database Copy OK
Track 15
Filename S:\DL\Various Artists - From Ragtime To Swing CD05 (2010) [FLAC]\15 - Clarence Williams - Too Law.wav
Pre-gap length 0:00:04.00
Peak level 79.8 % Extraction speed 7.5 X Track quality 100.0 % Test CRC 0AA61FF7 Copy CRC 0AA61FF7 Track not present in AccurateRip database Copy OK
Track 16
Filename S:\DL\Various Artists - From Ragtime To Swing CD05 (2010) [FLAC]\16 - Earl Hines - Everybody Loves My Baby.wav
Pre-gap length 0:00:04.00
Peak level 89.3 % Extraction speed 6.7 X Track quality 99.9 % Test CRC 5ABE9CAF Copy CRC 5ABE9CAF Track not present in AccurateRip database Copy OK
Track 17
Filename S:\DL\Various Artists - From Ragtime To Swing CD05 (2010) [FLAC]\17 - Fats Waller - Handful Of Keys.wav
Pre-gap length 0:00:04.00
Peak level 84.3 % Extraction speed 7.7 X Track quality 100.0 % Test CRC 91C1AF95 Copy CRC 91C1AF95 Track not present in AccurateRip database Copy OK
Track 18
Filename S:\DL\Various Artists - From Ragtime To Swing CD05 (2010) [FLAC]\18 - Frankie Trumbauer - Raisin The Roof.wav
Pre-gap length 0:00:04.00
Peak level 91.7 % Extraction speed 8.0 X Track quality 100.0 % Test CRC B31349FD Copy CRC B31349FD Track not present in AccurateRip database Copy OK
Track 19
Filename S:\DL\Various Artists - From Ragtime To Swing CD05 (2010) [FLAC]\19 - Paul Howard's Quality Serenaders - Stuff.wav
Pre-gap length 0:00:04.00
Peak level 86.7 % Extraction speed 7.9 X Track quality 100.0 % Test CRC 7DD70A52 Copy CRC 7DD70A52 Track not present in AccurateRip database Copy OK
Track 20
Filename S:\DL\Various Artists - From Ragtime To Swing CD05 (2010) [FLAC]\20 - Lonnie Johnson & Eddie Lang - Blue Guitars.wav
Pre-gap length 0:00:04.00
Peak level 77.7 % Extraction speed 8.4 X Track quality 100.0 % Test CRC FFCCDD38 Copy CRC FFCCDD38 Track not present in AccurateRip database Copy OK
Track 21
Filename S:\DL\Various Artists - From Ragtime To Swing CD05 (2010) [FLAC]\21 - The Missourians - Ozark Mountain Blues.wav
Pre-gap length 0:00:04.00
Peak level 85.9 % Extraction speed 8.4 X Track quality 100.0 % Test CRC 01245B18 Copy CRC 01245B18 Track not present in AccurateRip database Copy OK
Track 22
Filename S:\DL\Various Artists - From Ragtime To Swing CD05 (2010) [FLAC]\22 - Kansas City Stompers - Shanghai Honeymoon.wav
Pre-gap length 0:00:04.00
Peak level 81.6 % Extraction speed 8.3 X Track quality 100.0 % Test CRC BD5F8049 Copy CRC BD5F8049 Track not present in AccurateRip database Copy OK
Track 23
Filename S:\DL\Various Artists - From Ragtime To Swing CD05 (2010) [FLAC]\23 - Jelly Roll Morton - Freakish.wav
Pre-gap length 0:00:04.00
Peak level 85.4 % Extraction speed 8.6 X Track quality 100.0 % Test CRC 7625A316 Copy CRC 7625A316 Track not present in AccurateRip database Copy OK
Track 24
Filename S:\DL\Various Artists - From Ragtime To Swing CD05 (2010) [FLAC]\24 - Henry 'Red' Allen - It Should Be You - Henry 'Red' Allen - It Should Be You.wav
Pre-gap length 0:00:04.00
Peak level 82.0 % Extraction speed 7.5 X Track quality 99.9 % Test CRC E59F9734 Copy CRC E59F9734 Track not present in AccurateRip database Copy OK
Track 25
Filename S:\DL\Various Artists - From Ragtime To Swing CD05 (2010) [FLAC]\25 - Fats Waller - Ain't Misbehavin'.wav
Pre-gap length 0:00:04.00
Peak level 83.8 % Extraction speed 7.5 X Track quality 99.9 % Test CRC ACA10FAA Copy CRC ACA10FAA Track not present in AccurateRip database Copy OK
None of the tracks are present in the AccurateRip database
No errors occurred
End of status report
==== Log checksum 778753632F7481A649B32546637D6FD494F5B65497C6A83957E8E423B5CE2370 ====

.cue

REM GENRE JazzREM DATE 2010REM DISCID 9D11CD19REM COMMENT "ExactAudioCopy v1.0b1"REM DISCNUMBER 05REM TOTALDISCS 25PERFORMER "Various"TITLE "La Grande Histoire Du Jazz From Ragtime To Swing 1898-1952"FILE "01 - Johnny Dodds - Blue Clarinet Stomp.wav" WAVE TRACK 01 AUDIO TITLE "Blue Clarinet Stomp " PERFORMER "Johnny Dodds" INDEX 01 00:00:00 TRACK 02 AUDIO TITLE "Shim-Me-Sha-Wabble" PERFORMER "Miff Mole's Molers" INDEX 00 03:09:61FILE "02 - Miff Mole's Molers - Shim-Me-Sha-Wabble.wav" WAVE INDEX 01 00:00:00 TRACK 03 AUDIO TITLE "Four Or Five Times" PERFORMER "McKinney's Cotton Pickers" INDEX 00 02:59:27FILE "03 - McKinney's Cotton Pickers - Four Or Five Times.wav" WAVE INDEX 01 00:00:00 TRACK 04 AUDIO TITLE "Apex Blues" PERFORMER "Jimmie Noone" INDEX 00 02:46:30FILE "04 - Jimmie Noone - Apex Blues.wav" WAVE INDEX 01 00:00:00 TRACK 05 AUDIO TITLE "South" PERFORMER "Bennie Moten" INDEX 00 03:07:15FILE "05 - Bennie Moten - South.wav" WAVE INDEX 01 00:00:00 TRACK 06 AUDIO TITLE "The Mooche" PERFORMER "Duke Ellington" INDEX 00 02:32:06FILE "06 - Duke Ellington - The Mooche.wav" WAVE INDEX 01 00:00:00 TRACK 07 AUDIO TITLE "Hot And Bothered" PERFORMER "Duke Ellington" INDEX 00 03:13:60FILE "07 - Duke Ellington - Hot And Bothered.wav" WAVE INDEX 01 00:00:00 TRACK 08 AUDIO TITLE "Makin' Friends" PERFORMER "Eddie Condon" INDEX 00 03:15:25FILE "08 - Eddie Condon - Makin' Friends.wav" WAVE INDEX 01 00:00:00 TRACK 09 AUDIO TITLE "It's Tight Like That" PERFORMER "McKinney's Cotton Pickers" INDEX 00 03:00:08FILE "09 - McKinney's Cotton Pickers - It's Tight Like That.wav" WAVE INDEX 01 00:00:00 TRACK 10 AUDIO TITLE "Weather Bird" PERFORMER "Louis Armstrong & Earl Hines" INDEX 00 02:39:31FILE "10 - Louis Armstrong & Earl Hines - Weather Bird.wav" WAVE INDEX 01 00:00:00 TRACK 11 AUDIO TITLE "Chimes In Blues" PERFORMER "Earl Hines" INDEX 00 02:40:59FILE "11 - Earl Hines - Chimes In Blues.wav" WAVE INDEX 01 00:00:00 TRACK 12 AUDIO TITLE "St. James Infirmary" PERFORMER "Louis Armstrong" INDEX 00 02:52:37FILE "12 - Louis Armstrong - St. James Infirmary.wav" WAVE INDEX 01 00:00:00 TRACK 13 AUDIO TITLE "Tight Like This" PERFORMER "Louis Armstrong" INDEX 00 03:19:22FILE "13 - Louis Armstrong - Tight Like This.wav" WAVE INDEX 01 00:00:00 TRACK 14 AUDIO TITLE "Pinetop's Boogie Woogie" PERFORMER "Pinetop Smith" INDEX 00 03:16:71FILE "14 - Pinetop Smith - Pinetop's Boogie Woogie.wav" WAVE INDEX 01 00:00:00 TRACK 15 AUDIO TITLE "Too Law" PERFORMER "Clarence Williams" INDEX 00 03:09:53FILE "15 - Clarence Williams - Too Law.wav" WAVE INDEX 01 00:00:00 TRACK 16 AUDIO TITLE "Everybody Loves My Baby" PERFORMER "Earl Hines" INDEX 00 02:54:64FILE "16 - Earl Hines - Everybody Loves My Baby.wav" WAVE INDEX 01 00:00:00 TRACK 17 AUDIO TITLE "Handful Of Keys" PERFORMER "Fats Waller" INDEX 00 03:13:43FILE "17 - Fats Waller - Handful Of Keys.wav" WAVE INDEX 01 00:00:00 TRACK 18 AUDIO TITLE "Raisin The Roof" PERFORMER "Frankie Trumbauer" INDEX 00 02:44:34FILE "18 - Frankie Trumbauer - Raisin The Roof.wav" WAVE INDEX 01 00:00:00 TRACK 19 AUDIO TITLE "Stuff" PERFORMER "Paul Howard's Quality Serenaders" INDEX 00 02:59:00FILE "19 - Paul Howard's Quality Serenaders - Stuff.wav" WAVE INDEX 01 00:00:00 TRACK 20 AUDIO TITLE "Blue Guitars" PERFORMER "Lonnie Johnson & Eddie Lang" INDEX 00 02:52:51FILE "20 - Lonnie Johnson & Eddie Lang - Blue Guitars.wav" WAVE INDEX 01 00:00:00 TRACK 21 AUDIO TITLE "Ozark Mountain Blues" PERFORMER "The Missourians" INDEX 00 03:09:27FILE "21 - The Missourians - Ozark Mountain Blues.wav" WAVE INDEX 01 00:00:00 TRACK 22 AUDIO TITLE "Shanghai Honeymoon" PERFORMER "Kansas City Stompers" INDEX 00 03:01:11FILE "22 - Kansas City Stompers - Shanghai Honeymoon.wav" WAVE INDEX 01 00:00:00 TRACK 23 AUDIO TITLE "Freakish" PERFORMER "Jelly Roll Morton" INDEX 00 02:26:48FILE "23 - Jelly Roll Morton - Freakish.wav" WAVE INDEX 01 00:00:00 TRACK 24 AUDIO TITLE "Henry 'Red' Allen - It Should Be You" PERFORMER "Henry 'Red' Allen - It Should Be You" INDEX 00 02:54:09FILE "24 - Henry 'Red' Allen - It Should Be You - Henry 'Red' Allen - It Should Be You.wav" WAVE INDEX 01 00:00:00 TRACK 25 AUDIO TITLE "Ain't Misbehavin'" PERFORMER "Fats Waller" INDEX 00 03:05:21FILE "25 - Fats Waller - Ain't Misbehavin'.wav" WAVE INDEX 01 00:00:00
[ru-zerkalo.org]_t_5683817
Torrent: Registered ·  [ 2019-03-04 15:53 ] ·  c8bda1ffdc95c69c9a0b8ad056c61aed2e4943c7

770 KB

Status: checked
Completed: 0 times
Size: 8.86 GB
Rating: 
(Votes: 0)
Say thanks: 0  Thanks
 
Похожие темы
[Profile] [PM]
Display posts from previous:    
Reply to topic

The time now is: Today 07:13

All times are GMT + 7 Hours



You cannot post new topics in this forum
You cannot reply to topics in this forum
You cannot edit your posts in this forum
You cannot delete your posts in this forum
You cannot vote in polls in this forum
You cannot attach files in this forum
You can download files in this forum