Register · 
Username: Password:
 ·  Forgot password?

[DTSCD][UP] Debbie Tebbs - Chrome - 2018 (Synthpop, Dance, Pop)

Reply to topic
DL-List and Torrent activity [Update пиров]
Size:  397 MB   |    Registered:  8 months 7 days   |    Completed:  0 times

Seeder not seen: Never

 
   
 
 
 
Author Message

manic-manic ®

Gender:

Longevity: 6 years 2 months

Posts: 13804

Post 02-Apr-2019 22:29

[Quote]

Debbie Tebbs - Chrome DTS UPMix
Формат записи/Источник записи: [DTSCD][UP]
Наличие водяных знаков: Нет
Год издания/переиздания диска: 2018
Жанр: Synthpop, Dance, Pop
Издатель (лейбл): Cliche Musique
Продолжительность: 00:39:16
Наличие сканов в содержимом раздачи: Только обложка альбома
Треклист:
1. Petit Clavier Métallique 05:08
2. Fantôme 03:33
3. Stéréophonique 03:21
4. Analogie Synthétique 04:02
5. Dans les Voiles (feat. Jacobus) 03:11
6. Rubicube 05:34
7. Fragment 01:14
8. Chrome 04:46
9. Pastel 03:41
10. Néon 04:40
Контейнер: WAV(*.wav)
Тип рипа: tracks
Разрядность: 16/44,1
Формат: DTS
Количество каналов: 5.1
Битрейт аудио: 1411 kbps

DR-лог

foobar2000 1.4.2 / Dynamic Range Meter 1.1.1log date: 2019-03-23 23:22:29
--------------------------------------------------------------------------------Analyzed: ? / ?--------------------------------------------------------------------------------
DR Peak RMS Duration Track--------------------------------------------------------------------------------DR9 -3.14 dB -13.98 dB 5:09 ?-01. Debbie Tebbs - Petit Clavier Metallique DTSDR9 -3.89 dB -14.01 dB 3:34 ?-02. Debbie Tebbs - Fantome DTSDR10 -1.38 dB -14.02 dB 3:22 ?-03. Debbie Tebbs - Stereophonique DTSDR9 -3.39 dB -13.98 dB 4:03 ?-04. Debbie Tebbs - Analogie Synthetique DTSDR9 -4.05 dB -13.97 dB 3:12 ?-05. Debbie Tebbs - Dans les Voiles (feat. Jacobus) DTSDR10 -3.08 dB -13.98 dB 5:35 ?-06. Debbie Tebbs - Rubicube DTSDR9 -1.30 dB -14.02 dB 1:14 ?-07. Debbie Tebbs - Fragment DTSDR10 -1.99 dB -13.99 dB 4:46 ?-08. Debbie Tebbs - Chrome DTSDR9 -3.85 dB -13.97 dB 3:42 ?-09. Debbie Tebbs - Pastel DTSDR10 -1.80 dB -13.99 dB 4:41 ?-10. Debbie Tebbs - Neon DTS--------------------------------------------------------------------------------
Number of tracks: 10Official DR value: DR9
Samplerate: 44100 HzChannels: 6Bits per sample: 16Bitrate: 1411 kbpsCodec: DTS================================================================================
Источник (релизер): WEB-релиз
Доп. информация: DJ S.A.W. DTS Upmix
Метод получения апмикса:
ручное выделение фазо-частотных фрагментов фонограммы с помощью функции CCE Adobe Audition
мультиканальный мастеринг – Аdobe Audition (встроенными эффектами и плагинами Waves, iZotope,
Starplugs и т.п.)
[ru-zerkalo.org]_t_5711229
Torrent: Registered ·  [ 2019-04-02 22:27 ] ·  1877e2c17a9cf344961c5c0502a2bd49943ff16d

17 KB

Status: checked
Completed: 0 times
Size: 397 MB
Rating: 
(Votes: 0)
Say thanks: 0  Thanks
 
Похожие темы
[Profile] [PM]
Display posts from previous:    
Reply to topic

The time now is: Today 02:32

All times are GMT + 7 Hours



You cannot post new topics in this forum
You cannot reply to topics in this forum
You cannot edit your posts in this forum
You cannot delete your posts in this forum
You cannot vote in polls in this forum
You cannot attach files in this forum
You can download files in this forum