Register · 
Username: Password:
 ·  Forgot password?

Звонок 2 / The Ring Two (Хидео Наката / Hideo Nakata) [2005, США, Япония, ужасы, триллер, детектив, BDRip] [Расширенная версия / Unrated / Extended Cut] AVO (Юрий Немахов)

Reply to topic
DL-List and Torrent activity [Update пиров]
Size:  2.06 GB   |    Registered:  10 months 11 days   |    Completed:  0 times

Seeder not seen: Never

 
   
 
 
 
Author Message

temkin_88 ®

Gender:

Longevity: 6 years 4 months

Posts: 17385

Post 05-Apr-2019 20:33

[Quote]

Звонок 2 / The Ring Two
Страна: США, Япония
Жанр: ужасы, триллер, детектив
Год выпуска: 2005
Продолжительность: 02:07:44
Перевод: Авторский (одноголосый закадровый) Юрий Немахов
Субтитры: нет
Режиссер: Хидео Наката / Hideo Nakata
В ролях: Наоми Уоттс, Саймон Бейкер, Дэвид Дорфман, Элизабет Перкинс, Гэри Коул, Сисси Спейсек, Райан Мерриман, Эмили ВанКэмп, Келли Овертон
Описание: Чтобы избавиться от кошмарных воспоминаний и начать новую жизнь, Рейчел с сыном переезжают в маленький городок в штате Орегон. Но, когда совершается убийство и на месте преступления обнаруживают загадочную, не подписанную видеокассету, Рейчел понимает, что мстительная Самара вернулась и решительнее, чем прежде намерена продолжить свой безжалостный террор. В отчаянной борьбе за жизнь, свою и сына, Рейчел вновь должна противостоять Самаре....
Доп. информация: За для рипа, выкуп голоса Юрия Немахова, а также идею релиза благодарим maxwell_kennedy, сборка дорожки - Timur

Сэмпл: http://multi-up.com/1228560
Качество видео: BDRip ( The.Ring.Two.2005.Unrated.BDRemux.TeamHD)
Формат видео: AVI
Видео: XviD 73, 720x384, (1,85:1), 23,976 fps, 1849 Кбит/с, 8 бит, 0.28 bit/pixel
Аудио: Русский (АС3, 6 ch (Front: L C R, Side: L R, LFE), 48,0 KHz, 448 Kbps)

MediaInfo

ОбщееПолное имя : D:\Фильмы на трекер\Звонок - 2 (триллер, ужасы, детектив 2005 год).aviФормат : AVIФормат/Информация : Audio Video InterleaveПрофиль формата : OpenDMLРазмер файла : 2,06 ГбайтПродолжительность : 2 ч. 7 м.Общий поток : 2310 Кбит/секПрограмма кодирования : VirtualDubMod 1.5.10.2 (build 2540/release)Библиотека кодирования : VirtualDubMod build 2540/release
ВидеоИдентификатор : 0Формат : MPEG-4 VisualПрофиль формата : Advanced Simple@L5Параметр BVOP формата : 2Параметр QPel формата : НетПараметр GMC формата : Без точки переходаПараметр матрицы формата : ВыборочнаяИдентификатор кодека : XVIDИдентификатор кодека/Подсказка : XviDПродолжительность : 2 ч. 7 м.Битрейт : 1849 Кбит/секШирина : 720 пикселейВысота : 384 пикселяСоотношение сторон : 1,85:1Частота кадров : 23,976 (23976/1000) кадра/секЦветовое пространство : YUVСубдискретизация насыщенности : 4:2:0Битовая глубина : 8 битТип развёртки : ПрогрессивнаяМетод сжатия : С потерямиБит/(Пиксели*Кадры) : 0.279Размер потока : 1,65 Гбайт (80%)Библиотека кодирования : XviD 73
АудиоИдентификатор : 1Формат : AC-3Формат/Информация : Audio Coding 3Расширение режима : CM (complete main)Параметр Endianness формата : BigИдентификатор кодека : 2000Продолжительность : 2 ч. 7 м.Вид битрейта : ПостоянныйБитрейт : 448 Кбит/секКаналы : 6 каналовРасположение каналов : Front: L C R, Side: L R, LFEЧастота : 48,0 КГцЧастота кадров : 31,250 кадров/сек (1536 spf)Метод сжатия : С потерямиРазмер потока : 409 Мбайт (19%)Выравнивание : Разделение по промежуткамПродолжительность промежутка : 42 мс. (1,00 видеокадр)Время предзагрузки промежутка : 500 мс.

Скриншот c названием фильма

Скриншоты

[ru-zerkalo.org]_t_5714321
Torrent: Registered ·  [ 2019-04-05 20:33 ] ·  a9b5525e9abb75bdb6000a7601eebca6cd6de757

11 KB

Status: checked
Completed: 0 times
Size: 2.06 GB
Rating: 
(Votes: 0)
Say thanks: 0  Thanks
 
Похожие темы
[Profile] [PM]
Display posts from previous:    
Reply to topic

The time now is: Today 15:07

All times are GMT + 7 Hours



You cannot post new topics in this forum
You cannot reply to topics in this forum
You cannot edit your posts in this forum
You cannot delete your posts in this forum
You cannot vote in polls in this forum
You cannot attach files in this forum
You can download files in this forum