Register · 
Username: Password:
 ·  Forgot password?

Crematory - Live Insurrection [2017, Gothic Metal, Melodic Death Metal, DVDRip-AVC]

Reply to topic
DL-List and Torrent activity [Update пиров]
Size:  1.37 GB   |    Registered:  9 months 1 day   |    Completed:  0 times

Seeder not seen: Never

 
   
 
 
 
Author Message

Makci ®

Gender:

Longevity: 6 years 3 months

Posts: 12853

Post 22-Apr-2019 15:17

[Quote]

Live Insurrection-- --Страна:
Жанр: Gothic Metal, Melodic Death Metal
Продолжительность: 01:18:50
Год выпуска: 2017
Описание: Live concert filmed and recorded at the Bang Your Head Festival 2016.-Треклист:
01. Intro
02. Misunderstood
03. Fly
04. Greed
05. Tick Tack
06. Instrumental
07. Haus mit Garten
08. Ravens Calling
09. Pray
10. Everything
11. Instrumental
12. Shadowmaker
13. The Fallen
14. Höllenbrand
15. Die So Soon
16. Kommt näher
17. Tears of Time-Источник: собственный рип Crematory - Live Insurrection [2017, Gothic Metal, DVD9]-Качество: DVDRip-AVC
Контейнер: MKV
Видео кодек: H.264
Аудио кодек: AC3
Видео: MPEG4 AVC / 720*480 (1,85:1) / 29.97 fps / 2299 kbps
Аудио: AC3 / 192 kbps / 48.0 khz / 2 ch

MI

ОбщееУникальный идентификатор : 245868966244383626117774579949332976322 (0xB8F8A3F46FD0EEA0BAEEC6088D15D2C2)Полное имя : D:\Video\Crematory - Live Insurrection.mkvФормат : MatroskaВерсия формата : Version 4Размер файла : 1,37 ГбайтПродолжительность : 1 ч. 18 м.Общий поток : 2492 Кбит/секДата кодирования : UTC 2019-04-19 18:20:39Программа кодирования : mkvmerge v7.1.0 ('Good Love') 64bit built on Jul 27 2014 13:06:55Библиотека кодирования : libebml v1.3.0 + libmatroska v1.4.1
ВидеоИдентификатор : 1Формат : AVCФормат/Информация : Advanced Video CodecПрофиль формата : High@L4.1Настройки формата : CABAC / 16 Ref FramesПараметр CABAC формата : ДаПараметр RefFrames формата : 16 кадровИдентификатор кодека : V_MPEG4/ISO/AVCПродолжительность : 1 ч. 18 м.Битрейт : 2299 Кбит/секШирина : 720 пикселейВысота : 480 пикселейСоотношение сторон : 1,85:1Режим частоты кадров : ПостоянныйЧастота кадров : 29,970 (30000/1001) кадров/секСтандарт вещания : NTSCЦветовое пространство : YUVСубдискретизация насыщенности : 4:2:0Битовая глубина : 8 битТип развёртки : ПрогрессивнаяБит/(Пиксели*Кадры) : 0.222Размер потока : 1,27 Гбайт (92%)Библиотека кодирования : x264 core 152 r2851 ba24899Настройки программы : cabac=1 / ref=16 / deblock=1:-2:-2 / analyse=0x3:0x133 / me=umh / subme=10 / psy=1 / psy_rd=1.00:0.15 / mixed_ref=1 / me_range=24 / chroma_me=1 / trellis=2 / 8x8dct=1 / cqm=0 / deadzone=21,11 / fast_pskip=1 / chroma_qp_offset=-3 / threads=6 / lookahead_threads=1 / sliced_threads=0 / nr=0 / decimate=1 / interlaced=0 / bluray_compat=0 / constrained_intra=0 / bframes=8 / b_pyramid=2 / b_adapt=2 / b_bias=0 / direct=3 / weightb=1 / open_gop=0 / weightp=2 / keyint=300 / keyint_min=29 / scenecut=40 / intra_refresh=0 / rc_lookahead=60 / rc=2pass / mbtree=1 / bitrate=2299 / ratetol=1.0 / qcomp=0.60 / qpmin=0 / qpmax=69 / qpstep=4 / cplxblur=20.0 / qblur=0.5 / vbv_maxrate=50000 / vbv_bufsize=50000 / nal_hrd=none / filler=0 / ip_ratio=1.40 / aq=1:1.00Default : ДаForced : Нет
АудиоИдентификатор : 2Формат : AC-3Формат/Информация : Audio Coding 3Коммерческое название : Dolby DigitalИдентификатор кодека : A_AC3Продолжительность : 1 ч. 18 м.Вид битрейта : ПостоянныйБитрейт : 192 Кбит/секКаналы : 2 каналаChannel layout : L RЧастота : 48,0 КГцЧастота кадров : 31,250 кадров/сек (1536 SPF)Битовая глубина : 16 битМетод сжатия : С потерямиРазмер потока : 108 Мбайт (8%)ServiceKind/String : Complete MainDefault : ДаForced : Нет
Меню00:00:00.000 : en:Intro00:02:33.500 : en:Misunderstood00:06:20.500 : en:Fly00:12:34.000 : en:Greed00:17:31.000 : en:Tick Tack00:21:43.500 : en:Instrumental00:23:07.000 : en:Haus mit Garten00:28:04.500 : en:Ravens Calling00:32:39.500 : en:Pray00:37:30.000 : en:Everything00:42:16.500 : en:Instrumental00:44:41.500 : en:Shadowmaker00:48:54.500 : en:The Fallen00:53:32.500 : en:HГ¶llenbrand00:57:42.500 : en:Die So Soon01:02:20.000 : en:Kommt nГ¤her01:07:18.000 : en:Tears of Time
[ru-zerkalo.org]_t_5721640
Torrent: Registered ·  [ 2019-04-22 15:17 ] ·  f287cca2b61f52ad651ad7c7da6d2ad3b050938e

14 KB

Status: checked
Completed: 0 times
Size: 1.37 GB
Rating: 
(Votes: 0)
Say thanks: 0  Thanks
 
Похожие темы
[Profile] [PM]
Display posts from previous:    
Reply to topic

The time now is: Today 19:17

All times are GMT + 7 Hours



You cannot post new topics in this forum
You cannot reply to topics in this forum
You cannot edit your posts in this forum
You cannot delete your posts in this forum
You cannot vote in polls in this forum
You cannot attach files in this forum
You can download files in this forum