Register · 
Username: Password:
 ·  Forgot password?

(Rap, Hip-Hop) [CD] Руставели - Настоящее настоящее - 2019, APE (tracks+.cue) Lossless

Reply to topic
DL-List and Torrent activity [Update пиров]
Size:  313 MB   |    Registered:  7 months 7 days   |    Completed:  0 times

Seeder not seen: Never

 
   
 
 
 
Author Message

FragoMan ®

Gender:

Longevity: 6 years 2 months

Posts: 24085

Post 03-May-2019 00:37

[Quote]

Руставели - Настоящее настоящее
Жанр: Rap, Hip-Hop
Носитель: CD
Страна-производитель диска (релиза): Россия
Год издания: 2019
Аудиокодек: Monkey's Audio Compressor (*.ape)
Тип рипа: tracks+.cue
Битрейт аудио: Lossless
Продолжительность: 00:49:43
Источник: antonhot
Наличие сканов в содержимом раздачи: нет
Треклист:
01 Потери со мной
02 Тёмное искусство
03 Постой
04 Холодный город ft. Comeband
05 Кузьминки
06 Neodog
07 Чёрная полоса ft. Макс Safronov
08 Бегущий за ветром ft. Ян Sun
09 Настоящее настоящее
10 Избавь от боли
11 Труп твоего врага
12 Не вернуть ft. Ян Sun, Макс Safronov
13 Ночь
14 Akela (Одинокий)
15 Огни

LOG

Exact Audio Copy V1.3 from 2. September 2016
Отчёт EAC об извлечении, выполненном 18. апреля 2019, 21:51
Руставели / Настоящее настоящее
Дисковод: HL-DT-STDVDRAM GP60NB50 Adapter: 1 ID: 0
Режим чтения : ДостоверностьИспользование точного потока : ДаОтключение кэша аудио : ДаИспользование указателей C2 : Нет
Коррекция смещения при чтении : 6Способность читать области Lead-in и Lead-out : НетЗаполнение пропущенных сэмплов тишиной : ДаУдаление блоков с тишиной в начале и конце : НетПри вычислениях CRC использовались нулевые сэмплы : ДаИнтерфейс : Встроенный Win32-интерфейс для Win NT/2000Обработка зазоров : Добавлено к предыдущему треку
Выходной формат : Пользовательский кодировщикВыбранный битрейт : 128 kBit/sКачество : ВысокийДобавление ID3-тега : НетУтилита сжатия : C:\Users\Антон\Downloads\qaac_2.66\qaac_2.66\x64\refalac64.exeДополнительные параметры : -s --ignorelength --artist "%artist%" --title "%title%" --album "%albumtitle%" --date "%year%" --track "%tracknr%" --genre "%genre%" -o %dest% %source%
TOC извлечённого CD
Трек | Старт | Длительность | Начальный сектор | Конечный сектор --------------------------------------------------------------------- 1 | 0:00.00 | 3:08.14 | 0 | 14113 2 | 3:08.14 | 3:40.27 | 14114 | 30640 3 | 6:48.41 | 4:06.18 | 30641 | 49108 4 | 10:54.59 | 3:28.58 | 49109 | 64766 5 | 14:23.42 | 1:37.63 | 64767 | 72104 6 | 16:01.30 | 2:33.00 | 72105 | 83579 7 | 18:34.30 | 3:24.22 | 83580 | 98901 8 | 21:58.52 | 3:26.00 | 98902 | 114351 9 | 25:24.52 | 3:15.19 | 114352 | 128995 10 | 28:39.71 | 4:10.00 | 128996 | 147745 11 | 32:49.71 | 2:52.00 | 147746 | 160645 12 | 35:41.71 | 4:10.43 | 160646 | 179438 13 | 39:52.39 | 4:03.66 | 179439 | 197729 14 | 43:56.30 | 4:00.30 | 197730 | 215759 15 | 47:56.60 | 1:47.13 | 215760 | 223797
Трек 1
Имя файла C:\Users\Антон\Downloads\Музыка\Руставели\2019 - Настоящее настоящее\01 Потери со мной.wav
Длина предзазора 0:00:02.00
Пиковый уровень 99.6 % Скорость извлечения 2.8 X Качество трека 100.0 % CRC теста 69FB5576 CRC копии 69FB5576 Трек не обнаружен в базе AccurateRip Копирование... OK
Трек 2
Имя файла C:\Users\Антон\Downloads\Музыка\Руставели\2019 - Настоящее настоящее\02 Тёмное искусство.wav
Пиковый уровень 99.6 % Скорость извлечения 3.1 X Качество трека 100.0 % CRC теста 3DFB9BEC CRC копии 3DFB9BEC Трек не обнаружен в базе AccurateRip Копирование... OK
Трек 3
Имя файла C:\Users\Антон\Downloads\Музыка\Руставели\2019 - Настоящее настоящее\03 Постой.wav
Пиковый уровень 99.6 % Скорость извлечения 3.4 X Качество трека 100.0 % CRC теста 7B83FB26 CRC копии 7B83FB26 Трек не обнаружен в базе AccurateRip Копирование... OK
Трек 4
Имя файла C:\Users\Антон\Downloads\Музыка\Руставели\2019 - Настоящее настоящее\04 Холодный город ft. Comeband.wav
Пиковый уровень 99.3 % Скорость извлечения 3.5 X Качество трека 100.0 % CRC теста 723CE34D CRC копии 723CE34D Трек не обнаружен в базе AccurateRip Копирование... OK
Трек 5
Имя файла C:\Users\Антон\Downloads\Музыка\Руставели\2019 - Настоящее настоящее\05 Кузьминки.wav
Пиковый уровень 99.6 % Скорость извлечения 2.0 X Качество трека 100.0 % CRC теста EC488AA9 CRC копии EC488AA9 Трек не обнаружен в базе AccurateRip Копирование... OK
Трек 6
Имя файла C:\Users\Антон\Downloads\Музыка\Руставели\2019 - Настоящее настоящее\06 Neodog.wav
Пиковый уровень 99.3 % Скорость извлечения 2.5 X Качество трека 100.0 % CRC теста 15D575B5 CRC копии 15D575B5 Трек не обнаружен в базе AccurateRip Копирование... OK
Трек 7
Имя файла C:\Users\Антон\Downloads\Музыка\Руставели\2019 - Настоящее настоящее\07 Чёрная полоса ft. Макс Safronov.wav
Пиковый уровень 99.3 % Скорость извлечения 2.9 X Качество трека 100.0 % CRC теста 41355E91 CRC копии 41355E91 Трек не обнаружен в базе AccurateRip Копирование... OK
Трек 8
Имя файла C:\Users\Антон\Downloads\Музыка\Руставели\2019 - Настоящее настоящее\08 Бегущий за ветром ft. Ян Sun.wav
Пиковый уровень 100.0 % Скорость извлечения 4.2 X Качество трека 100.0 % CRC теста DD10E323 CRC копии DD10E323 Трек не обнаружен в базе AccurateRip Копирование... OK
Трек 9
Имя файла C:\Users\Антон\Downloads\Музыка\Руставели\2019 - Настоящее настоящее\09 Настоящее настоящее.wav
Пиковый уровень 99.3 % Скорость извлечения 1.8 X Качество трека 100.0 % CRC теста 9AEE68C7 CRC копии 9AEE68C7 Трек не обнаружен в базе AccurateRip Копирование... OK
Трек 10
Имя файла C:\Users\Антон\Downloads\Музыка\Руставели\2019 - Настоящее настоящее\10 Избавь от боли.wav
Пиковый уровень 99.6 % Скорость извлечения 4.0 X Качество трека 99.9 % CRC теста DBF4E72F CRC копии DBF4E72F Трек не обнаружен в базе AccurateRip Копирование... OK
Трек 11
Имя файла C:\Users\Антон\Downloads\Музыка\Руставели\2019 - Настоящее настоящее\11 Труп твоего врага.wav
Пиковый уровень 100.0 % Скорость извлечения 1.6 X Качество трека 99.9 % CRC теста 1232A3E8 CRC копии 1232A3E8 Трек не обнаружен в базе AccurateRip Копирование... OK
Трек 12
Имя файла C:\Users\Антон\Downloads\Музыка\Руставели\2019 - Настоящее настоящее\12 Не вернуть ft. Ян Sun, Макс Safronov.wav
Пиковый уровень 99.3 % Скорость извлечения 2.1 X Качество трека 100.0 % CRC теста 4A5440DE CRC копии 4A5440DE Трек не обнаружен в базе AccurateRip Копирование... OK
Трек 13
Имя файла C:\Users\Антон\Downloads\Музыка\Руставели\2019 - Настоящее настоящее\13 Ночь.wav
Пиковый уровень 100.0 % Скорость извлечения 2.2 X Качество трека 100.0 % CRC теста 9FBA247A CRC копии 9FBA247A Трек не обнаружен в базе AccurateRip Копирование... OK
Трек 14
Имя файла C:\Users\Антон\Downloads\Музыка\Руставели\2019 - Настоящее настоящее\14 Akela (Одинокий).wav
Пиковый уровень 99.6 % Скорость извлечения 2.3 X Качество трека 100.0 % CRC теста 74F314B1 CRC копии 74F314B1 Трек не обнаружен в базе AccurateRip Копирование... OK
Трек 15
Имя файла C:\Users\Антон\Downloads\Музыка\Руставели\2019 - Настоящее настоящее\15 Огни.wav
Пиковый уровень 99.6 % Скорость извлечения 2.0 X Качество трека 100.0 % CRC теста 4C064850 CRC копии 4C064850 Трек не обнаружен в базе AccurateRip Копирование... OK
Ни одного трека нет в базе AccurateRip
Ошибок не произошло
Конец отчёта
---- CUETools DB Plugin V2.1.6
[CTDB TOCID: xOAIDXXMXGifqzhEPDtWpJJ8j9k-] disk not present in databaseSubmit result: xOAIDXXMXGifqzhEPDtWpJJ8j9k- has been uploaded
==== Контрольная сумма отчёта 378C29068254682BD6EAE77B0FD9E518FEBA1CCE5B848B231DE7E90FD0AFDC13 ====
-

CUE

REM GENRE Rap, Hip-HopREM DATE 2019REM DISCID C90BA70FPERFORMER "Руставели"TITLE "Настоящее настоящее"REM COMPOSER ""FILE "01 Потери со мной.wav" WAVE TRACK 01 AUDIO TITLE "Потери со мной" PERFORMER "Руставели" REM COMPOSER "" INDEX 01 00:00:00FILE "02 Тёмное искусство.wav" WAVE TRACK 02 AUDIO TITLE "Тёмное искусство" PERFORMER "Руставели" REM COMPOSER "" INDEX 01 00:00:00FILE "03 Постой.wav" WAVE TRACK 03 AUDIO TITLE "Постой" PERFORMER "Руставели" REM COMPOSER "" INDEX 01 00:00:00FILE "04 Холодный город ft. Comeband.wav" WAVE TRACK 04 AUDIO TITLE "Холодный город ft. Comeband" PERFORMER "Руставели" REM COMPOSER "" INDEX 01 00:00:00FILE "05 Кузьминки.wav" WAVE TRACK 05 AUDIO TITLE "Кузьминки" PERFORMER "Руставели" REM COMPOSER "" INDEX 01 00:00:00FILE "06 Neodog.wav" WAVE TRACK 06 AUDIO TITLE "Neodog" PERFORMER "Руставели" REM COMPOSER "" INDEX 01 00:00:00FILE "07 Чёрная полоса ft. Макс Safronov.wav" WAVE TRACK 07 AUDIO TITLE "Чёрная полоса ft. Макс Safronov" PERFORMER "Руставели" REM COMPOSER "" INDEX 01 00:00:00FILE "08 Бегущий за ветром ft. Ян Sun.wav" WAVE TRACK 08 AUDIO TITLE "Бегущий за ветром ft. Ян Sun" PERFORMER "Руставели" REM COMPOSER "" INDEX 01 00:00:00FILE "09 Настоящее настоящее.wav" WAVE TRACK 09 AUDIO TITLE "Настоящее настоящее" PERFORMER "Руставели" REM COMPOSER "" INDEX 01 00:00:00FILE "10 Избавь от боли.wav" WAVE TRACK 10 AUDIO TITLE "Избавь от боли" PERFORMER "Руставели" REM COMPOSER "" INDEX 01 00:00:00FILE "11 Труп твоего врага.wav" WAVE TRACK 11 AUDIO TITLE "Труп твоего врага" PERFORMER "Руставели" REM COMPOSER "" INDEX 01 00:00:00FILE "12 Не вернуть ft. Ян Sun, Макс Safronov.wav" WAVE TRACK 12 AUDIO TITLE "Не вернуть ft. Ян Sun, Макс Safronov" PERFORMER "Руставели" REM COMPOSER "" INDEX 01 00:00:00FILE "13 Ночь.wav" WAVE TRACK 13 AUDIO TITLE "Ночь" PERFORMER "Руставели" REM COMPOSER "" INDEX 01 00:00:00FILE "14 Akela (Одинокий).wav" WAVE TRACK 14 AUDIO TITLE "Akela (Одинокий)" PERFORMER "Руставели" REM COMPOSER "" INDEX 01 00:00:00FILE "15 Огни.wav" WAVE TRACK 15 AUDIO TITLE "Огни" PERFORMER "Руставели" REM COMPOSER "" INDEX 01 00:00:00
-
[ru-zerkalo.org]_t_5724925
Torrent: Registered ·  [ 2019-05-03 00:36 ] ·  7c95f6bd68ff32648a854d616bdc749ac0749ed5

14 KB

Status: checked
Completed: 0 times
Size: 313 MB
Rating: 
(Votes: 0)
Say thanks: 0  Thanks
 
[Profile] [PM]
Display posts from previous:    
Reply to topic

The time now is: Today 02:29

All times are GMT + 7 Hours



You cannot post new topics in this forum
You cannot reply to topics in this forum
You cannot edit your posts in this forum
You cannot delete your posts in this forum
You cannot vote in polls in this forum
You cannot attach files in this forum
You can download files in this forum