Register · 
Username: Password:
 ·  Forgot password?

[DSD][OF] Nancy Wilson with the Cannonball Adderley Quintet (Pure DSD) - 1967/2018 (Jazz - Combos) [DSD128]

Reply to topic
DL-List and Torrent activity [Update пиров]
Size:  3.5 GB   |    Registered:  9 months 15 days   |    Completed:  1 time

Seeder not seen: 8 months 21 day

 
   
 
 
 
Author Message

ANTON1404 ®

Gender:

Longevity: 6 years 4 months

Posts: 19017

Post 04-May-2019 12:58

[Quote]

Nancy Wilson/Cannonball Adderley- Формат записи/Источник записи: [DSD][OF]
Наличие водяных знаков: Нет
Издание: Pure DSD
Год издания/переиздания диска: 1961/2018
Жанр: Jazz - Combos
Издатель (лейбл): HDTT
Продолжительность: 00:44:25
Наличие сканов в содержимом раздачи: Буклет PDF
Треклист:
01 - Save Your Love For Me (2:46)
02 - Teaneck (4:30)
03 - Never Will I Marry (2:20)
04 - I Can't Get Started (4:57)
05 - The Old Country (3:01)
06 - One Man's Dream (5:11)
07 - Happy Talk (2:26)
08 - Never Say Yes (3:58)
09 - The Masquerade Is Over (4:18)
10 - Unit 7 (6:05)
11 - A Sleepin' Bee (2:35)
12 - Little Unhappy Boy (2:18)
Контейнер: DFF (*.dsf)
Тип рипа: tracks
Разрядность: 128(5,6 MHz/1 Bit)
Формат: DSD128
Количество каналов: 2.0

Official DR value: DR11

foobar2000 1.4.3 / Dynamic Range Meter 1.1.1log date: 2019-05-02 11:44:48
--------------------------------------------------------------------------------Analyzed: Nancy Wilson, Cannball Adderley Quintet / Nancy Wilson / Cannonball Adderley--------------------------------------------------------------------------------
DR Peak RMS Duration Track--------------------------------------------------------------------------------DR10 -6.68 dB -22.38 dB 2:46 01-Save Your Love For MeDR12 -5.92 dB -19.95 dB 4:30 02-TeaneckDR10 -7.50 dB -22.42 dB 2:20 03-Never Will I MarryDR11 -7.83 dB -23.19 dB 4:57 04-I Can't Get StartedDR11 -8.36 dB -24.18 dB 3:01 05-The Old CountryDR13 -6.73 dB -22.31 dB 5:11 06-One Man's DreamDR11 -7.02 dB -21.60 dB 2:26 07-Happy TalkDR13 -5.81 dB -23.00 dB 3:58 08-Never Say YesDR13 -6.51 dB -25.70 dB 4:18 09-The Masquerade Is OverDR12 -7.04 dB -21.42 dB 6:05 10- Unit 7DR12 -9.95 dB -26.29 dB 2:35 11-A Sleepin' BeeDR11 -5.68 dB -21.54 dB 2:18 12-Little Unhappy Boy--------------------------------------------------------------------------------
Number of tracks: 12Official DR value: DR11
Samplerate: 5644800 Hz / PCM Samplerate: 176400 HzChannels: 2Bits per sample: 1Bitrate: 11290 kbpsCodec: DSD128================================================================================

Спектры частот

Состав

VocalsNancy Wilson
Alto SaxophoneCannonball Adderley
BassSam Jones
CornetNat Adderley
DrumsLouis Hayes
PianoJoe Zawinul
Доп. информация: Mastered in DSD256
Recording Info: Transferred from a 15ips 2-track tape
Producer – Andy Wiswell, Tom Morgan
Recorded in 1961 by Capitol Records
-Источник (релизер): High Definition Tape Transfers
[ru-zerkalo.org]_t_5727335
Torrent: Registered ·  [ 2019-05-04 12:58 ] ·  6fba0b5a97ca7f1a7e6369c4ba3e1c0afc8865c7

19 KB

Status: checked
Completed: 1 times
Size: 3.5 GB
Rating: 
(Votes: 0)
Say thanks: 0  Thanks
 
Похожие темы
[Profile] [PM]
Display posts from previous:    
Reply to topic

The time now is: Today 01:30

All times are GMT + 7 Hours



You cannot post new topics in this forum
You cannot reply to topics in this forum
You cannot edit your posts in this forum
You cannot delete your posts in this forum
You cannot vote in polls in this forum
You cannot attach files in this forum
You can download files in this forum