Register · 
Username: Password:
 ·  Forgot password?

[DTSCD][UP] Ashnaia Project - Sacred Silence - 2018 (Psychill, Psydub, Downtempo)

Reply to topic
DL-List and Torrent activity [Update пиров]
Size:  711 MB   |    Registered:  7 months 5 days   |    Completed:  0 times

Seeder not seen: Never

 
   
 
 
 
Author Message

manic-manic ®

Gender:

Longevity: 6 years 2 months

Posts: 13804

Post 04-May-2019 22:26

[Quote]

Ashnaia Project - Sacred Silence DTS UPMix
Формат записи/Источник записи: [DTSCD][UP]
Наличие водяных знаков: Нет
Год издания/переиздания диска: 2018
Жанр: Psychill, Psydub, Downtempo
Издатель (лейбл): Ashnaia Project
Продолжительность: 01:10:17
Наличие сканов в содержимом раздачи: Только обложка альбома
Треклист:
01. Devoted in Silence (06:47)
02. Who are You (09:14)
03. Dreams of Hallucinations (06:34)
04. The Other Side (07:44)
05. Lost in Planet Earth (07:34)
06. Walking on Mushrooms (07:25)
07. Dance of the Goddesses (06:08)
08. Mysteries of the Human Nature (07:44)
09. Psychedelic Emotions (05:46)
10. Silk and Spices (05:21)
Контейнер: WAV(*.wav)
Тип рипа: tracks
Разрядность: 16/44,1
Формат: DTS
Количество каналов: 5.1
Битрейт аудио: 1411 kbps

DR-лог

foobar2000 1.4.2 / Dynamic Range Meter 1.1.1log date: 2019-05-02 18:06:10
--------------------------------------------------------------------------------Analyzed: ? / ?--------------------------------------------------------------------------------
DR Peak RMS Duration Track--------------------------------------------------------------------------------DR8 -1.75 dB -12.00 dB 6:47 ?-01. Ashnaia Project - Devoted in Silence DTSDR8 -2.32 dB -12.00 dB 9:14 ?-02. Ashnaia Project - Who Are You DTSDR8 -0.85 dB -12.00 dB 6:34 ?-03. Ashnaia Project - Dreams of Hallucinations DTSDR8 -1.92 dB -12.00 dB 7:44 ?-04. Ashnaia Project - The Other Side DTSDR8 -1.55 dB -12.00 dB 7:34 ?-05. Ashnaia Project - Lost in Planet Earth DTSDR9 -0.34 dB -12.00 dB 7:26 ?-06. Ashnaia Project - Walking on Mushrooms DTSDR7 -0.77 dB -12.00 dB 6:08 ?-07. Ashnaia Project - Dance of the Goddesses DTSDR9 -1.85 dB -12.00 dB 7:44 ?-08. Ashnaia Project - Misteries of the Human Nature DTSDR8 -1.94 dB -12.00 dB 5:47 ?-09. Ashnaia Project - Psychedelic Emotions DTSDR8 -1.55 dB -12.00 dB 5:22 ?-10. Ashnaia Project - Silk and Spices DTS--------------------------------------------------------------------------------
Number of tracks: 10Official DR value: DR8
Samplerate: 44100 HzChannels: 6Bits per sample: 16Bitrate: 1411 kbpsCodec: DTS================================================================================
Источник (релизер): WEB-релиз
Доп. информация: DJ S.A.W. DTS Upmix
Метод получения апмикса:
ручное выделение фазо-частотных фрагментов фонограммы с помощью функции CCE Adobe Audition
мультиканальный мастеринг – Аdobe Audition (встроенными эффектами и плагинами Waves, iZotope,
Starplugs и т.п.)
[ru-zerkalo.org]_t_5726650
Torrent: Registered ·  [ 2019-05-04 22:24 ] ·  d0ef4eb4f66364b8c370be32851d65ee01b8ff44

15 KB

Status: checked
Completed: 0 times
Size: 711 MB
Rating: 
(Votes: 0)
Say thanks: 0  Thanks
 
Похожие темы
[Profile] [PM]
Display posts from previous:    
Reply to topic

The time now is: Today 02:33

All times are GMT + 7 Hours



You cannot post new topics in this forum
You cannot reply to topics in this forum
You cannot edit your posts in this forum
You cannot delete your posts in this forum
You cannot vote in polls in this forum
You cannot attach files in this forum
You can download files in this forum