Register · 
Username: Password:
 ·  Forgot password?

(Hip-Hop, Rap) [CD] Руставели - Дискография (7 альбомов) (2008-2019), ALAC (tracks+.cue), lossless

Reply to topic
DL-List and Torrent activity [Update пиров]
Size:  2.59 GB   |    Registered:  8 months 18 days   |    Completed:  0 times

Seeder not seen: Never

 
   
 
 
 
Author Message

Dimas28 ®

Gender:

Longevity: 6 years 3 months

Posts: 23826

Post 05-May-2019 19:13

[Quote]

Руставели / Дискография
Жанр: Hip-Hop, Rap
Носитель: CD
Страна-производитель диска: Россия
Год издания: 2008-2019
Страна исполнителя (группы): Россия
Аудио кодек: ALAC (*.m4a)
Тип рипа: tracks+.cue
Программа-конвертер: Xrecode II; Собственный рип (EAC)
Битрейт аудио: lossless
Наличие сканов в содержимом раздачи: да (от You-Rock Man)
Тексты: вшиты
Источник : Собственные диски и (пополам):
Источник

2008 - Необходимое одиночество (альбом стихов) (00:39:25)

Издатель (лейбл): ООО «Монолит-Рекордс»
Номер по каталогу: MT 715391-713-1
Треклист:
01. Лучше, чем прежде...
02. Дверь
03. Гордыня Великих
04. Огонь времени
05. Слепой музыкант
06. Они продали воздух...
07. М.А.Е.
08. Скованность мысли
09. Молекула
10. Прощай...
11. Под рёбрами жжёт...
12. Что мне сказать тебе сейчас?...
13. Брак
14. Alone...
15. Сон
16. Пепел (Ты хочешь боли...)
17. Неловкость ума
18. Я в дурке
19. Сверху
20. Очевидно
21. Я видел его мгновение
22. Снегом
23. Ты умираешь на моих глазах...
24. Приди ко мне
25. 2 Косяка
26. Увы
27. На волю!
28. Мои глаза
29. След
30. Зеркало заднего вида
31. Песня о Друге (при уч. Нелегал)
32. Нет Меня (при уч. Окна)
33. Человек (при уч. МанифестЪ и Санчес)

Лог создания рипа

Exact Audio Copy V1.0 beta 3 from 29. August 2011
Отчёт EAC об извлечении, выполненном 21. июня 2014, 19:49
Руставели / Необходимое одиночество (альбом стихов)
Дисковод: HL-DT-STDVDRAM GU61N Adapter: 2 ID: 0
Режим чтения : ДостоверностьИспользование точного потока : ДаОтключение кэша аудио : ДаИспользование указателей C2 : Нет
Коррекция смещения при чтении : 6Способность читать области Lead-in и Lead-out : НетЗаполнение пропущенных сэмплов тишиной : ДаУдаление блоков с тишиной в начале и конце : НетПри вычислениях CRC использовались нулевые сэмплы : ДаИнтерфейс : Встроенный Win32-интерфейс для Win NT/2000Обработка зазоров : Добавлено к предыдущему треку
Выходной формат : Пользовательский кодировщикВыбранный битрейт : 128 kBit/sКачество : ВысокийДобавление ID3-тега : НетУтилита сжатия : C:\Program Files (x86)\Exact Audio Copy\Flac\flac.exeДополнительные параметры : -V -8 -T "Genre=%genre%" -T "Artist=%artist%" -T "Title=%title%" -T "Album=%albumtitle%" -T "Date=%year%" -T "Tracknumber=%tracknr%" %source%
TOC извлечённого CD
Трек | Старт | Длительность | Начальный сектор | Конечный сектор --------------------------------------------------------------------- 1 | 0:00.00 | 0:27.28 | 0 | 2052 2 | 0:27.28 | 0:36.52 | 2053 | 4804 3 | 1:04.05 | 0:38.06 | 4805 | 7660 4 | 1:42.11 | 0:55.12 | 7661 | 11797 5 | 2:37.23 | 1:39.00 | 11798 | 19222 6 | 4:16.23 | 0:47.66 | 19223 | 22813 7 | 5:04.14 | 0:50.21 | 22814 | 26584 8 | 5:54.35 | 0:40.71 | 26585 | 29655 9 | 6:35.31 | 0:51.00 | 29656 | 33480 10 | 7:26.31 | 0:50.42 | 33481 | 37272 11 | 8:16.73 | 1:15.22 | 37273 | 42919 12 | 9:32.20 | 1:29.38 | 42920 | 49632 13 | 11:01.58 | 0:18.19 | 49633 | 51001 14 | 11:20.02 | 0:52.70 | 51002 | 54971 15 | 12:12.72 | 1:17.33 | 54972 | 60779 16 | 13:30.30 | 0:36.21 | 60780 | 63500 17 | 14:06.51 | 0:57.47 | 63501 | 67822 18 | 15:04.23 | 1:39.00 | 67823 | 75247 19 | 16:43.23 | 1:41.25 | 75248 | 82847 20 | 18:24.48 | 0:49.54 | 82848 | 86576 21 | 19:14.27 | 1:48.24 | 86577 | 94700 22 | 21:02.51 | 0:46.40 | 94701 | 98190 23 | 21:49.16 | 0:43.31 | 98191 | 101446 24 | 22:32.47 | 1:10.74 | 101447 | 106770 25 | 23:43.46 | 0:55.10 | 106771 | 110905 26 | 24:38.56 | 0:49.24 | 110906 | 114604 27 | 25:28.05 | 0:55.34 | 114605 | 118763 28 | 26:23.39 | 0:34.33 | 118764 | 121346 29 | 26:57.72 | 0:39.55 | 121347 | 124326 30 | 27:37.52 | 1:16.39 | 124327 | 130065 31 | 28:54.16 | 2:56.30 | 130066 | 143295 32 | 31:50.46 | 3:06.30 | 143296 | 157275 33 | 34:57.01 | 4:28.54 | 157276 | 177429 34 | 41:57.55 | 1:32.39 | 188830 | 195768
Трек 1
Имя файла C:\Users\Я\Desktop\Руставели - Необходимое одиночество (альбом стихов) (2008, ООО ''Монолит-Рекордс'', MT 715391-713-1)\01 Лучше, чем прежде....wav
Длина предзазора 0:00:02.00
Пиковый уровень 100.0 % Скорость извлечения 0.5 X Качество трека 100.0 % CRC теста 625BF495 CRC копии 625BF495 Копирование... OK
Трек 2
Имя файла C:\Users\Я\Desktop\Руставели - Необходимое одиночество (альбом стихов) (2008, ООО ''Монолит-Рекордс'', MT 715391-713-1)\02 Дверь.wav
Длина предзазора 0:00:01.00
Пиковый уровень 100.0 % Скорость извлечения 0.6 X Качество трека 100.0 % CRC теста D1AB162D CRC копии D1AB162D Копирование... OK
Трек 3
Имя файла C:\Users\Я\Desktop\Руставели - Необходимое одиночество (альбом стихов) (2008, ООО ''Монолит-Рекордс'', MT 715391-713-1)\03 Гордыня Великих.wav
Длина предзазора 0:00:01.00
Пиковый уровень 100.0 % Скорость извлечения 0.6 X Качество трека 100.0 % CRC теста FF71AA25 CRC копии FF71AA25 Копирование... OK
Трек 4
Имя файла C:\Users\Я\Desktop\Руставели - Необходимое одиночество (альбом стихов) (2008, ООО ''Монолит-Рекордс'', MT 715391-713-1)\04 Огонь времени.wav
Длина предзазора 0:00:01.00
Пиковый уровень 100.0 % Скорость извлечения 0.7 X Качество трека 100.0 % CRC теста 44BB33F7 CRC копии 44BB33F7 Копирование... OK
Трек 5
Имя файла C:\Users\Я\Desktop\Руставели - Необходимое одиночество (альбом стихов) (2008, ООО ''Монолит-Рекордс'', MT 715391-713-1)\05 Слепой музыкант.wav
Длина предзазора 0:00:01.00
Пиковый уровень 100.0 % Скорость извлечения 1.0 X Качество трека 100.0 % CRC теста 377498F7 CRC копии 377498F7 Копирование... OK
Трек 6
Имя файла C:\Users\Я\Desktop\Руставели - Необходимое одиночество (альбом стихов) (2008, ООО ''Монолит-Рекордс'', MT 715391-713-1)\06 Они продали воздух....wav
Длина предзазора 0:00:01.00
Пиковый уровень 100.0 % Скорость извлечения 0.8 X Качество трека 100.0 % CRC теста 6A51BD20 CRC копии 6A51BD20 Копирование... OK
Трек 7
Имя файла C:\Users\Я\Desktop\Руставели - Необходимое одиночество (альбом стихов) (2008, ООО ''Монолит-Рекордс'', MT 715391-713-1)\07 М.А.Е..wav
Длина предзазора 0:00:01.00
Пиковый уровень 100.0 % Скорость извлечения 0.8 X Качество трека 100.0 % CRC теста 9C6432A0 CRC копии 9C6432A0 Копирование... OK
Трек 8
Имя файла C:\Users\Я\Desktop\Руставели - Необходимое одиночество (альбом стихов) (2008, ООО ''Монолит-Рекордс'', MT 715391-713-1)\08 Скованность мысли.wav
Длина предзазора 0:00:01.00
Пиковый уровень 99.5 % Скорость извлечения 0.7 X Качество трека 100.0 % CRC теста 6A8FBD4C CRC копии 6A8FBD4C Копирование... OK
Трек 9
Имя файла C:\Users\Я\Desktop\Руставели - Необходимое одиночество (альбом стихов) (2008, ООО ''Монолит-Рекордс'', MT 715391-713-1)\09 Молекула.wav
Длина предзазора 0:00:01.00
Пиковый уровень 99.5 % Скорость извлечения 0.8 X Качество трека 100.0 % CRC теста E449FAC9 CRC копии E449FAC9 Копирование... OK
Трек 10
Имя файла C:\Users\Я\Desktop\Руставели - Необходимое одиночество (альбом стихов) (2008, ООО ''Монолит-Рекордс'', MT 715391-713-1)\10 Прощай....wav
Длина предзазора 0:00:01.00
Пиковый уровень 100.0 % Скорость извлечения 0.8 X Качество трека 100.0 % CRC теста 367010D4 CRC копии 367010D4 Копирование... OK
Трек 11
Имя файла C:\Users\Я\Desktop\Руставели - Необходимое одиночество (альбом стихов) (2008, ООО ''Монолит-Рекордс'', MT 715391-713-1)\11 Под рёбрами жжёт....wav
Длина предзазора 0:00:01.00
Пиковый уровень 84.5 % Скорость извлечения 1.0 X Качество трека 100.0 % CRC теста A44A88F5 CRC копии A44A88F5 Копирование... OK
Трек 12
Имя файла C:\Users\Я\Desktop\Руставели - Необходимое одиночество (альбом стихов) (2008, ООО ''Монолит-Рекордс'', MT 715391-713-1)\12 Что мне сказать тебе сейчас....wav
Длина предзазора 0:00:01.00
Пиковый уровень 95.2 % Скорость извлечения 1.1 X Качество трека 100.0 % CRC теста 08FFFFCA CRC копии 08FFFFCA Копирование... OK
Трек 13
Имя файла C:\Users\Я\Desktop\Руставели - Необходимое одиночество (альбом стихов) (2008, ООО ''Монолит-Рекордс'', MT 715391-713-1)\13 Брак.wav
Длина предзазора 0:00:01.00
Пиковый уровень 68.8 % Скорость извлечения 0.3 X Качество трека 99.4 % CRC теста D3658B82 CRC копии D3658B82 Копирование... OK
Трек 14
Имя файла C:\Users\Я\Desktop\Руставели - Необходимое одиночество (альбом стихов) (2008, ООО ''Монолит-Рекордс'', MT 715391-713-1)\14 Alone....wav
Длина предзазора 0:00:01.00
Пиковый уровень 88.0 % Скорость извлечения 0.9 X Качество трека 100.0 % CRC теста 729314AA CRC копии 729314AA Копирование... OK
Трек 15
Имя файла C:\Users\Я\Desktop\Руставели - Необходимое одиночество (альбом стихов) (2008, ООО ''Монолит-Рекордс'', MT 715391-713-1)\15 Сон.wav
Длина предзазора 0:00:01.00
Пиковый уровень 97.0 % Скорость извлечения 1.1 X Качество трека 100.0 % CRC теста 88903EC9 CRC копии 88903EC9 Копирование... OK
Трек 16
Имя файла C:\Users\Я\Desktop\Руставели - Необходимое одиночество (альбом стихов) (2008, ООО ''Монолит-Рекордс'', MT 715391-713-1)\16 Пепел (Ты хочешь боли...).wav
Длина предзазора 0:00:01.00
Пиковый уровень 100.0 % Скорость извлечения 0.8 X Качество трека 100.0 % CRC теста 6A8B9C69 CRC копии 6A8B9C69 Копирование... OK
Трек 17
Имя файла C:\Users\Я\Desktop\Руставели - Необходимое одиночество (альбом стихов) (2008, ООО ''Монолит-Рекордс'', MT 715391-713-1)\17 Неловкость ума.wav
Длина предзазора 0:00:01.00
Пиковый уровень 100.0 % Скорость извлечения 1.0 X Качество трека 100.0 % CRC теста 4E1B0A2A CRC копии 4E1B0A2A Копирование... OK
Трек 18
Имя файла C:\Users\Я\Desktop\Руставели - Необходимое одиночество (альбом стихов) (2008, ООО ''Монолит-Рекордс'', MT 715391-713-1)\18 Я в дурке.wav
Длина предзазора 0:00:01.00
Пиковый уровень 99.7 % Скорость извлечения 1.3 X Качество трека 100.0 % CRC теста E1029B95 CRC копии E1029B95 Копирование... OK
Трек 19
Имя файла C:\Users\Я\Desktop\Руставели - Необходимое одиночество (альбом стихов) (2008, ООО ''Монолит-Рекордс'', MT 715391-713-1)\19 Сверху.wav
Длина предзазора 0:00:01.00
Пиковый уровень 59.9 % Скорость извлечения 1.3 X Качество трека 100.0 % CRC теста 9809A6B5 CRC копии 9809A6B5 Копирование... OK
Трек 20
Имя файла C:\Users\Я\Desktop\Руставели - Необходимое одиночество (альбом стихов) (2008, ООО ''Монолит-Рекордс'', MT 715391-713-1)\20 Очевидно.wav
Длина предзазора 0:00:01.00
Пиковый уровень 89.8 % Скорость извлечения 1.0 X Качество трека 100.0 % CRC теста B19FB056 CRC копии B19FB056 Копирование... OK
Трек 21
Имя файла C:\Users\Я\Desktop\Руставели - Необходимое одиночество (альбом стихов) (2008, ООО ''Монолит-Рекордс'', MT 715391-713-1)\21 Я видел его мгновение.wav
Длина предзазора 0:00:01.00
Пиковый уровень 100.0 % Скорость извлечения 1.4 X Качество трека 100.0 % CRC теста 4DCE92F9 CRC копии 4DCE92F9 Копирование... OK
Трек 22
Имя файла C:\Users\Я\Desktop\Руставели - Необходимое одиночество (альбом стихов) (2008, ООО ''Монолит-Рекордс'', MT 715391-713-1)\22 Снегом.wav
Длина предзазора 0:00:01.00
Пиковый уровень 99.5 % Скорость извлечения 1.1 X Качество трека 100.0 % CRC теста D96B2F9E CRC копии D96B2F9E Копирование... OK
Трек 23
Имя файла C:\Users\Я\Desktop\Руставели - Необходимое одиночество (альбом стихов) (2008, ООО ''Монолит-Рекордс'', MT 715391-713-1)\23 Ты умираешь на моих глазах....wav
Длина предзазора 0:00:01.00
Пиковый уровень 100.0 % Скорость извлечения 1.0 X Качество трека 100.0 % CRC теста 2468169F CRC копии 2468169F Копирование... OK
Трек 24
Имя файла C:\Users\Я\Desktop\Руставели - Необходимое одиночество (альбом стихов) (2008, ООО ''Монолит-Рекордс'', MT 715391-713-1)\24 Приди ко мне.wav
Длина предзазора 0:00:01.00
Пиковый уровень 100.0 % Скорость извлечения 1.2 X Качество трека 100.0 % CRC теста 9CB8EC05 CRC копии 9CB8EC05 Копирование... OK
Трек 25
Имя файла C:\Users\Я\Desktop\Руставели - Необходимое одиночество (альбом стихов) (2008, ООО ''Монолит-Рекордс'', MT 715391-713-1)\25 2 Косяка.wav
Длина предзазора 0:00:01.00
Пиковый уровень 100.0 % Скорость извлечения 1.1 X Качество трека 100.0 % CRC теста 2AE55B18 CRC копии 2AE55B18 Копирование... OK
Трек 26
Имя файла C:\Users\Я\Desktop\Руставели - Необходимое одиночество (альбом стихов) (2008, ООО ''Монолит-Рекордс'', MT 715391-713-1)\26 Увы.wav
Длина предзазора 0:00:01.00
Пиковый уровень 99.9 % Скорость извлечения 1.1 X Качество трека 100.0 % CRC теста F8E6E5C2 CRC копии F8E6E5C2 Копирование... OK
Трек 27
Имя файла C:\Users\Я\Desktop\Руставели - Необходимое одиночество (альбом стихов) (2008, ООО ''Монолит-Рекордс'', MT 715391-713-1)\27 На волю!.wav
Длина предзазора 0:00:01.00
Пиковый уровень 100.0 % Скорость извлечения 0.8 X Качество трека 99.8 % CRC теста 4EA50A15 CRC копии 4EA50A15 Копирование... OK
Трек 28
Имя файла C:\Users\Я\Desktop\Руставели - Необходимое одиночество (альбом стихов) (2008, ООО ''Монолит-Рекордс'', MT 715391-713-1)\28 Мои глаза.wav
Длина предзазора 0:00:01.00
Пиковый уровень 81.1 % Скорость извлечения 0.9 X Качество трека 100.0 % CRC теста 03186902 CRC копии 03186902 Копирование... OK
Трек 29
Имя файла C:\Users\Я\Desktop\Руставели - Необходимое одиночество (альбом стихов) (2008, ООО ''Монолит-Рекордс'', MT 715391-713-1)\29 След.wav
Длина предзазора 0:00:01.00
Пиковый уровень 78.3 % Скорость извлечения 1.0 X Качество трека 100.0 % CRC теста 4EE6BC07 CRC копии 4EE6BC07 Копирование... OK
Трек 30
Имя файла C:\Users\Я\Desktop\Руставели - Необходимое одиночество (альбом стихов) (2008, ООО ''Монолит-Рекордс'', MT 715391-713-1)\30 Зеркало заднего вида.wav
Длина предзазора 0:00:01.00
Пиковый уровень 100.0 % Скорость извлечения 1.4 X Качество трека 100.0 % CRC теста BE5343F4 CRC копии BE5343F4 Копирование... OK
Трек 31
Имя файла C:\Users\Я\Desktop\Руставели - Необходимое одиночество (альбом стихов) (2008, ООО ''Монолит-Рекордс'', MT 715391-713-1)\31 Песня о Друге (при уч. Нелегал).wav
Длина предзазора 0:00:01.00
Пиковый уровень 100.0 % Скорость извлечения 1.8 X Качество трека 100.0 % CRC теста 2DD82FA0 CRC копии 2DD82FA0 Копирование... OK
Трек 32
Имя файла C:\Users\Я\Desktop\Руставели - Необходимое одиночество (альбом стихов) (2008, ООО ''Монолит-Рекордс'', MT 715391-713-1)\32 Нет Меня (при уч. Окна).wav
Длина предзазора 0:00:01.00
Пиковый уровень 100.0 % Скорость извлечения 1.8 X Качество трека 100.0 % CRC теста 4661717F CRC копии 4661717F Копирование... OK
Трек 33
Имя файла C:\Users\Я\Desktop\Руставели - Необходимое одиночество (альбом стихов) (2008, ООО ''Монолит-Рекордс'', MT 715391-713-1)\33 Человек (при уч. МанифестЪ и Санчес).wav
Длина предзазора 0:00:01.00
Пиковый уровень 99.5 % Скорость извлечения 2.0 X Качество трека 100.0 % CRC теста BC8A1308 CRC копии BC8A1308 Копирование... OK
Ошибок не произошло
Конец отчёта
==== Контрольная сумма отчёта 8378A974EDDE979E1B53C1FBB98F787B872533659B2D97414D9F46F444F40F8F ====

Содержание индексной карты (.CUE)

REM GENRE "Hip-Hop"REM DATE 2008TITLE "Необходимое одиночество (альбом стихов)"FILE "01 Лучше, чем прежде....m4a" WAVE TRACK 01 AUDIO PERFORMER "Руставели" TITLE "Лучше, чем прежде..." INDEX 01 00:00:00FILE "02 Дверь.m4a" WAVE TRACK 02 AUDIO PERFORMER "Руставели" TITLE "Дверь" INDEX 01 00:00:00FILE "03 Гордыня Великих.m4a" WAVE TRACK 03 AUDIO PERFORMER "Руставели" TITLE "Гордыня Великих" INDEX 01 00:00:00FILE "04 Огонь времени.m4a" WAVE TRACK 04 AUDIO PERFORMER "Руставели" TITLE "Огонь времени" INDEX 01 00:00:00FILE "05 Слепой музыкант.m4a" WAVE TRACK 05 AUDIO PERFORMER "Руставели" TITLE "Слепой музыкант" INDEX 01 00:00:00FILE "06 Они продали воздух....m4a" WAVE TRACK 06 AUDIO PERFORMER "Руставели" TITLE "Они продали воздух..." INDEX 01 00:00:00FILE "07 М.А.Е..m4a" WAVE TRACK 07 AUDIO PERFORMER "Руставели" TITLE "М.А.Е." INDEX 01 00:00:00FILE "08 Скованность мысли.m4a" WAVE TRACK 08 AUDIO PERFORMER "Руставели" TITLE "Скованность мысли" INDEX 01 00:00:00FILE "09 Молекула.m4a" WAVE TRACK 09 AUDIO PERFORMER "Руставели" TITLE "Молекула" INDEX 01 00:00:00FILE "10 Прощай....m4a" WAVE TRACK 10 AUDIO PERFORMER "Руставели" TITLE "Прощай..." INDEX 01 00:00:00FILE "11 Под рёбрами жжёт....m4a" WAVE TRACK 11 AUDIO PERFORMER "Руставели" TITLE "Под рёбрами жжёт..." INDEX 01 00:00:00FILE "12 Что мне сказать тебе сейчас....m4a" WAVE TRACK 12 AUDIO PERFORMER "Руставели" TITLE "Что мне сказать тебе сейчас?..." INDEX 01 00:00:00FILE "13 Брак.m4a" WAVE TRACK 13 AUDIO PERFORMER "Руставели" TITLE "Брак" INDEX 01 00:00:00FILE "14 Alone....m4a" WAVE TRACK 14 AUDIO PERFORMER "Руставели" TITLE "Alone..." INDEX 01 00:00:00FILE "15 Сон.m4a" WAVE TRACK 15 AUDIO PERFORMER "Руставели" TITLE "Сон" INDEX 01 00:00:00FILE "16 Пепел (Ты хочешь боли...).m4a" WAVE TRACK 16 AUDIO PERFORMER "Руставели" TITLE "Пепел (Ты хочешь боли...)" INDEX 01 00:00:00FILE "17 Неловкость ума.m4a" WAVE TRACK 17 AUDIO PERFORMER "Руставели" TITLE "Неловкость ума" INDEX 01 00:00:00FILE "18 Я в дурке.m4a" WAVE TRACK 18 AUDIO PERFORMER "Руставели" TITLE "Я в дурке" INDEX 01 00:00:00FILE "19 Сверху.m4a" WAVE TRACK 19 AUDIO PERFORMER "Руставели" TITLE "Сверху" INDEX 01 00:00:00FILE "20 Очевидно.m4a" WAVE TRACK 20 AUDIO PERFORMER "Руставели" TITLE "Очевидно" INDEX 01 00:00:00FILE "21 Я видел его мгновение.m4a" WAVE TRACK 21 AUDIO PERFORMER "Руставели" TITLE "Я видел его мгновение" INDEX 01 00:00:00FILE "22 Снегом.m4a" WAVE TRACK 22 AUDIO PERFORMER "Руставели" TITLE "Снегом" INDEX 01 00:00:00FILE "23 Ты умираешь на моих глазах....m4a" WAVE TRACK 23 AUDIO PERFORMER "Руставели" TITLE "Ты умираешь на моих глазах..." INDEX 01 00:00:00FILE "24 Приди ко мне.m4a" WAVE TRACK 24 AUDIO PERFORMER "Руставели" TITLE "Приди ко мне" INDEX 01 00:00:00FILE "25 2 Косяка.m4a" WAVE TRACK 25 AUDIO PERFORMER "Руставели" TITLE "2 Косяка" INDEX 01 00:00:00FILE "26 Увы.m4a" WAVE TRACK 26 AUDIO PERFORMER "Руставели" TITLE "Увы" INDEX 01 00:00:00FILE "27 На волю!.m4a" WAVE TRACK 27 AUDIO PERFORMER "Руставели" TITLE "На волю!" INDEX 01 00:00:00FILE "28 Мои глаза.m4a" WAVE TRACK 28 AUDIO PERFORMER "Руставели" TITLE "Мои глаза" INDEX 01 00:00:00FILE "29 След.m4a" WAVE TRACK 29 AUDIO PERFORMER "Руставели" TITLE "След" INDEX 01 00:00:00FILE "30 Зеркало заднего вида.m4a" WAVE TRACK 30 AUDIO PERFORMER "Руставели" TITLE "Зеркало заднего вида" INDEX 01 00:00:00FILE "31 Песня о Друге (при уч. Нелегал).m4a" WAVE TRACK 31 AUDIO PERFORMER "Руставели" TITLE "Песня о Друге (при уч. Нелегал)" INDEX 01 00:00:00FILE "32 Нет Меня (при уч. Окна).m4a" WAVE TRACK 32 AUDIO PERFORMER "Руставели" TITLE "Нет Меня (при уч. Окна)" INDEX 01 00:00:00FILE "33 Человек (при уч. МанифестЪ и Санчес).m4a" WAVE TRACK 33 AUDIO PERFORMER "Руставели" TITLE "Человек (при уч. МанифестЪ и Санчес)" INDEX 01 00:00:00

Лог проверки качества

CUE Corrector v.6.9.12 (build 499)--------------------------------------------------------------------------- / Необходимое одиночество (альбом стихов)
Folder: 1. Необходимое одиночество (альбом стихов) (2008, ООО ''Монолит-Рекордс'', MT 715391-713-1)audio files: 01 Лучше, чем прежде... [00:27.28, ALAC, 44100Hz, Stereo, 16bit; 1,93 MB (2 019 011 bytes)] 02 Дверь [00:36.52, ALAC, 44100Hz, Stereo, 16bit; 2,87 MB (3 006 713 bytes)] 03 Гордыня Великих [00:38.06, ALAC, 44100Hz, Stereo, 16bit; 3,30 MB (3 464 554 bytes)] 04 Огонь времени [00:55.12, ALAC, 44100Hz, Stereo, 16bit; 5,45 MB (5 717 428 bytes)] 05 Слепой музыкант [01:39.00, ALAC, 44100Hz, Stereo, 16bit; 8,11 MB (8 504 797 bytes)] 06 Они продали воздух... [00:47.66, ALAC, 44100Hz, Stereo, 16bit; 4,11 MB (4 311 751 bytes)] 07 М.А.Е. [00:50.21, ALAC, 44100Hz, Stereo, 16bit; 5,96 MB (6 247 839 bytes)] 08 Скованность мысли [00:40.71, ALAC, 44100Hz, Stereo, 16bit; 4,10 MB (4 296 604 bytes)] 09 Молекула [00:51.00, ALAC, 44100Hz, Stereo, 16bit; 4,82 MB (5 055 294 bytes)] 10 Прощай... [00:50.42, ALAC, 44100Hz, Stereo, 16bit; 3,73 MB (3 910 177 bytes)] 11 Под рёбрами жжёт... [01:15.22, ALAC, 44100Hz, Stereo, 16bit; 7,76 MB (8 132 778 bytes)] 12 Что мне сказать тебе сейчас... [01:29.38, ALAC, 44100Hz, Stereo, 16bit; 7,45 MB (7 812 987 bytes)] 13 Брак [00:18.19, ALAC, 44100Hz, Stereo, 16bit; 0,98 MB (1 024 571 bytes)] 14 Alone... [00:52.70, ALAC, 44100Hz, Stereo, 16bit; 4,98 MB (5 220 774 bytes)] 15 Сон [01:17.33, ALAC, 44100Hz, Stereo, 16bit; 8,71 MB (9 128 006 bytes)] 16 Пепел (Ты хочешь боли...) [00:36.21, ALAC, 44100Hz, Stereo, 16bit; 2,94 MB (3 086 741 bytes)] 17 Неловкость ума [00:57.47, ALAC, 44100Hz, Stereo, 16bit; 5,06 MB (5 307 170 bytes)] 18 Я в дурке [01:39.00, ALAC, 44100Hz, Stereo, 16bit; 6,45 MB (6 761 112 bytes)] 19 Сверху [01:41.25, ALAC, 44100Hz, Stereo, 16bit; 8,06 MB (8 453 558 bytes)] 20 Очевидно [00:49.54, ALAC, 44100Hz, Stereo, 16bit; 5,48 MB (5 746 876 bytes)] 21 Я видел его мгновение [01:48.24, ALAC, 44100Hz, Stereo, 16bit; 10,82 MB (11 344 264 bytes)] 22 Снегом [00:46.40, ALAC, 44100Hz, Stereo, 16bit; 3,58 MB (3 756 966 bytes)] 23 Ты умираешь на моих глазах... [00:43.31, ALAC, 44100Hz, Stereo, 16bit; 4,28 MB (4 485 849 bytes)] 24 Приди ко мне [01:10.74, ALAC, 44100Hz, Stereo, 16bit; 7,69 MB (8 062 564 bytes)] 25 2 Косяка [00:55.10, ALAC, 44100Hz, Stereo, 16bit; 5,36 MB (5 615 948 bytes)] 26 Увы [00:49.24, ALAC, 44100Hz, Stereo, 16bit; 4,57 MB (4 793 452 bytes)] 27 На волю! [00:55.34, ALAC, 44100Hz, Stereo, 16bit; 5,12 MB (5 371 113 bytes)] 28 Мои глаза [00:34.33, ALAC, 44100Hz, Stereo, 16bit; 3,12 MB (3 267 444 bytes)] 29 След [00:39.55, ALAC, 44100Hz, Stereo, 16bit; 3,31 MB (3 469 483 bytes)] 30 Зеркало заднего вида [01:16.39, ALAC, 44100Hz, Stereo, 16bit; 6,88 MB (7 212 646 bytes)] 31 Песня о Друге (при уч. Нелегал) [02:56.30, ALAC, 44100Hz, Stereo, 16bit; 20,12 MB (21 099 163 bytes)] 32 Нет Меня (при уч. Окна) [03:06.30, ALAC, 44100Hz, Stereo, 16bit; 18,89 MB (19 805 377 bytes)] 33 Человек (при уч. МанифестЪ и Санчес) [04:28.54, ALAC, 44100Hz, Stereo, 16bit; 32,23 MB (33 798 293 bytes)]
Accuracy: -m8
File 01 Лучше, чем прежде... - unknown [00:27.28]
Detected average hi-boundary frequency : 2.102806e+004 Hz Detected average lo-boundary frequency : 1.474348e+004 Hz Detected average hi-cut frequency : 2.117163e+004 Hz Detected average lo-cut frequency : 2.074148e+004 Hz Maximum probablis boundary frequency : 2.081400e+004 Hz Coefficient of nonlinearity of a phase : 1.347845e+000 First order smothness : 6.562500e-001 Second order smothness : 9.062500e-001
File 02 Дверь - unknown [00:36.52]
Detected average hi-boundary frequency : 2.120586e+004 Hz Detected average lo-boundary frequency : 1.642911e+004 Hz Detected average hi-cut frequency : 2.141914e+004 Hz Detected average lo-cut frequency : 2.010315e+004 Hz Maximum probablis boundary frequency : 2.073400e+004 Hz Coefficient of nonlinearity of a phase : 5.387695e-001 First order smothness : 6.279070e-001 Second order smothness : 9.069767e-001
File 03 Гордыня Великих - 100% CDDA [00:38.06]
Detected average hi-boundary frequency : 2.019780e+004 Hz Detected average lo-boundary frequency : 1.452453e+004 Hz Detected average hi-cut frequency : 2.134291e+004 Hz Detected average lo-cut frequency : 7.760231e+003 Hz Maximum probablis boundary frequency : 2.086300e+004 Hz Coefficient of nonlinearity of a phase : 1.435212e-001 First order smothness : 3.777778e-001 Second order smothness : 5.777778e-001
File 04 Огонь времени - 100% CDDA [00:55.12]
Detected average hi-boundary frequency : 1.959625e+004 Hz Detected average lo-boundary frequency : 1.423268e+004 Hz Detected average hi-cut frequency : 2.060389e+004 Hz Detected average lo-cut frequency : 9.907368e+003 Hz Maximum probablis boundary frequency : 2.084700e+004 Hz Coefficient of nonlinearity of a phase : 1.323143e-001 First order smothness : 4.769231e-001 Second order smothness : 5.846154e-001
File 05 Слепой музыкант - 100% CDDA [01:39.00]
Detected average hi-boundary frequency : 2.076934e+004 Hz Detected average lo-boundary frequency : 1.264756e+004 Hz Detected average hi-cut frequency : 2.157998e+004 Hz Detected average lo-cut frequency : 1.410208e+004 Hz Maximum probablis boundary frequency : 2.098700e+004 Hz Coefficient of nonlinearity of a phase : 1.367114e+000 First order smothness : 4.406780e-001 Second order smothness : 8.135593e-001
File 06 Они продали воздух... - 100% CDDA [00:47.66]
Detected average hi-boundary frequency : 2.054423e+004 Hz Detected average lo-boundary frequency : 1.307111e+004 Hz Detected average hi-cut frequency : 2.072711e+004 Hz Detected average lo-cut frequency : 1.452502e+004 Hz Maximum probablis boundary frequency : 2.189100e+004 Hz Coefficient of nonlinearity of a phase : 1.054147e+000 First order smothness : 4.912281e-001 Second order smothness : 7.368421e-001
File 07 М.А.Е. - 100% CDDA [00:50.21]
Detected average hi-boundary frequency : 2.057146e+004 Hz Detected average lo-boundary frequency : 1.279974e+004 Hz Detected average hi-cut frequency : 2.171634e+004 Hz Detected average lo-cut frequency : 1.349690e+004 Hz Maximum probablis boundary frequency : 2.110000e+004 Hz Coefficient of nonlinearity of a phase : 1.247230e+000 First order smothness : 4.576271e-001 Second order smothness : 4.915254e-001
File 08 Скованность мысли - 100% CDDA [00:40.71]
Detected average hi-boundary frequency : 2.000063e+004 Hz Detected average lo-boundary frequency : 1.495326e+004 Hz Detected average hi-cut frequency : 2.094708e+004 Hz Detected average lo-cut frequency : 1.231227e+004 Hz Maximum probablis boundary frequency : 2.171300e+004 Hz Coefficient of nonlinearity of a phase : 1.520814e+000 First order smothness : 3.958333e-001 Second order smothness : 6.250000e-001
File 09 Молекула - 100% CDDA [00:51.00]
Detected average hi-boundary frequency : 1.989683e+004 Hz Detected average lo-boundary frequency : 1.300859e+004 Hz Detected average hi-cut frequency : 2.158652e+004 Hz Detected average lo-cut frequency : 8.114235e+003 Hz Maximum probablis boundary frequency : 2.129400e+004 Hz Coefficient of nonlinearity of a phase : 9.111365e-001 First order smothness : 5.333333e-001 Second order smothness : 2.833333e-001
File 10 Прощай... - 54% CDDA [00:50.42]
Detected average hi-boundary frequency : 2.022936e+004 Hz Detected average lo-boundary frequency : 1.354855e+004 Hz Detected average hi-cut frequency : 2.069129e+004 Hz Detected average lo-cut frequency : 1.194205e+004 Hz Maximum probablis boundary frequency : 2.197700e+004 Hz Coefficient of nonlinearity of a phase : 2.154643e-001 First order smothness : 5.000000e-001 Second order smothness : 7.586207e-001
File 11 Под рёбрами жжёт... - 99% CDDA [01:15.22]
Detected average hi-boundary frequency : 2.067158e+004 Hz Detected average lo-boundary frequency : 1.451552e+004 Hz Detected average hi-cut frequency : 2.133487e+004 Hz Detected average lo-cut frequency : 9.428114e+003 Hz Maximum probablis boundary frequency : 2.168700e+004 Hz Coefficient of nonlinearity of a phase : 6.904245e-001 First order smothness : 4.943820e-001 Second order smothness : 4.943820e-001
File 12 Что мне сказать тебе сейчас... - 100% CDDA [01:29.38]
Detected average hi-boundary frequency : 2.055631e+004 Hz Detected average lo-boundary frequency : 1.319788e+004 Hz Detected average hi-cut frequency : 2.135987e+004 Hz Detected average lo-cut frequency : 1.175585e+004 Hz Maximum probablis boundary frequency : 2.173500e+004 Hz Coefficient of nonlinearity of a phase : 2.061028e-001 First order smothness : 6.132075e-001 Second order smothness : 5.188679e-001
File 13 Брак - 100% CDDA [00:18.19]
Detected average hi-boundary frequency : 2.002495e+004 Hz Detected average lo-boundary frequency : 1.506489e+004 Hz Detected average hi-cut frequency : 2.172871e+004 Hz Detected average lo-cut frequency : 1.420267e+004 Hz Maximum probablis boundary frequency : 2.122400e+004 Hz Coefficient of nonlinearity of a phase : 1.320578e+000 First order smothness : 4.285714e-001 Second order smothness : 8.571429e-001
File 14 Alone... - 100% CDDA [00:52.70]
Detected average hi-boundary frequency : 2.052468e+004 Hz Detected average lo-boundary frequency : 1.417570e+004 Hz Detected average hi-cut frequency : 2.161978e+004 Hz Detected average lo-cut frequency : 1.103158e+004 Hz Maximum probablis boundary frequency : 2.189600e+004 Hz Coefficient of nonlinearity of a phase : 1.297858e+000 First order smothness : 5.238095e-001 Second order smothness : 3.015873e-001
File 15 Сон - 99% CDDA [01:17.33]
Detected average hi-boundary frequency : 2.007407e+004 Hz Detected average lo-boundary frequency : 1.469714e+004 Hz Detected average hi-cut frequency : 2.146761e+004 Hz Detected average lo-cut frequency : 1.161930e+004 Hz Maximum probablis boundary frequency : 2.189100e+004 Hz Coefficient of nonlinearity of a phase : 1.161769e+000 First order smothness : 4.021739e-001 Second order smothness : 4.673913e-001
File 16 Пепел (Ты хочешь боли...) - 87% CDDA [00:36.21]
Detected average hi-boundary frequency : 2.063567e+004 Hz Detected average lo-boundary frequency : 1.391814e+004 Hz Detected average hi-cut frequency : 2.127777e+004 Hz Detected average lo-cut frequency : 9.376103e+003 Hz Maximum probablis boundary frequency : 2.146600e+004 Hz Coefficient of nonlinearity of a phase : 2.745055e-001 First order smothness : 5.116279e-001 Second order smothness : 6.744186e-001
File 17 Неловкость ума - 100% CDDA [00:57.47]
Detected average hi-boundary frequency : 2.025494e+004 Hz Detected average lo-boundary frequency : 1.186484e+004 Hz Detected average hi-cut frequency : 2.127278e+004 Hz Detected average lo-cut frequency : 1.330127e+004 Hz Maximum probablis boundary frequency : 2.154700e+004 Hz Coefficient of nonlinearity of a phase : 2.207766e-001 First order smothness : 4.705882e-001 Second order smothness : 7.500000e-001
File 18 Я в дурке - 99% CDDA [01:39.00]
Detected average hi-boundary frequency : 2.040862e+004 Hz Detected average lo-boundary frequency : 1.355566e+004 Hz Detected average hi-cut frequency : 2.148049e+004 Hz Detected average lo-cut frequency : 1.281924e+004 Hz Maximum probablis boundary frequency : 2.189600e+004 Hz Coefficient of nonlinearity of a phase : 7.496601e-001 First order smothness : 5.982906e-001 Second order smothness : 6.324786e-001
File 19 Сверху - 99% CDDA [01:41.25]
Detected average hi-boundary frequency : 2.043002e+004 Hz Detected average lo-boundary frequency : 1.351855e+004 Hz Detected average hi-cut frequency : 2.103838e+004 Hz Detected average lo-cut frequency : 1.298688e+004 Hz Maximum probablis boundary frequency : 2.189100e+004 Hz Coefficient of nonlinearity of a phase : 1.872620e-001 First order smothness : 6.363636e-001 Second order smothness : 6.446281e-001
File 20 Очевидно - 99% CDDA [00:49.54]
Detected average hi-boundary frequency : 2.032003e+004 Hz Detected average lo-boundary frequency : 1.804147e+004 Hz Detected average hi-cut frequency : 2.104290e+004 Hz Detected average lo-cut frequency : 1.627416e+004 Hz Maximum probablis boundary frequency : 2.153600e+004 Hz Coefficient of nonlinearity of a phase : 1.882414e-001 First order smothness : 5.762712e-001 Second order smothness : 7.627119e-001
File 21 Я видел его мгновение - 100% CDDA [01:48.24]
Detected average hi-boundary frequency : 2.098638e+004 Hz Detected average lo-boundary frequency : 1.380015e+004 Hz Detected average hi-cut frequency : 2.156413e+004 Hz Detected average lo-cut frequency : 2.069853e+004 Hz Maximum probablis boundary frequency : 2.128300e+004 Hz Coefficient of nonlinearity of a phase : 9.469163e-001 First order smothness : 3.680000e-001 Second order smothness : 9.280000e-001
File 22 Снегом - 100% CDDA [00:46.40]
Detected average hi-boundary frequency : 2.021320e+004 Hz Detected average lo-boundary frequency : 1.228793e+004 Hz Detected average hi-cut frequency : 2.073469e+004 Hz Detected average lo-cut frequency : 1.778028e+004 Hz Maximum probablis boundary frequency : 2.190700e+004 Hz Coefficient of nonlinearity of a phase : 1.868725e+000 First order smothness : 5.090909e-001 Second order smothness : 7.818182e-001
File 23 Ты умираешь на моих глазах... - 100% CDDA [00:43.31]
Detected average hi-boundary frequency : 1.983833e+004 Hz Detected average lo-boundary frequency : 1.201447e+004 Hz Detected average hi-cut frequency : 2.155043e+004 Hz Detected average lo-cut frequency : 9.622706e+003 Hz Maximum probablis boundary frequency : 2.198300e+004 Hz Coefficient of nonlinearity of a phase : 7.454744e-001 First order smothness : 3.725490e-001 Second order smothness : 6.666667e-001
File 24 Приди ко мне - 85% CDDA [01:10.74]
Detected average hi-boundary frequency : 2.070388e+004 Hz Detected average lo-boundary frequency : 1.579798e+004 Hz Detected average hi-cut frequency : 2.099601e+004 Hz Detected average lo-cut frequency : 1.433372e+004 Hz Maximum probablis boundary frequency : 2.104100e+004 Hz Coefficient of nonlinearity of a phase : 6.482563e-002 First order smothness : 5.119048e-001 Second order smothness : 6.785714e-001
File 25 2 Косяка - 100% CDDA [00:55.10]
Detected average hi-boundary frequency : 2.037382e+004 Hz Detected average lo-boundary frequency : 1.515923e+004 Hz Detected average hi-cut frequency : 2.117160e+004 Hz Detected average lo-cut frequency : 1.476348e+004 Hz Maximum probablis boundary frequency : 2.177800e+004 Hz Coefficient of nonlinearity of a phase : 1.256143e+000 First order smothness : 4.769231e-001 Second order smothness : 7.384615e-001
File 26 Увы - 100% CDDA [00:49.24]
Detected average hi-boundary frequency : 2.043569e+004 Hz Detected average lo-boundary frequency : 1.467835e+004 Hz Detected average hi-cut frequency : 2.108984e+004 Hz Detected average lo-cut frequency : 1.051526e+004 Hz Maximum probablis boundary frequency : 2.153600e+004 Hz Coefficient of nonlinearity of a phase : 3.886049e-001 First order smothness : 6.379310e-001 Second order smothness : 5.344828e-001
File 27 На волю! - 92% CDDA [00:55.34]
Detected average hi-boundary frequency : 2.076474e+004 Hz Detected average lo-boundary frequency : 1.465362e+004 Hz Detected average hi-cut frequency : 2.125985e+004 Hz Detected average lo-cut frequency : 1.588893e+004 Hz Maximum probablis boundary frequency : 2.089500e+004 Hz Coefficient of nonlinearity of a phase : 8.969016e-001 First order smothness : 4.393939e-001 Second order smothness : 8.484848e-001
File 28 Мои глаза - 100% CDDA [00:34.33]
Detected average hi-boundary frequency : 2.040012e+004 Hz Detected average lo-boundary frequency : 1.341772e+004 Hz Detected average hi-cut frequency : 2.150288e+004 Hz Detected average lo-cut frequency : 1.081763e+004 Hz Maximum probablis boundary frequency : 2.197200e+004 Hz Coefficient of nonlinearity of a phase : 1.358940e+000 First order smothness : 4.390244e-001 Second order smothness : 5.853659e-001
File 29 След - 100% CDDA [00:39.55]
Detected average hi-boundary frequency : 2.107143e+004 Hz Detected average lo-boundary frequency : 1.844958e+004 Hz Detected average hi-cut frequency : 2.167081e+004 Hz Detected average lo-cut frequency : 2.035886e+004 Hz Maximum probablis boundary frequency : 2.081400e+004 Hz Coefficient of nonlinearity of a phase : 1.068415e+000 First order smothness : 6.595745e-001 Second order smothness : 7.872340e-001
File 30 Зеркало заднего вида - 100% CDDA [01:16.39]
Detected average hi-boundary frequency : 2.049657e+004 Hz Detected average lo-boundary frequency : 1.467234e+004 Hz Detected average hi-cut frequency : 2.075297e+004 Hz Detected average lo-cut frequency : 1.000806e+004 Hz Maximum probablis boundary frequency : 2.162200e+004 Hz Coefficient of nonlinearity of a phase : 1.427482e+000 First order smothness : 4.175824e-001 Second order smothness : 5.934066e-001
File 31 Песня о Друге (при уч. Нелегал) - 100% CDDA [02:56.30]
Detected average hi-boundary frequency : 2.037329e+004 Hz Detected average lo-boundary frequency : 1.358346e+004 Hz Detected average hi-cut frequency : 2.181184e+004 Hz Detected average lo-cut frequency : 1.547864e+004 Hz Maximum probablis boundary frequency : 2.189600e+004 Hz Coefficient of nonlinearity of a phase : 6.287756e-001 First order smothness : 4.708738e-001 Second order smothness : 7.087379e-001
File 32 Нет Меня (при уч. Окна) - 100% CDDA [03:06.30]
Detected average hi-boundary frequency : 2.032255e+004 Hz Detected average lo-boundary frequency : 1.303686e+004 Hz Detected average hi-cut frequency : 2.140299e+004 Hz Detected average lo-cut frequency : 1.267022e+004 Hz Maximum probablis boundary frequency : 2.150400e+004 Hz Coefficient of nonlinearity of a phase : 5.372145e-001 First order smothness : 4.524887e-001 Second order smothness : 5.113122e-001
File 33 Человек (при уч. МанифестЪ и Санчес) - 100% CDDA [04:28.54]
Detected average hi-boundary frequency : 2.027950e+004 Hz Detected average lo-boundary frequency : 1.312341e+004 Hz Detected average hi-cut frequency : 2.104417e+004 Hz Detected average lo-cut frequency : 9.270415e+003 Hz Maximum probablis boundary frequency : 2.189100e+004 Hz Coefficient of nonlinearity of a phase : 1.382733e+000 First order smothness : 4.503106e-001 Second order smothness : 4.409938e-001
----- Summary: -----These tracks looks like CDDA with probability 100%.------------------------------------------------------------------------
ANALYZER: auCDtect: CD records authenticity detector, version 0.8.2 Copyright (c) 2004 Oleg Berngardt. All rights reserved. Copyright (c) 2004 Alexander Djourik. All rights reserved.
Time elapsed: 14.3 sLog created at February 15, 2015 04:57:40
=== 4E44385F6111CD87F78D2104C2CBD043700EEEA3DF75171431F15913CF0092F8 ===

Скриншот(ы) тегов iTunes

2012 - Начало Света ( 00:54:00)

Издатель (лейбл): Dots Family Records
Треклист:
01. Карт-Бланш (при уч. Санчес и White Hot Ice)
02. Инкубатор (при уч. Нелегал a.k.a. MC L.E.)
03. Ева
04. Ответ (стих)
05. Двойные Стандарты (при уч. Санчес)
06. Капкан (стих)
07. Холодные Огни
08. Искра (при уч. РЕМО)
09. Не Кино (при уч. Алёна)
10. Лучший День (при уч. Маклай)
11. Кожа (при уч. Динайс и Булат)
12. Такая Как Ты (при уч. White Hot Ice)
13. Стали Старше (при уч. VA84, Санчес и Юлия Антонова)
14. Бег от Себя (DotsBand)
15. Начало Света
16. ПорА (стих)

Лог создания рипа

Exact Audio Copy V1.0 beta 3 from 29. August 2011
Отчёт EAC об извлечении, выполненном 17. июня 2014, 23:41
Руставели / Начало Света
Дисковод: HL-DT-STDVDRAM GU61N Adapter: 2 ID: 0
Режим чтения : ДостоверностьИспользование точного потока : ДаОтключение кэша аудио : ДаИспользование указателей C2 : Нет
Коррекция смещения при чтении : 6Способность читать области Lead-in и Lead-out : НетЗаполнение пропущенных сэмплов тишиной : ДаУдаление блоков с тишиной в начале и конце : НетПри вычислениях CRC использовались нулевые сэмплы : ДаИнтерфейс : Встроенный Win32-интерфейс для Win NT/2000Обработка зазоров : Добавлено к предыдущему треку
Выходной формат : Пользовательский кодировщикВыбранный битрейт : 128 kBit/sКачество : ВысокийДобавление ID3-тега : НетУтилита сжатия : C:\Program Files (x86)\Exact Audio Copy\Flac\flac.exeДополнительные параметры : -V -8 -T "Genre=%genre%" -T "Artist=%artist%" -T "Title=%title%" -T "Album=%albumtitle%" -T "Date=%year%" -T "Tracknumber=%tracknr%" %source%
TOC извлечённого CD
Трек | Старт | Длительность | Начальный сектор | Конечный сектор --------------------------------------------------------------------- 1 | 0:00.00 | 3:07.09 | 0 | 14033 2 | 3:07.09 | 3:38.72 | 14034 | 30455 3 | 6:46.06 | 4:05.54 | 30456 | 48884 4 | 10:51.60 | 1:28.21 | 48885 | 55505 5 | 12:20.06 | 3:11.34 | 55506 | 69864 6 | 15:31.40 | 1:11.44 | 69865 | 75233 7 | 16:43.09 | 3:44.00 | 75234 | 92033 8 | 20:27.09 | 3:24.53 | 92034 | 107386 9 | 23:51.62 | 3:08.31 | 107387 | 121517 10 | 27:00.18 | 3:12.00 | 121518 | 135917 11 | 30:12.18 | 4:59.23 | 135918 | 158365 12 | 35:11.41 | 3:47.14 | 158366 | 175404 13 | 38:58.55 | 5:12.22 | 175405 | 198826 14 | 44:11.02 | 4:18.48 | 198827 | 218224 15 | 48:29.50 | 3:37.31 | 218225 | 234530 16 | 52:07.06 | 1:52.71 | 234531 | 243001
Трек 1
Имя файла C:\Users\Я\Desktop\Руставели - Начало Света (2012)\01 Карт-Бланш (при уч. Санчес и White Hot Ice).wav
Длина предзазора 0:00:02.00
Пиковый уровень 100.0 % Скорость извлечения 2.6 X Качество трека 100.0 % CRC теста 5D1FE72B CRC копии 5D1FE72B Копирование... OK
Трек 2
Имя файла C:\Users\Я\Desktop\Руставели - Начало Света (2012)\02 Инкубатор (при уч. Нелегал a.k.a. MC L.E.).wav
Пиковый уровень 100.0 % Скорость извлечения 3.2 X Качество трека 100.0 % CRC теста A05260C7 CRC копии A05260C7 Копирование... OK
Трек 3
Имя файла C:\Users\Я\Desktop\Руставели - Начало Света (2012)\03 Ева.wav
Пиковый уровень 100.0 % Скорость извлечения 3.5 X Качество трека 100.0 % CRC теста 3E3C0EB3 CRC копии 3E3C0EB3 Копирование... OK
Трек 4
Имя файла C:\Users\Я\Desktop\Руставели - Начало Света (2012)\04 Ответ (стих).wav
Пиковый уровень 100.0 % Скорость извлечения 2.3 X Качество трека 99.8 % CRC теста D43595F7 CRC копии D43595F7 Копирование... OK
Трек 5
Имя файла C:\Users\Я\Desktop\Руставели - Начало Света (2012)\05 Двойные Стандарты (при уч. Санчес).wav
Пиковый уровень 100.0 % Скорость извлечения 3.7 X Качество трека 100.0 % CRC теста 960C6881 CRC копии 960C6881 Копирование... OK
Трек 6
Имя файла C:\Users\Я\Desktop\Руставели - Начало Света (2012)\06 Капкан (стих).wav
Пиковый уровень 100.0 % Скорость извлечения 2.9 X Качество трека 100.0 % CRC теста 24DE6A3B CRC копии 24DE6A3B Копирование... OK
Трек 7
Имя файла C:\Users\Я\Desktop\Руставели - Начало Света (2012)\07 Холодные Огни.wav
Пиковый уровень 100.0 % Скорость извлечения 4.0 X Качество трека 100.0 % CRC теста E00D5ABF CRC копии E00D5ABF Копирование... OK
Трек 8
Имя файла C:\Users\Я\Desktop\Руставели - Начало Света (2012)\08 Искра (при уч. РЕМО).wav
Пиковый уровень 100.0 % Скорость извлечения 4.1 X Качество трека 100.0 % CRC теста 018378C4 CRC копии 018378C4 Копирование... OK
Трек 9
Имя файла C:\Users\Я\Desktop\Руставели - Начало Света (2012)\09 Не Кино (при уч. Алёна).wav
Пиковый уровень 100.0 % Скорость извлечения 1.8 X Качество трека 100.0 % CRC теста 7C06386A CRC копии 7C06386A Копирование... OK
Трек 10
Имя файла C:\Users\Я\Desktop\Руставели - Начало Света (2012)\10 Лучший День (при уч. Маклай).wav
Пиковый уровень 100.0 % Скорость извлечения 1.9 X Качество трека 100.0 % CRC теста 75A33FDA CRC копии 75A33FDA Копирование... OK
Трек 11
Имя файла C:\Users\Я\Desktop\Руставели - Начало Света (2012)\11 Кожа (при уч. Динайс и Булат).wav
Пиковый уровень 100.0 % Скорость извлечения 2.1 X Качество трека 100.0 % CRC теста 38A2434C CRC копии 38A2434C Копирование... OK
Трек 12
Имя файла C:\Users\Я\Desktop\Руставели - Начало Света (2012)\12 Такая Как Ты (при уч. White Hot Ice).wav
Пиковый уровень 100.0 % Скорость извлечения 2.1 X Качество трека 100.0 % CRC теста EBEC21F7 CRC копии EBEC21F7 Копирование... OK
Трек 13
Имя файла C:\Users\Я\Desktop\Руставели - Начало Света (2012)\13 Стали Старше (при уч. VA84, Санчес и Юлия Антонова).wav
Пиковый уровень 100.0 % Скорость извлечения 2.3 X Качество трека 100.0 % CRC теста 7868DCA7 CRC копии 7868DCA7 Копирование... OK
Трек 14
Имя файла C:\Users\Я\Desktop\Руставели - Начало Света (2012)\14 Бег от Себя (DotsBand).wav
Пиковый уровень 100.0 % Скорость извлечения 2.1 X Качество трека 99.9 % CRC теста 1EF3B9A9 CRC копии 1EF3B9A9 Копирование... OK
Трек 15
Имя файла C:\Users\Я\Desktop\Руставели - Начало Света (2012)\15 Начало Света.wav
Пиковый уровень 100.0 % Скорость извлечения 2.3 X Качество трека 100.0 % CRC теста 9481052D CRC копии 9481052D Копирование... OK
Трек 16
Имя файла C:\Users\Я\Desktop\Руставели - Начало Света (2012)\16 ПорА (стих).wav
Пиковый уровень 100.0 % Скорость извлечения 2.1 X Качество трека 100.0 % CRC теста 8FB16A3D CRC копии 8FB16A3D Копирование... OK
Ошибок не произошло
Конец отчёта
==== Контрольная сумма отчёта 224A1413343A94D94EB27197B763F3FD6FCBC8DF924AA933313BC49AB990558C ====

Содержание индексной карты (.CUE)

REM GENRE Hip-HopREM DATE 2012REM DISCID BE0CA810REM COMMENT "ExactAudioCopy v1.0b3"PERFORMER "Руставели"TITLE "Начало Света"FILE "01. Карт-Бланш (при уч. Санчес и White Hot Ice).m4a" WAVE TRACK 01 AUDIO TITLE "Карт-Бланш (при уч. Санчес и White Hot Ice)" PERFORMER "Руставели" INDEX 01 00:00:00FILE "02. Инкубатор (при уч. Нелегал a.k.a. MC L.E.).m4a" WAVE TRACK 02 AUDIO TITLE "Инкубатор (при уч. Нелегал a.k.a. MC L.E.)" PERFORMER "Руставели" INDEX 01 00:00:00FILE "03. Ева.m4a" WAVE TRACK 03 AUDIO TITLE "Ева" PERFORMER "Руставели" INDEX 01 00:00:00FILE "04. Ответ (стих).m4a" WAVE TRACK 04 AUDIO TITLE "Ответ (стих)" PERFORMER "Руставели" INDEX 01 00:00:00FILE "05. Двойные Стандарты (при уч. Санчес).m4a" WAVE TRACK 05 AUDIO TITLE "Двойные Стандарты (при уч. Санчес)" PERFORMER "Руставели" INDEX 01 00:00:00FILE "06. Капкан (стих).m4a" WAVE TRACK 06 AUDIO TITLE "Капкан (стих)" PERFORMER "Руставели" INDEX 01 00:00:00FILE "07. Холодные Огни.m4a" WAVE TRACK 07 AUDIO TITLE "Холодные Огни" PERFORMER "Руставели" INDEX 01 00:00:00FILE "08. Искра (при уч. РЕМО).m4a" WAVE TRACK 08 AUDIO TITLE "Искра (при уч. РЕМО)" PERFORMER "Руставели" INDEX 01 00:00:00FILE "09. Не Кино (при уч. Алёна).m4a" WAVE TRACK 09 AUDIO TITLE "Не Кино (при уч. Алёна)" PERFORMER "Руставели" INDEX 01 00:00:00FILE "10. Лучший День (при уч. Маклай).m4a" WAVE TRACK 10 AUDIO TITLE "Лучший День (при уч. Маклай)" PERFORMER "Руставели" INDEX 01 00:00:00FILE "11. Кожа (при уч. Динайс и Булат).m4a" WAVE TRACK 11 AUDIO TITLE "Кожа (при уч. Динайс и Булат)" PERFORMER "Руставели" INDEX 01 00:00:00FILE "12. Такая Как Ты (при уч. White Hot Ice).m4a" WAVE TRACK 12 AUDIO TITLE "Такая Как Ты (при уч. White Hot Ice)" PERFORMER "Руставели" INDEX 01 00:00:00FILE "13. Стали Старше (при уч. VA84, Санчес и Юлия Антонова).m4a" WAVE TRACK 13 AUDIO TITLE "Стали Старше (при уч. VA84, Санчес и Юлия Антонова)" PERFORMER "Руставели" INDEX 01 00:00:00FILE "14. Бег от Себя (DotsBand).m4a" WAVE TRACK 14 AUDIO TITLE "Бег от Себя (DotsBand)" PERFORMER "Руставели" INDEX 01 00:00:00FILE "15. Начало Света.m4a" WAVE TRACK 15 AUDIO TITLE "Начало Света" PERFORMER "Руставели" INDEX 01 00:00:00FILE "16. ПорА (стих).m4a" WAVE TRACK 16 AUDIO TITLE "ПорА (стих)" PERFORMER "Руставели" INDEX 01 00:00:00

Лог проверки качества

CUE Corrector v.6.9.12 (build 499)--------------------------------------------------------------------------- / Начало Света
Folder: 2. Начало Света (2012, Dots Family Records)audio files: 01. Карт-Бланш (при уч. Санчес и White Hot Ice) [03:07.09, ALAC, 44100Hz, Stereo, 16bit; 21,54 MB (22 581 203 bytes)] 02. Инкубатор (при уч. Нелегал a.k.a. MC L.E.) [03:38.72, ALAC, 44100Hz, Stereo, 16bit; 25,60 MB (26 839 729 bytes)] 03. Ева [04:05.54, ALAC, 44100Hz, Stereo, 16bit; 25,13 MB (26 352 147 bytes)] 04. Ответ (стих) [01:28.21, ALAC, 44100Hz, Stereo, 16bit; 9,44 MB (9 896 357 bytes)] 05. Двойные Стандарты (при уч. Санчес) [03:11.34, ALAC, 44100Hz, Stereo, 16bit; 21,45 MB (22 495 019 bytes)] 06. Капкан (стих) [01:11.44, ALAC, 44100Hz, Stereo, 16bit; 8,54 MB (8 951 881 bytes)] 07. Холодные Огни [03:44.00, ALAC, 44100Hz, Stereo, 16bit; 25,60 MB (26 840 468 bytes)] 08. Искра (при уч. РЕМО) [03:24.53, ALAC, 44100Hz, Stereo, 16bit; 21,52 MB (22 562 522 bytes)] 09. Не Кино (при уч. Алёна) [03:08.31, ALAC, 44100Hz, Stereo, 16bit; 21,68 MB (22 733 746 bytes)] 10. Лучший День (при уч. Маклай) [03:12.00, ALAC, 44100Hz, Stereo, 16bit; 21,82 MB (22 882 566 bytes)] 11. Кожа (при уч. Динайс и Булат) [04:59.23, ALAC, 44100Hz, Stereo, 16bit; 34,34 MB (36 007 106 bytes)] 12. Такая Как Ты (при уч. White Hot Ice) [03:47.14, ALAC, 44100Hz, Stereo, 16bit; 27,12 MB (28 441 519 bytes)] 13. Стали Старше (при уч. VA84, Санчес и Юлия Антонова) [05:12.22, ALAC, 44100Hz, Stereo, 16bit; 33,92 MB (35 571 289 bytes)] 14. Бег от Себя (DotsBand) [04:18.48, ALAC, 44100Hz, Stereo, 16bit; 32,77 MB (34 360 800 bytes)] 15. Начало Света [03:37.31, ALAC, 44100Hz, Stereo, 16bit; 24,86 MB (26 064 545 bytes)] 16. ПорА (стих) [01:52.71, ALAC, 44100Hz, Stereo, 16bit; 12,31 MB (12 910 590 bytes)]
Accuracy: -m8
File 01. Карт-Бланш (при уч. Санчес и White Hot Ice) - 100% CDDA [03:07.09]
Detected average hi-boundary frequency : 2.061644e+004 Hz Detected average lo-boundary frequency : 1.412264e+004 Hz Detected average hi-cut frequency : 2.143461e+004 Hz Detected average lo-cut frequency : 1.657255e+004 Hz Maximum probablis boundary frequency : 2.121300e+004 Hz Coefficient of nonlinearity of a phase : 2.737695e-001 First order smothness : 4.107143e-001 Second order smothness : 7.366071e-001
File 02. Инкубатор (при уч. Нелегал a.k.a. MC L.E.) - 100% CDDA [03:38.72]
Detected average hi-boundary frequency : 2.071023e+004 Hz Detected average lo-boundary frequency : 1.551265e+004 Hz Detected average hi-cut frequency : 2.140649e+004 Hz Detected average lo-cut frequency : 1.708045e+004 Hz Maximum probablis boundary frequency : 2.189600e+004 Hz Coefficient of nonlinearity of a phase : 1.512265e-001 First order smothness : 4.961832e-001 Second order smothness : 5.343511e-001
File 03. Ева - 100% CDDA [04:05.54]
Detected average hi-boundary frequency : 2.019583e+004 Hz Detected average lo-boundary frequency : 1.368005e+004 Hz Detected average hi-cut frequency : 2.146360e+004 Hz Detected average lo-cut frequency : 1.266923e+004 Hz Maximum probablis boundary frequency : 2.192300e+004 Hz Coefficient of nonlinearity of a phase : 3.031026e-001 First order smothness : 4.659864e-001 Second order smothness : 6.020408e-001
File 04. Ответ (стих) - 100% CDDA [01:28.21]
Detected average hi-boundary frequency : 2.015679e+004 Hz Detected average lo-boundary frequency : 1.509284e+004 Hz Detected average hi-cut frequency : 2.157532e+004 Hz Detected average lo-cut frequency : 1.693722e+004 Hz Maximum probablis boundary frequency : 2.142800e+004 Hz Coefficient of nonlinearity of a phase : 6.340283e-001 First order smothness : 5.471698e-001 Second order smothness : 6.886792e-001
File 05. Двойные Стандарты (при уч. Санчес) - 100% CDDA [03:11.34]
Detected average hi-boundary frequency : 2.038016e+004 Hz Detected average lo-boundary frequency : 1.357003e+004 Hz Detected average hi-cut frequency : 2.146223e+004 Hz Detected average lo-cut frequency : 1.433947e+004 Hz Maximum probablis boundary frequency : 2.190200e+004 Hz Coefficient of nonlinearity of a phase : 7.919921e-002 First order smothness : 5.173913e-001 Second order smothness : 5.739130e-001
File 06. Капкан (стих) - 100% CDDA [01:11.44]
Detected average hi-boundary frequency : 2.056216e+004 Hz Detected average lo-boundary frequency : 1.418518e+004 Hz Detected average hi-cut frequency : 2.148955e+004 Hz Detected average lo-cut frequency : 1.539882e+004 Hz Maximum probablis boundary frequency : 2.114300e+004 Hz Coefficient of nonlinearity of a phase : 1.295626e-001 First order smothness : 5.116279e-001 Second order smothness : 5.116279e-001
File 07. Холодные Огни - 100% CDDA [03:44.00]
Detected average hi-boundary frequency : 2.052361e+004 Hz Detected average lo-boundary frequency : 1.524690e+004 Hz Detected average hi-cut frequency : 2.146046e+004 Hz Detected average lo-cut frequency : 1.582048e+004 Hz Maximum probablis boundary frequency : 2.189100e+004 Hz Coefficient of nonlinearity of a phase : 1.515967e-001 First order smothness : 5.708955e-001 Second order smothness : 5.820896e-001
File 08. Искра (при уч. РЕМО) - 100% CDDA [03:24.53]
Detected average hi-boundary frequency : 2.029587e+004 Hz Detected average lo-boundary frequency : 1.450017e+004 Hz Detected average hi-cut frequency : 2.131193e+004 Hz Detected average lo-cut frequency : 1.242935e+004 Hz Maximum probablis boundary frequency : 2.111100e+004 Hz Coefficient of nonlinearity of a phase : 1.202466e-001 First order smothness : 5.877551e-001 Second order smothness : 6.693878e-001
File 09. Не Кино (при уч. Алёна) - 100% CDDA [03:08.31]
Detected average hi-boundary frequency : 2.032284e+004 Hz Detected average lo-boundary frequency : 1.494884e+004 Hz Detected average hi-cut frequency : 2.138276e+004 Hz Detected average lo-cut frequency : 1.182066e+004 Hz Maximum probablis boundary frequency : 2.138500e+004 Hz Coefficient of nonlinearity of a phase : 1.512200e-001 First order smothness : 5.176991e-001 Second order smothness : 5.309735e-001
File 10. Лучший День (при уч. Маклай) - 100% CDDA [03:12.00]
Detected average hi-boundary frequency : 2.078706e+004 Hz Detected average lo-boundary frequency : 1.336450e+004 Hz Detected average hi-cut frequency : 2.152206e+004 Hz Detected average lo-cut frequency : 1.609082e+004 Hz Maximum probablis boundary frequency : 2.159500e+004 Hz Coefficient of nonlinearity of a phase : 1.577461e-001 First order smothness : 4.826087e-001 Second order smothness : 6.913043e-001
File 11. Кожа (при уч. Динайс и Булат) - 100% CDDA [04:59.23]
Detected average hi-boundary frequency : 2.069364e+004 Hz Detected average lo-boundary frequency : 1.527188e+004 Hz Detected average hi-cut frequency : 2.153067e+004 Hz Detected average lo-cut frequency : 1.726400e+004 Hz Maximum probablis boundary frequency : 2.156300e+004 Hz Coefficient of nonlinearity of a phase : 2.220854e-001 First order smothness : 5.069638e-001 Second order smothness : 7.270195e-001
File 12. Такая Как Ты (при уч. White Hot Ice) - 100% CDDA [03:47.14]
Detected average hi-boundary frequency : 2.048597e+004 Hz Detected average lo-boundary frequency : 1.470430e+004 Hz Detected average hi-cut frequency : 2.138815e+004 Hz Detected average lo-cut frequency : 1.625576e+004 Hz Maximum probablis boundary frequency : 2.137400e+004 Hz Coefficient of nonlinearity of a phase : 1.242044e-001 First order smothness : 4.926471e-001 Second order smothness : 7.058824e-001
File 13. Стали Старше (при уч. VA84, Санчес и Юлия Антонова) - 100% CDDA [05:12.22]
Detected average hi-boundary frequency : 2.033104e+004 Hz Detected average lo-boundary frequency : 1.453754e+004 Hz Detected average hi-cut frequency : 2.132237e+004 Hz Detected average lo-cut frequency : 8.189384e+003 Hz Maximum probablis boundary frequency : 2.189600e+004 Hz Coefficient of nonlinearity of a phase : 9.460220e-002 First order smothness : 3.689840e-001 Second order smothness : 5.427807e-001
File 14. Бег от Себя (DotsBand) - 100% CDDA [04:18.48]
Detected average hi-boundary frequency : 2.052237e+004 Hz Detected average lo-boundary frequency : 1.399078e+004 Hz Detected average hi-cut frequency : 2.129792e+004 Hz Detected average lo-cut frequency : 1.799133e+004 Hz Maximum probablis boundary frequency : 2.189100e+004 Hz Coefficient of nonlinearity of a phase : 7.808392e-002 First order smothness : 4.967742e-001 Second order smothness : 7.451613e-001
File 15. Начало Света - 100% CDDA [03:37.31]
Detected average hi-boundary frequency : 2.071236e+004 Hz Detected average lo-boundary frequency : 1.563164e+004 Hz Detected average hi-cut frequency : 2.158401e+004 Hz Detected average lo-cut frequency : 1.565868e+004 Hz Maximum probablis boundary frequency : 2.151400e+004 Hz Coefficient of nonlinearity of a phase : 3.040624e-001 First order smothness : 5.478927e-001 Second order smothness : 6.513410e-001
File 16. ПорА (стих) - 99% CDDA [01:52.71]
Detected average hi-boundary frequency : 2.080675e+004 Hz Detected average lo-boundary frequency : 1.509898e+004 Hz Detected average hi-cut frequency : 2.156415e+004 Hz Detected average lo-cut frequency : 1.808843e+004 Hz Maximum probablis boundary frequency : 2.191300e+004 Hz Coefficient of nonlinearity of a phase : 2.227081e-001 First order smothness : 4.779412e-001 Second order smothness : 8.088235e-001
----- Summary: -----These tracks looks like CDDA with probability 100%.------------------------------------------------------------------------
ANALYZER: auCDtect: CD records authenticity detector, version 0.8.2 Copyright (c) 2004 Oleg Berngardt. All rights reserved. Copyright (c) 2004 Alexander Djourik. All rights reserved.
Time elapsed: 19.4 sLog created at February 15, 2015 05:01:36
=== 39659D01BE27E5C76395DFF832F2CE46D5374E50B6D8355C80FD07C00A0214BC ===

Скриншот(ы) тегов iTunes

2013 - Следы на песке (EP) (00:41:13)

Издатель (лейбл): Dots Family Records
Треклист:
01. Монотонная песня
02. Мизантропия (при уч. Динайс)
03. КМК
04. Тёмные воды
05. Давно не ангел
06. Сцены пыльный полумрак (при уч. Булат)
07. Следы на песке (при уч. Санчес)
08. Прощай
09. Чёрная королева (Нелегал RMX)
10. Двойные стандарты (Reg1k RMX)
11. Инкубатор (Blatant Sound RMX)
12. Лучший день (Булат a.k.a. One-Bula RMX)
13. Искра (Reg1k RMX)

Лог создания рипа

Exact Audio Copy V1.0 beta 4 from 7. December 2014
Отчёт EAC об извлечении, выполненном 15. февраля 2015, 13:43
Руставели / Следы на песке (EP)
Дисковод: Optiarc DVD RW AD-7280S Adapter: 1 ID: 0
Режим чтения : Достоверность
Использование точного потока : Да
Отключение кэша аудио : Да
Использование указателей C2 : Нет
Коррекция смещения при чтении : 48
Способность читать области Lead-in и Lead-out : Нет
Заполнение пропущенных сэмплов тишиной : Да
Удаление блоков с тишиной в начале и конце : Нет
При вычислениях CRC использовались нулевые сэмплы : Да
Интерфейс : Встроенный Win32-интерфейс для Win NT/2000
Обработка зазоров : Добавлено к предыдущему треку
Выходной формат : Пользовательский кодировщик
Выбранный битрейт : 896 kBit/s
Качество : Высокий
Добавление ID3-тега : Нет
Утилита сжатия : C:\Program Files (x86)\Exact Audio Copy\refalac_1.46\x64\refalac64.exe
Дополнительные параметры : -s --ignorelength --artist "%artist%" --title "%title%" --album "%albumtitle%" --date "%year%" --track "%tracknr%" --genre "%genre%" -o %dest% %source%
TOC извлечённого CD
Трек | Старт | Длительность | Начальный сектор | Конечный сектор
---------------------------------------------------------------------
1 | 0:00.00 | 3:15.07 | 0 | 14631
2 | 3:15.07 | 3:59.06 | 14632 | 32562
3 | 7:14.13 | 4:29.00 | 32563 | 52737
4 | 11:43.13 | 1:17.00 | 52738 | 58512
5 | 13:00.13 | 3:32.26 | 58513 | 74438
6 | 16:32.39 | 4:02.00 | 74439 | 92588
7 | 20:34.39 | 3:56.32 | 92589 | 110320
8 | 24:30.71 | 1:27.08 | 110321 | 116853
9 | 25:58.04 | 2:46.01 | 116854 | 129304
10 | 28:44.05 | 2:59.48 | 129305 | 142777
11 | 31:43.53 | 2:55.38 | 142778 | 155940
12 | 34:39.16 | 3:16.62 | 155941 | 170702
13 | 37:56.03 | 3:17.53 | 170703 | 185530
Трек 1
Имя файла C:\Users\Даниил\Downloads\Музыка\Руставели\Следы на песке (EP)\01 Монотонная песня.wav
Длина предзазора 0:00:02.00
Пиковый уровень 97.1 %
Скорость извлечения 4.2 X
Качество трека 100.0 %
CRC теста C172F0BB
CRC копии C172F0BB
Трек не обнаружен в базе AccurateRip
Копирование... OK
Трек 2
Имя файла C:\Users\Даниил\Downloads\Музыка\Руставели\Следы на песке (EP)\02 Мизантропия feat. Динайс.wav
Длина предзазора 0:00:01.74
Пиковый уровень 97.2 %
Скорость извлечения 4.8 X
Качество трека 100.0 %
CRC теста 2102164F
CRC копии 2102164F
Трек не обнаружен в базе AccurateRip
Копирование... OK
Трек 3
Имя файла C:\Users\Даниил\Downloads\Музыка\Руставели\Следы на песке (EP)\03 КМК.wav
Длина предзазора 0:00:01.74
Пиковый уровень 97.1 %
Скорость извлечения 5.3 X
Качество трека 100.0 %
CRC теста 556704E3
CRC копии 556704E3
Трек не обнаружен в базе AccurateRip
Копирование... OK
Трек 4
Имя файла C:\Users\Даниил\Downloads\Музыка\Руставели\Следы на песке (EP)\04 Тёмные воды.wav
Длина предзазора 0:00:01.74
Пиковый уровень 97.7 %
Скорость извлечения 3.3 X
Качество трека 99.8 %
CRC теста 3600066D
CRC копии 3600066D
Трек не обнаружен в базе AccurateRip
Копирование... OK
Трек 5
Имя файла C:\Users\Даниил\Downloads\Музыка\Руставели\Следы на песке (EP)\05 Давно не ангел.wav
Длина предзазора 0:00:01.74
Пиковый уровень 97.8 %
Скорость извлечения 5.6 X
Качество трека 100.0 %
CRC теста 561B0E07
CRC копии 561B0E07
Трек не обнаружен в базе AccurateRip
Копирование... OK
Трек 6
Имя файла C:\Users\Даниил\Downloads\Музыка\Руставели\Следы на песке (EP)\06 Сцены пыльный полумрак feat. Булат.wav
Длина предзазора 0:00:01.74
Пиковый уровень 97.9 %
Скорость извлечения 5.2 X
Качество трека 99.9 %
CRC теста 68DD213B
CRC копии 68DD213B
Трек не обнаружен в базе AccurateRip
Копирование... OK
Трек 7
Имя файла C:\Users\Даниил\Downloads\Музыка\Руставели\Следы на песке (EP)\07 Следы на песке feat. Санчес.wav
Длина предзазора 0:00:01.74
Пиковый уровень 97.9 %
Скорость извлечения 6.3 X
Качество трека 100.0 %
CRC теста FD3815FA
CRC копии FD3815FA
Трек не обнаружен в базе AccurateRip
Копирование... OK
Трек 8
Имя файла C:\Users\Даниил\Downloads\Музыка\Руставели\Следы на песке (EP)\08 Прощай.wav
Длина предзазора 0:00:01.74
Пиковый уровень 97.6 %
Скорость извлечения 5.3 X
Качество трека 100.0 %
CRC теста C779B5A0
CRC копии C779B5A0
Трек не обнаружен в базе AccurateRip
Копирование... OK
Трек 9
Имя файла C:\Users\Даниил\Downloads\Музыка\Руставели\Следы на песке (EP)\09 Чёрная королева (Нелегал RMX).wav
Длина предзазора 0:00:01.74
Пиковый уровень 95.6 %
Скорость извлечения 5.2 X
Качество трека 99.9 %
CRC теста 87B08FFD
CRC копии 87B08FFD
Трек не обнаружен в базе AccurateRip
Копирование... OK
Трек 10
Имя файла C:\Users\Даниил\Downloads\Музыка\Руставели\Следы на песке (EP)\10 Двойные стандарты (REG1K RMX).wav
Длина предзазора 0:00:01.74
Пиковый уровень 88.2 %
Скорость извлечения 5.8 X
Качество трека 99.9 %
CRC теста EF4D16EE
CRC копии EF4D16EE
Трек не обнаружен в базе AccurateRip
Копирование... OK
Трек 11
Имя файла C:\Users\Даниил\Downloads\Музыка\Руставели\Следы на песке (EP)\11 Инкубатор (Blatant sound RMX).wav
Длина предзазора 0:00:01.74
Пиковый уровень 95.6 %
Скорость извлечения 6.7 X
Качество трека 100.0 %
CRC теста 85D84549
CRC копии 85D84549
Трек не обнаружен в базе AccurateRip
Копирование... OK
Трек 12
Имя файла C:\Users\Даниил\Downloads\Музыка\Руставели\Следы на песке (EP)\12 Лучший день (Булат A. K. A One - Bula RMX).wav
Длина предзазора 0:00:01.74
Пиковый уровень 95.5 %
Скорость извлечения 7.1 X
Качество трека 100.0 %
CRC теста 4705B47E
CRC копии 4705B47E
Трек не обнаружен в базе AccurateRip
Копирование... OK
Трек 13
Имя файла C:\Users\Даниил\Downloads\Музыка\Руставели\Следы на песке (EP)\13 Искра (REG1K RMX).wav
Длина предзазора 0:00:01.74
Пиковый уровень 89.1 %
Скорость извлечения 7.3 X
Качество трека 100.0 %
CRC теста 20D4A113
CRC копии 20D4A113
Трек не обнаружен в базе AccurateRip
Копирование... OK
Ни одного трека нет в базе AccurateRip
Ошибок не произошло
Конец отчёта
---- CUETools DB Plugin V2.1.4
[CTDB TOCID: u8fxLY1driNlMgP3IfGfmiZGiag-] found
Submit result: already submitted
Track | CTDB Status
1 | (2/2) Accurately ripped
2 | (2/2) Accurately ripped
3 | (2/2) Accurately ripped
4 | (2/2) Accurately ripped
5 | (2/2) Accurately ripped
6 | (2/2) Accurately ripped
7 | (2/2) Accurately ripped
8 | (2/2) Accurately ripped
9 | (2/2) Accurately ripped
10 | (2/2) Accurately ripped
11 | (2/2) Accurately ripped
12 | (2/2) Accurately ripped
13 | (2/2) Accurately ripped
==== Контрольная сумма отчёта 215ABCFF7EE1F3CD357165799C837CE4A734A9F45A46D84E325BD877C52FDAD3 ====

Содержание индексной карты (.CUE)

REM GENRE RapREM DATE 2013REM DISCID B609A90DREM COMMENT "ExactAudioCopy v1.0b4"PERFORMER "Руставели"TITLE "Следы на песке (EP)"FILE "01 Монотонная песня.wav" WAVE TRACK 01 AUDIO TITLE "Монотонная песня" PERFORMER "Руставели" INDEX 01 00:00:00 TRACK 02 AUDIO TITLE "Мизантропия feat. Динайс" PERFORMER "Руставели" INDEX 00 03:13:08FILE "02 Мизантропия feat. Динайс.wav" WAVE INDEX 01 00:00:00 TRACK 03 AUDIO TITLE "КМК" PERFORMER "Руставели" INDEX 00 03:57:07FILE "03 КМК.wav" WAVE INDEX 01 00:00:00 TRACK 04 AUDIO TITLE "Тёмные воды" PERFORMER "Руставели" INDEX 00 04:27:01FILE "04 Тёмные воды.wav" WAVE INDEX 01 00:00:00 TRACK 05 AUDIO TITLE "Давно не ангел" PERFORMER "Руставели" INDEX 00 01:15:01FILE "05 Давно не ангел.wav" WAVE INDEX 01 00:00:00 TRACK 06 AUDIO TITLE "Сцены пыльный полумрак feat. Булат" PERFORMER "Руставели" INDEX 00 03:30:27FILE "06 Сцены пыльный полумрак feat. Булат.wav" WAVE INDEX 01 00:00:00 TRACK 07 AUDIO TITLE "Следы на песке feat. Санчес" PERFORMER "Руставели" INDEX 00 04:00:01FILE "07 Следы на песке feat. Санчес.wav" WAVE INDEX 01 00:00:00 TRACK 08 AUDIO TITLE "Прощай" PERFORMER "Руставели" INDEX 00 03:54:33FILE "08 Прощай.wav" WAVE INDEX 01 00:00:00 TRACK 09 AUDIO TITLE "Чёрная королева (Нелегал RMX)" PERFORMER "Руставели" INDEX 00 01:25:09FILE "09 Чёрная королева (Нелегал RMX).wav" WAVE INDEX 01 00:00:00 TRACK 10 AUDIO TITLE "Двойные стандарты (REG1K RMX)" PERFORMER "Руставели" INDEX 00 02:44:02FILE "10 Двойные стандарты (REG1K RMX).wav" WAVE INDEX 01 00:00:00 TRACK 11 AUDIO TITLE "Инкубатор (Blatant sound RMX)" PERFORMER "Руставели" INDEX 00 02:57:49FILE "11 Инкубатор (Blatant sound RMX).wav" WAVE INDEX 01 00:00:00 TRACK 12 AUDIO TITLE "Лучший день (Булат A. K. A One - Bula RMX)" PERFORMER "Руставели" INDEX 00 02:53:39FILE "12 Лучший день (Булат A. K. A One - Bula RMX).wav" WAVE INDEX 01 00:00:00 TRACK 13 AUDIO TITLE "Искра (REG1K RMX)" PERFORMER "Руставели" INDEX 00 03:14:63FILE "13 Искра (REG1K RMX).wav" WAVE INDEX 01 00:00:00

Лог проверки качества

Tau Analyzer

CUE Corrector

CUE Corrector v.6.9.12 (build 499)
------------------------------------------------------------------------
--- / Следы на песке (EP)
Folder: Следы на песке (EP)
audio files:
01 Монотонная песня [03:15.07, ALAC, 44100Hz, Stereo, 16bit; 21,28 MB (22 312 776 bytes)]
02 Мизантропия feat. Динайс [03:59.06, ALAC, 44100Hz, Stereo, 16bit; 26,15 MB (27 417 013 bytes)]
03 КМК [04:29.00, ALAC, 44100Hz, Stereo, 16bit; 30,68 MB (32 174 548 bytes)]
04 Тёмные воды [01:17.00, ALAC, 44100Hz, Stereo, 16bit; 7,28 MB (7 635 962 bytes)]
05 Давно не ангел [03:32.26, ALAC, 44100Hz, Stereo, 16bit; 24,73 MB (25 935 253 bytes)]
06 Сцены пыльный полумрак feat. Булат [04:02.00, ALAC, 44100Hz, Stereo, 16bit; 28,11 MB (29 477 277 bytes)]
07 Следы на песке feat. Санчес [03:56.32, ALAC, 44100Hz, Stereo, 16bit; 26,32 MB (27 594 896 bytes)]
08 Прощай [01:27.08, ALAC, 44100Hz, Stereo, 16bit; 8,45 MB (8 864 094 bytes)]
09 Чёрная королева (Нелегал RMX) [02:46.01, ALAC, 44100Hz, Stereo, 16bit; 18,03 MB (18 903 823 bytes)]
10 Двойные стандарты (REG1K RMX) [02:59.48, ALAC, 44100Hz, Stereo, 16bit; 19,74 MB (20 702 310 bytes)]
11 Инкубатор (Blatant sound RMX) [02:55.38, ALAC, 44100Hz, Stereo, 16bit; 18,05 MB (18 925 524 bytes)]
12 Лучший день (Булат A. K. A One - Bula RMX) [03:16.62, ALAC, 44100Hz, Stereo, 16bit; 21,68 MB (22 732 215 bytes)]
13 Искра (REG1K RMX) [03:17.53, ALAC, 44100Hz, Stereo, 16bit; 20,57 MB (21 565 918 bytes)]
Accuracy: -m8
File 01 Монотонная песня - 100% CDDA [03:15.07]
Detected average hi-boundary frequency : 2.056335e+004 Hz
Detected average lo-boundary frequency : 1.532718e+004 Hz
Detected average hi-cut frequency : 2.169609e+004 Hz
Detected average lo-cut frequency : 1.324074e+004 Hz
Maximum probablis boundary frequency : 2.189600e+004 Hz
Coefficient of nonlinearity of a phase : 7.922319e-001
First order smothness : 4.786325e-001
Second order smothness : 6.025641e-001
File 02 Мизантропия feat. Динайс - 100% CDDA [03:59.06]
Detected average hi-boundary frequency : 2.059879e+004 Hz
Detected average lo-boundary frequency : 1.405276e+004 Hz
Detected average hi-cut frequency : 2.174689e+004 Hz
Detected average lo-cut frequency : 1.418958e+004 Hz
Maximum probablis boundary frequency : 2.190200e+004 Hz
Coefficient of nonlinearity of a phase : 8.211482e-001
First order smothness : 4.912281e-001
Second order smothness : 6.968641e-001
File 03 КМК - 100% CDDA [04:29.00]
Detected average hi-boundary frequency : 2.037284e+004 Hz
Detected average lo-boundary frequency : 1.289889e+004 Hz
Detected average hi-cut frequency : 2.178464e+004 Hz
Detected average lo-cut frequency : 1.451211e+004 Hz
Maximum probablis boundary frequency : 2.191300e+004 Hz
Coefficient of nonlinearity of a phase : 6.003061e-001
First order smothness : 4.347826e-001
Second order smothness : 5.559006e-001
File 04 Тёмные воды - 100% CDDA [01:17.00]
Detected average hi-boundary frequency : 2.113712e+004 Hz
Detected average lo-boundary frequency : 1.414983e+004 Hz
Detected average hi-cut frequency : 2.194365e+004 Hz
Detected average lo-cut frequency : 2.018564e+004 Hz
Maximum probablis boundary frequency : 2.194500e+004 Hz
Coefficient of nonlinearity of a phase : 1.205811e+000
First order smothness : 6.344086e-001
Second order smothness : 8.924731e-001
File 05 Давно не ангел - 99% CDDA [03:32.26]
Detected average hi-boundary frequency : 2.118989e+004 Hz
Detected average lo-boundary frequency : 1.589859e+004 Hz
Detected average hi-cut frequency : 2.198051e+004 Hz
Detected average lo-cut frequency : 2.088516e+004 Hz
Maximum probablis boundary frequency : 2.194000e+004 Hz
Coefficient of nonlinearity of a phase : 5.857095e-001
First order smothness : 4.549020e-001
Second order smothness : 8.823529e-001
File 06 Сцены пыльный полумрак feat. Булат - 100% CDDA [04:02.00]
Detected average hi-boundary frequency : 2.101883e+004 Hz
Detected average lo-boundary frequency : 1.546091e+004 Hz
Detected average hi-cut frequency : 2.198459e+004 Hz
Detected average lo-cut frequency : 2.035515e+004 Hz
Maximum probablis boundary frequency : 2.189600e+004 Hz
Coefficient of nonlinearity of a phase : 1.173966e+000
First order smothness : 5.208333e-001
Second order smothness : 8.090278e-001
File 07 Следы на песке feat. Санчес - 100% CDDA [03:56.32]
Detected average hi-boundary frequency : 2.107144e+004 Hz
Detected average lo-boundary frequency : 1.381040e+004 Hz
Detected average hi-cut frequency : 2.197785e+004 Hz
Detected average lo-cut frequency : 2.015853e+004 Hz
Maximum probablis boundary frequency : 2.191300e+004 Hz
Coefficient of nonlinearity of a phase : 1.133236e+000
First order smothness : 4.734982e-001
Second order smothness : 8.586572e-001
File 08 Прощай - 100% CDDA [01:27.08]
Detected average hi-boundary frequency : 2.085553e+004 Hz
Detected average lo-boundary frequency : 1.300155e+004 Hz
Detected average hi-cut frequency : 2.195749e+004 Hz
Detected average lo-cut frequency : 2.030178e+004 Hz
Maximum probablis boundary frequency : 2.193400e+004 Hz
Coefficient of nonlinearity of a phase : 1.202652e+000
First order smothness : 4.190476e-001
Second order smothness : 9.333333e-001
File 09 Чёрная королева (Нелегал RMX) - 100% CDDA [02:46.01]
Detected average hi-boundary frequency : 2.062244e+004 Hz
Detected average lo-boundary frequency : 1.377415e+004 Hz
Detected average hi-cut frequency : 2.160287e+004 Hz
Detected average lo-cut frequency : 1.381638e+004 Hz
Maximum probablis boundary frequency : 2.189100e+004 Hz
Coefficient of nonlinearity of a phase : 8.007764e-001
First order smothness : 5.527638e-001
Second order smothness : 6.834171e-001
File 10 Двойные стандарты (REG1K RMX) - 99% CDDA [02:59.48]
Detected average hi-boundary frequency : 2.097578e+004 Hz
Detected average lo-boundary frequency : 1.531221e+004 Hz
Detected average hi-cut frequency : 2.193064e+004 Hz
Detected average lo-cut frequency : 1.906393e+004 Hz
Maximum probablis boundary frequency : 2.191800e+004 Hz
Coefficient of nonlinearity of a phase : 3.967439e-001
First order smothness : 5.162791e-001
Second order smothness : 7.069767e-001
File 11 Инкубатор (Blatant sound RMX) - unknown [02:55.38]
Detected average hi-boundary frequency : 2.116937e+004 Hz
Detected average lo-boundary frequency : 1.698758e+004 Hz
Detected average hi-cut frequency : 2.133157e+004 Hz
Detected average lo-cut frequency : 2.088569e+004 Hz
Maximum probablis boundary frequency : 2.126700e+004 Hz
Coefficient of nonlinearity of a phase : 1.324293e-001
First order smothness : 5.761905e-001
Second order smothness : 9.095238e-001
File 12 Лучший день (Булат A. K. A One - Bula RMX) - 100% CDDA [03:16.62]
Detected average hi-boundary frequency : 2.091786e+004 Hz
Detected average lo-boundary frequency : 1.313984e+004 Hz
Detected average hi-cut frequency : 2.195622e+004 Hz
Detected average lo-cut frequency : 1.896715e+004 Hz
Maximum probablis boundary frequency : 2.191300e+004 Hz
Coefficient of nonlinearity of a phase : 3.980265e-001
First order smothness : 4.406780e-001
Second order smothness : 7.838983e-001
File 13 Искра (REG1K RMX) - 100% CDDA [03:17.53]
Detected average hi-boundary frequency : 2.095496e+004 Hz
Detected average lo-boundary frequency : 1.497565e+004 Hz
Detected average hi-cut frequency : 2.190205e+004 Hz
Detected average lo-cut frequency : 1.918183e+004 Hz
Maximum probablis boundary frequency : 2.189100e+004 Hz
Coefficient of nonlinearity of a phase : 4.736003e-001
First order smothness : 4.491525e-001
Second order smothness : 6.949153e-001
----- Summary: -----
These tracks looks like CDDA with probability 100%.
------------------------------------------------------------------------
ANALYZER:
auCDtect: CD records authenticity detector, version 0.8.2
Copyright (c) 2004 Oleg Berngardt. All rights reserved.
Copyright (c) 2004 Alexander Djourik. All rights reserved.
Time elapsed: 17.2 s
Log created at February 15, 2015 16:59:26
=== 4F7DF163355BF5722B804D032BE30974773724EB817CC59CFCE0206A9B53C6E0 ===

Скриншот(ы) тегов iTunes

Скриншот спектра частот

2013 - The Collabo Collection (01:03:00)

Издатель (лейбл): Dots Family Records
Треклист:
01. Бездна feat. Граф
02. На своём feat. Валиум и ШZA (RMX от Динайс)
03. Страх feat. эР.Чуль
04. Узники быта feat. ШZA
05. Про ложь feat. Маклай и Ганза
06. Между завтра и вчера feat. Динайс
07. КМК (RMX от Reg1k, Mr. Doc)
08. Dark Queen feat. Гном (RMX от Нелегал)
09. Бег от себя
10. Ожидание feat. Маклай и Гном
11. Лучший день feat. Маклай (RMX от One-bula)
12. Искра feat. РЕМО (RMX от Reg1k)
13. День, что прожит зря feat. Марейн и Гном
14. Двойные стандарты feat. Санчес (RMX от Reg1k)
15. Инкубатор feat. Нелегал (RMX от Blatant Sound)
16. Родина feat. Банги Хэп
17. Мизантропия feat. Динайс (RMX от Reg1k)

Лог создания рипа

Exact Audio Copy V1.0 beta 4 from 7. December 2014
Отчёт EAC об извлечении, выполненном 14. февраля 2015, 22:47
Руставели / The collabo collection
Дисковод: Optiarc DVD RW AD-7280S Adapter: 1 ID: 0
Режим чтения : ДостоверностьИспользование точного потока : ДаОтключение кэша аудио : ДаИспользование указателей C2 : Нет
Коррекция смещения при чтении : 48Способность читать области Lead-in и Lead-out : НетЗаполнение пропущенных сэмплов тишиной : ДаУдаление блоков с тишиной в начале и конце : НетПри вычислениях CRC использовались нулевые сэмплы : ДаИнтерфейс : Встроенный Win32-интерфейс для Win NT/2000Обработка зазоров : Добавлено к предыдущему треку
Выходной формат : Пользовательский кодировщикВыбранный битрейт : 896 kBit/sКачество : ВысокийДобавление ID3-тега : НетУтилита сжатия : C:\Program Files (x86)\Exact Audio Copy\refalac_1.46\x64\refalac64.exeДополнительные параметры : -s --ignorelength --artist "%artist%" --title "%title%" --album "%albumtitle%" --date "%year%" --track "%tracknr%" --genre "%genre%" -o %dest% %source%
TOC извлечённого CD
Трек | Старт | Длительность | Начальный сектор | Конечный сектор --------------------------------------------------------------------- 1 | 0:00.00 | 3:53.24 | 0 | 17498 2 | 3:53.24 | 4:02.00 | 17499 | 35648 3 | 7:55.24 | 4:38.26 | 35649 | 56524 4 | 12:33.50 | 3:40.28 | 56525 | 73052 5 | 16:14.03 | 3:45.19 | 73053 | 89946 6 | 19:59.22 | 3:50.59 | 89947 | 107255 7 | 23:50.06 | 4:43.12 | 107256 | 128492 8 | 28:33.18 | 2:46.01 | 128493 | 140943 9 | 31:19.19 | 3:29.12 | 140944 | 156630 10 | 34:48.31 | 4:13.15 | 156631 | 175620 11 | 39:01.46 | 3:16.61 | 175621 | 190381 12 | 42:18.32 | 3:19.53 | 190382 | 205359 13 | 45:38.10 | 4:30.01 | 205360 | 225610 14 | 50:08.11 | 2:59.49 | 225611 | 239084 15 | 53:07.60 | 2:55.24 | 239085 | 252233 16 | 56:03.09 | 3:54.20 | 252234 | 269803 17 | 59:57.29 | 3:02.74 | 269804 | 283527
Трек 1
Имя файла C:\Users\Даниил\Downloads\Музыка\Руставели\The Collabo Collection\01 Бездна feat. Граф.wav
Длина предзазора 0:00:02.00
Пиковый уровень 97.7 % Скорость извлечения 2.5 X Качество трека 100.0 % CRC теста AA29A03F CRC копии AA29A03F Трек не обнаружен в базе AccurateRip Копирование... OK
Трек 2
Имя файла C:\Users\Даниил\Downloads\Музыка\Руставели\The Collabo Collection\02 На своём feat. Валиум и ШZA.wav
Пиковый уровень 97.7 % Скорость извлечения 2.5 X Качество трека 99.9 % CRC теста 3195690A CRC копии 3195690A Трек не обнаружен в базе AccurateRip Копирование... OK
Трек 3
Имя файла C:\Users\Даниил\Downloads\Музыка\Руставели\The Collabo Collection\03 Страх feat. эРЧуль.wav
Пиковый уровень 81.9 % Скорость извлечения 3.0 X Качество трека 100.0 % CRC теста 05B893D0 CRC копии 05B893D0 Трек не обнаружен в базе AccurateRip Копирование... OK
Трек 4
Имя файла C:\Users\Даниил\Downloads\Музыка\Руставели\The Collabo Collection\04 Узники быта feat. ШZA.wav
Пиковый уровень 79.4 % Скорость извлечения 3.1 X Качество трека 100.0 % CRC теста C7C10493 CRC копии C7C10493 Трек не обнаружен в базе AccurateRip Копирование... OK
Трек 5
Имя файла C:\Users\Даниил\Downloads\Музыка\Руставели\The Collabo Collection\05 Про ложь feat. Маклай и Ганза.wav
Пиковый уровень 97.7 % Скорость извлечения 3.3 X Качество трека 100.0 % CRC теста C106FB7F CRC копии C106FB7F Трек не обнаружен в базе AccurateRip Копирование... OK
Трек 6
Имя файла C:\Users\Даниил\Downloads\Музыка\Руставели\The Collabo Collection\06 Между завтра и вчера feat. Динайс.wav
Пиковый уровень 97.7 % Скорость извлечения 3.5 X Качество трека 100.0 % CRC теста 1B072A8D CRC копии 1B072A8D Трек не обнаружен в базе AccurateRip Копирование... OK
Трек 7
Имя файла C:\Users\Даниил\Downloads\Музыка\Руставели\The Collabo Collection\07 КМК.wav
Пиковый уровень 97.7 % Скорость извлечения 3.4 X Качество трека 99.9 % CRC теста 761DE26A CRC копии 761DE26A Трек не обнаружен в базе AccurateRip Копирование... OK
Трек 8
Имя файла C:\Users\Даниил\Downloads\Музыка\Руставели\The Collabo Collection\08 Dark queen feat. Гном.wav
Пиковый уровень 97.7 % Скорость извлечения 3.1 X Качество трека 99.9 % CRC теста F1B103AA CRC копии F1B103AA Трек не обнаружен в базе AccurateRip Копирование... OK
Трек 9
Имя файла C:\Users\Даниил\Downloads\Музыка\Руставели\The Collabo Collection\09 Бег от себя.wav
Пиковый уровень 97.7 % Скорость извлечения 3.4 X Качество трека 99.9 % CRC теста E24021CA CRC копии E24021CA Трек не обнаружен в базе AccurateRip Копирование... OK
Трек 10
Имя файла C:\Users\Даниил\Downloads\Музыка\Руставели\The Collabo Collection\10 Ожидание feat. Маклай и Гном.wav
Пиковый уровень 83.1 % Скорость извлечения 4.1 X Качество трека 100.0 % CRC теста 01C5106C CRC копии 01C5106C Трек не обнаружен в базе AccurateRip Копирование... OK
Трек 11
Имя файла C:\Users\Даниил\Downloads\Музыка\Руставели\The Collabo Collection\11 Лучший день feat. Маклай.wav
Пиковый уровень 97.7 % Скорость извлечения 4.1 X Качество трека 100.0 % CRC теста 37D5D54F CRC копии 37D5D54F Трек не обнаружен в базе AccurateRip Копирование... OK
Трек 12
Имя файла C:\Users\Даниил\Downloads\Музыка\Руставели\The Collabo Collection\12 Искра feat. РЕМО.wav
Пиковый уровень 97.7 % Скорость извлечения 4.2 X Качество трека 100.0 % CRC теста C840900D CRC копии C840900D Трек не обнаружен в базе AccurateRip Копирование... OK
Трек 13
Имя файла C:\Users\Даниил\Downloads\Музыка\Руставели\The Collabo Collection\13 День, что прожит зря feat. Марейн и Гном.wav
Пиковый уровень 67.6 % Скорость извлечения 4.5 X Качество трека 100.0 % CRC теста 8E9298B6 CRC копии 8E9298B6 Трек не обнаружен в базе AccurateRip Копирование... OK
Трек 14
Имя файла C:\Users\Даниил\Downloads\Музыка\Руставели\The Collabo Collection\14 Двойные стандарты feat. Санчес.wav
Пиковый уровень 97.7 % Скорость извлечения 4.4 X Качество трека 100.0 % CRC теста 073D6AE1 CRC копии 073D6AE1 Трек не обнаружен в базе AccurateRip Копирование... OK
Трек 15
Имя файла C:\Users\Даниил\Downloads\Музыка\Руставели\The Collabo Collection\15 Инкубатор feat. Нелегал.wav
Пиковый уровень 89.1 % Скорость извлечения 4.4 X Качество трека 100.0 % CRC теста ADE45BE4 CRC копии ADE45BE4 Трек не обнаружен в базе AccurateRip Копирование... OK
Трек 16
Имя файла C:\Users\Даниил\Downloads\Музыка\Руставели\The Collabo Collection\16 Родина feat. Банги Хэп.wav
Пиковый уровень 97.7 % Скорость извлечения 4.8 X Качество трека 100.0 % CRC теста 5B056E3A CRC копии 5B056E3A Трек не обнаружен в базе AccurateRip Копирование... OK
Трек 17
Имя файла C:\Users\Даниил\Downloads\Музыка\Руставели\The Collabo Collection\17 Мизантропия feat. Динайс.wav
Пиковый уровень 97.7 % Скорость извлечения 4.7 X Качество трека 100.0 % CRC теста 154B8CF0 CRC копии 154B8CF0 Трек не обнаружен в базе AccurateRip Копирование... OK
Ни одного трека нет в базе AccurateRip
Ошибок не произошло
Конец отчёта
---- CUETools DB Plugin V2.1.4
[CTDB TOCID: JtV_g6ARZEhz.GbmGfqqUgag9zA-] foundSubmit result: already submittedTrack | CTDB Status 1 | (1/1) Accurately ripped 2 | (1/1) Accurately ripped 3 | (1/1) Accurately ripped 4 | (1/1) Accurately ripped 5 | (1/1) Accurately ripped 6 | (1/1) Accurately ripped 7 | (1/1) Accurately ripped 8 | (1/1) Accurately ripped 9 | (1/1) Accurately ripped 10 | (1/1) Accurately ripped 11 | (1/1) Accurately ripped 12 | (1/1) Accurately ripped 13 | (1/1) Accurately ripped 14 | (1/1) Accurately ripped 15 | (1/1) Accurately ripped 16 | (1/1) Accurately ripped 17 | (1/1) Accurately ripped
==== Контрольная сумма отчёта D8325CF6867EE236A70B999CF8D05791776C82F7227B4BD62C6223175694B6A3 ====

Содержание индексной карты (.CUE)

REM GENRE RapREM DATE 2013REM DISCID E60EC411REM COMMENT "ExactAudioCopy v1.0b4"PERFORMER "Руставели"TITLE "The collabo collection"FILE "01 Бездна feat. Граф.wav" WAVE TRACK 01 AUDIO TITLE "Бездна feat. Граф" PERFORMER "Руставели" INDEX 01 00:00:00FILE "02 На своём feat. Валиум и ШZA.wav" WAVE TRACK 02 AUDIO TITLE "На своём feat. Валиум и ШZA" PERFORMER "Руставели" INDEX 01 00:00:00FILE "03 Страх feat. эРЧуль.wav" WAVE TRACK 03 AUDIO TITLE "Страх feat. эРЧуль" PERFORMER "Руставели" INDEX 01 00:00:00FILE "04 Узники быта feat. ШZA.wav" WAVE TRACK 04 AUDIO TITLE "Узники быта feat. ШZA" PERFORMER "Руставели" INDEX 01 00:00:00FILE "05 Про ложь feat. Маклай и Ганза.wav" WAVE TRACK 05 AUDIO TITLE "Про ложь feat. Маклай и Ганза" PERFORMER "Руставели" INDEX 01 00:00:00FILE "06 Между завтра и вчера feat. Динайс.wav" WAVE TRACK 06 AUDIO TITLE "Между завтра и вчера feat. Динайс" PERFORMER "Руставели" INDEX 01 00:00:00FILE "07 КМК.wav" WAVE TRACK 07 AUDIO TITLE "КМК" PERFORMER "Руставели" INDEX 01 00:00:00FILE "08 Dark queen feat. Гном.wav" WAVE TRACK 08 AUDIO TITLE "Dark queen feat. Гном" PERFORMER "Руставели" INDEX 01 00:00:00FILE "09 Бег от себя.wav" WAVE TRACK 09 AUDIO TITLE "Бег от себя" PERFORMER "Руставели" INDEX 01 00:00:00FILE "10 Ожидание feat. Маклай и Гном.wav" WAVE TRACK 10 AUDIO TITLE "Ожидание feat. Маклай и Гном" PERFORMER "Руставели" INDEX 01 00:00:00FILE "11 Лучший день feat. Маклай.wav" WAVE TRACK 11 AUDIO TITLE "Лучший день feat. Маклай" PERFORMER "Руставели" INDEX 01 00:00:00FILE "12 Искра feat. РЕМО.wav" WAVE TRACK 12 AUDIO TITLE "Искра feat. РЕМО" PERFORMER "Руставели" INDEX 01 00:00:00FILE "13 День, что прожит зря feat. Марейн и Гном.wav" WAVE TRACK 13 AUDIO TITLE "День, что прожит зря feat. Марейн и Гном" PERFORMER "Руставели" INDEX 01 00:00:00FILE "14 Двойные стандарты feat. Санчес.wav" WAVE TRACK 14 AUDIO TITLE "Двойные стандарты feat. Санчес" PERFORMER "Руставели" INDEX 01 00:00:00FILE "15 Инкубатор feat. Нелегал.wav" WAVE TRACK 15 AUDIO TITLE "Инкубатор feat. Нелегал" PERFORMER "Руставели" INDEX 01 00:00:00FILE "16 Родина feat. Банги Хэп.wav" WAVE TRACK 16 AUDIO TITLE "Родина feat. Банги Хэп" PERFORMER "Руставели" INDEX 01 00:00:00FILE "17 Мизантропия feat. Динайс.wav" WAVE TRACK 17 AUDIO TITLE "Мизантропия feat. Динайс" PERFORMER "Руставели" INDEX 01 00:00:00

Лог проверки качества

Tau Analyzer

CUE Corrector

CUE Corrector v.6.9.12 (build 499)
------------------------------------------------------------------------
--- / The collabo collection
Folder: The Collabo Collection
audio files:
01 Бездна feat. Граф [03:53.24, ALAC, 44100Hz, Stereo, 16bit; 27,86 MB (29 210 598 bytes)]
02 На своём feat. Валиум и ШZA [04:02.00, ALAC, 44100Hz, Stereo, 16bit; 26,88 MB (28 185 559 bytes)]
03 Страх feat. эРЧуль [04:38.26, ALAC, 44100Hz, Stereo, 16bit; 32,79 MB (34 378 861 bytes)]
04 Узники быта feat. ШZA [03:40.28, ALAC, 44100Hz, Stereo, 16bit; 27,73 MB (29 081 911 bytes)]
05 Про ложь feat. Маклай и Ганза [03:45.19, ALAC, 44100Hz, Stereo, 16bit; 26,38 MB (27 659 755 bytes)]
06 Между завтра и вчера feat. Динайс [03:50.59, ALAC, 44100Hz, Stereo, 16bit; 27,63 MB (28 973 421 bytes)]
07 КМК [04:43.12, ALAC, 44100Hz, Stereo, 16bit; 21,38 MB (22 416 309 bytes)]
08 Dark queen feat. Гном [02:46.01, ALAC, 44100Hz, Stereo, 16bit; 19,65 MB (20 606 870 bytes)]
09 Бег от себя [03:29.12, ALAC, 44100Hz, Stereo, 16bit; 24,98 MB (26 191 219 bytes)]
10 Ожидание feat. Маклай и Гном [04:13.15, ALAC, 44100Hz, Stereo, 16bit; 31,18 MB (32 693 766 bytes)]
11 Лучший день feat. Маклай [03:16.61, ALAC, 44100Hz, Stereo, 16bit; 23,21 MB (24 339 958 bytes)]
12 Искра feat. РЕМО [03:19.53, ALAC, 44100Hz, Stereo, 16bit; 13,93 MB (14 602 055 bytes)]
13 День, что прожит зря feat. Марейн и Гном [04:30.01, ALAC, 44100Hz, Stereo, 16bit; 31,43 MB (32 955 571 bytes)]
14 Двойные стандарты feat. Санчес [02:59.49, ALAC, 44100Hz, Stereo, 16bit; 21,25 MB (22 286 141 bytes)]
15 Инкубатор feat. Нелегал [02:55.24, ALAC, 44100Hz, Stereo, 16bit; 18,55 MB (19 456 007 bytes)]
16 Родина feat. Банги Хэп [03:54.20, ALAC, 44100Hz, Stereo, 16bit; 27,00 MB (28 309 280 bytes)]
17 Мизантропия feat. Динайс [03:02.74, ALAC, 44100Hz, Stereo, 16bit; 13,86 MB (14 528 342 bytes)]
Accuracy: -m8
File 01 Бездна feat. Граф - 100% CDDA [03:53.24]
Detected average hi-boundary frequency : 2.125433e+004 Hz
Detected average lo-boundary frequency : 1.669293e+004 Hz
Detected average hi-cut frequency : 2.183600e+004 Hz
Detected average lo-cut frequency : 1.824393e+004 Hz
Maximum probablis boundary frequency : 2.189100e+004 Hz
Coefficient of nonlinearity of a phase : 6.098596e-002
First order smothness : 6.357143e-001
Second order smothness : 7.000000e-001
File 02 На своём feat. Валиум и ШZA - 100% CDDA [04:02.00]
Detected average hi-boundary frequency : 2.040132e+004 Hz
Detected average lo-boundary frequency : 1.404702e+004 Hz
Detected average hi-cut frequency : 2.175086e+004 Hz
Detected average lo-cut frequency : 1.346173e+004 Hz
Maximum probablis boundary frequency : 2.189100e+004 Hz
Coefficient of nonlinearity of a phase : 7.157047e-001
First order smothness : 4.344828e-001
Second order smothness : 6.620690e-001
File 03 Страх feat. эРЧуль - 100% CDDA [04:38.26]
Detected average hi-boundary frequency : 2.104442e+004 Hz
Detected average lo-boundary frequency : 1.453813e+004 Hz
Detected average hi-cut frequency : 2.169159e+004 Hz
Detected average lo-cut frequency : 1.579062e+004 Hz
Maximum probablis boundary frequency : 2.190200e+004 Hz
Coefficient of nonlinearity of a phase : 1.061918e+000
First order smothness : 5.435435e-001
Second order smothness : 6.246246e-001
File 04 Узники быта feat. ШZA - 100% CDDA [03:40.28]
Detected average hi-boundary frequency : 2.053000e+004 Hz
Detected average lo-boundary frequency : 1.395715e+004 Hz
Detected average hi-cut frequency : 2.193082e+004 Hz
Detected average lo-cut frequency : 1.646591e+004 Hz
Maximum probablis boundary frequency : 2.189100e+004 Hz
Coefficient of nonlinearity of a phase : 1.459488e-001
First order smothness : 4.659091e-001
Second order smothness : 7.196970e-001
File 05 Про ложь feat. Маклай и Ганза - 100% CDDA [03:45.19]
Detected average hi-boundary frequency : 2.052116e+004 Hz
Detected average lo-boundary frequency : 1.256177e+004 Hz
Detected average hi-cut frequency : 2.166523e+004 Hz
Detected average lo-cut frequency : 1.384672e+004 Hz
Maximum probablis boundary frequency : 2.122900e+004 Hz
Coefficient of nonlinearity of a phase : 1.105692e+000
First order smothness : 4.296296e-001
Second order smothness : 6.851852e-001
File 06 Между завтра и вчера feat. Динайс - 100% MPEG [03:50.59]
Detected average hi-boundary frequency : 2.136388e+004 Hz
Detected average lo-boundary frequency : 1.891489e+004 Hz
Detected average hi-cut frequency : 2.155808e+004 Hz
Detected average lo-cut frequency : 2.110095e+004 Hz
Maximum probablis boundary frequency : 2.192900e+004 Hz
Coefficient of nonlinearity of a phase : 1.991484e-001
First order smothness : 7.689531e-001
Second order smothness : 8.664260e-001
File 07 КМК - 100% CDDA [04:43.12]
Detected average hi-boundary frequency : 2.028159e+004 Hz
Detected average lo-boundary frequency : 1.343132e+004 Hz
Detected average hi-cut frequency : 2.116789e+004 Hz
Detected average lo-cut frequency : 9.338159e+003 Hz
Maximum probablis boundary frequency : 2.189600e+004 Hz
Coefficient of nonlinearity of a phase : 1.239654e+000
First order smothness : 4.513274e-001
Second order smothness : 3.893805e-001
File 08 Dark queen feat. Гном - 100% CDDA [02:46.01]
Detected average hi-boundary frequency : 2.054148e+004 Hz
Detected average lo-boundary frequency : 1.223467e+004 Hz
Detected average hi-cut frequency : 2.159835e+004 Hz
Detected average lo-cut frequency : 1.310852e+004 Hz
Maximum probablis boundary frequency : 2.191300e+004 Hz
Coefficient of nonlinearity of a phase : 1.079835e+000
First order smothness : 5.175879e-001
Second order smothness : 7.537688e-001
File 09 Бег от себя - 100% CDDA [03:29.12]
Detected average hi-boundary frequency : 2.041337e+004 Hz
Detected average lo-boundary frequency : 1.370521e+004 Hz
Detected average hi-cut frequency : 2.154604e+004 Hz
Detected average lo-cut frequency : 1.474648e+004 Hz
Maximum probablis boundary frequency : 2.129400e+004 Hz
Coefficient of nonlinearity of a phase : 2.270503e-001
First order smothness : 4.422311e-001
Second order smothness : 6.613546e-001
File 10 Ожидание feat. Маклай и Гном - 99% CDDA [04:13.15]
Detected average hi-boundary frequency : 2.060374e+004 Hz
Detected average lo-boundary frequency : 1.302856e+004 Hz
Detected average hi-cut frequency : 2.187530e+004 Hz
Detected average lo-cut frequency : 1.707732e+004 Hz
Maximum probablis boundary frequency : 2.189600e+004 Hz
Coefficient of nonlinearity of a phase : 7.907602e-001
First order smothness : 4.620462e-001
Second order smothness : 7.425743e-001
File 11 Лучший день feat. Маклай - 100% CDDA [03:16.61]
Detected average hi-boundary frequency : 2.074284e+004 Hz
Detected average lo-boundary frequency : 1.428088e+004 Hz
Detected average hi-cut frequency : 2.195224e+004 Hz
Detected average lo-cut frequency : 1.821388e+004 Hz
Maximum probablis boundary frequency : 2.189100e+004 Hz
Coefficient of nonlinearity of a phase : 8.270606e-001
First order smothness : 4.703390e-001
Second order smothness : 7.161017e-001
File 12 Искра feat. РЕМО - 100% CDDA [03:19.53]
Detected average hi-boundary frequency : 2.054761e+004 Hz
Detected average lo-boundary frequency : 1.461631e+004 Hz
Detected average hi-cut frequency : 2.143764e+004 Hz
Detected average lo-cut frequency : 1.463343e+004 Hz
Maximum probablis boundary frequency : 2.189100e+004 Hz
Coefficient of nonlinearity of a phase : 3.344409e-001
First order smothness : 4.602510e-001
Second order smothness : 6.192469e-001
File 13 День, что прожит зря feat. Марейн и Гном - 100% CDDA [04:30.01]
Detected average hi-boundary frequency : 2.050193e+004 Hz
Detected average lo-boundary frequency : 1.363382e+004 Hz
Detected average hi-cut frequency : 2.183990e+004 Hz
Detected average lo-cut frequency : 1.281956e+004 Hz
Maximum probablis boundary frequency : 2.192300e+004 Hz
Coefficient of nonlinearity of a phase : 9.107828e-001
First order smothness : 4.197531e-001
Second order smothness : 5.432099e-001
File 14 Двойные стандарты feat. Санчес - 100% CDDA [02:59.49]
Detected average hi-boundary frequency : 2.084378e+004 Hz
Detected average lo-boundary frequency : 1.667667e+004 Hz
Detected average hi-cut frequency : 2.175617e+004 Hz
Detected average lo-cut frequency : 1.841312e+004 Hz
Maximum probablis boundary frequency : 2.190200e+004 Hz
Coefficient of nonlinearity of a phase : 1.045968e-001
First order smothness : 5.674419e-001
Second order smothness : 6.325581e-001
File 15 Инкубатор feat. Нелегал - 100% CDDA [02:55.24]
Detected average hi-boundary frequency : 2.050559e+004 Hz
Detected average lo-boundary frequency : 1.494068e+004 Hz
Detected average hi-cut frequency : 2.150542e+004 Hz
Detected average lo-cut frequency : 1.054005e+004 Hz
Maximum probablis boundary frequency : 2.191300e+004 Hz
Coefficient of nonlinearity of a phase : 9.927032e-001
First order smothness : 4.952381e-001
Second order smothness : 5.190476e-001
File 16 Родина feat. Банги Хэп - 99% CDDA [03:54.20]
Detected average hi-boundary frequency : 2.071007e+004 Hz
Detected average lo-boundary frequency : 1.402539e+004 Hz
Detected average hi-cut frequency : 2.145264e+004 Hz
Detected average lo-cut frequency : 1.629199e+004 Hz
Maximum probablis boundary frequency : 2.189100e+004 Hz
Coefficient of nonlinearity of a phase : 9.310726e-001
First order smothness : 4.519573e-001
Second order smothness : 6.725979e-001
File 17 Мизантропия feat. Динайс - 99% CDDA [03:02.74]
Detected average hi-boundary frequency : 2.034281e+004 Hz
Detected average lo-boundary frequency : 1.368997e+004 Hz
Detected average hi-cut frequency : 2.121146e+004 Hz
Detected average lo-cut frequency : 9.662967e+003 Hz
Maximum probablis boundary frequency : 2.156800e+004 Hz
Coefficient of nonlinearity of a phase : 1.209814e+000
First order smothness : 3.972603e-001
Second order smothness : 5.570776e-001
----- Summary: -----
Could not qualify the source of these tracks.
------------------------------------------------------------------------
ANALYZER:
auCDtect: CD records authenticity detector, version 0.8.2
Copyright (c) 2004 Oleg Berngardt. All rights reserved.
Copyright (c) 2004 Alexander Djourik. All rights reserved.
Time elapsed: 22.4 s
Log created at February 15, 2015 05:06:48
=== AF86385093EE8891F65C4D8977D4A932A3BB65DAF9045A24D78936A87D564683 ===

Скриншот(ы) тегов iTunes

Скриншот спектра частот

[ru-zerkalo.org]_t_4940864
Torrent: Registered ·  [ 2019-05-05 19:12 ] ·  ee444c4160e892cb0233b7077b27af8c301cd687

33 KB

Status: checked
Completed: 0 times
Size: 2.59 GB
Rating: 
(Votes: 0)
Say thanks: 0  Thanks
 
[Profile] [PM]
Display posts from previous:    
Reply to topic

The time now is: Today 19:20

All times are GMT + 7 Hours



You cannot post new topics in this forum
You cannot reply to topics in this forum
You cannot edit your posts in this forum
You cannot delete your posts in this forum
You cannot vote in polls in this forum
You cannot attach files in this forum
You can download files in this forum