Register · 
Username: Password:
 ·  Forgot password?

Вилли - поющий кит / Вилли-оперный кит / Willie the Operatic Whale (Клайд Джероними / Clyde Geronimi, Хэмильтон Ласки / Hamilton Luske) [1946, США, мультфильм, музыкальный, DVDRip] AVO (Михалёв) + MVO (Мьюзик Трейд) + MVO (DVD-Магия)

Reply to topic
DL-List and Torrent activity [Update пиров]
Size:  248 MB   |    Registered:  9 months 7 days   |    Completed:  0 times

Seeder not seen: Never

 
   
 
 
 
Author Message

Andrew1225 ®

Gender:

Longevity: 6 years 4 months

Posts: 17668

Post 09-May-2019 21:36

[Quote]

Вилли - поющий кит / Willie the Operatic Whale
Страна: США
Жанр: мультфильм, музыкальный
Продолжительность: 00:14:36
Год выпуска: 1946
Перевод: Авторский (одноголосый закадровый) - Алексей Михалёв
Перевод: Профессиональный (многоголосый закадровый) - Мьюзик Трейд
Перевод: Профессиональный (многоголосый закадровый) - DVD-Магия
Русские субтитры: нет

Режиссёр: Клайд Джероними / Clyde Geronimi, Хэмильтон Ласки / Hamilton Luske
Описание: Газетные заголовки сообщают - Метрополитен-опера ищет великолепно поющее морское чудище! На самом деле, "чудище" - это Вилли, кит, поющий одновременно несколькими голосами. Его друг, чайка Уайти сообщает ему о поисковом судне, разыскивающем его, и Вилли идет на прослушивание. Однако, профессор Тетти Татти считает, что Вилли проглотил нескольких оперных певцов и хочет их вызволить.
Дополнительная информация: Данный мультфильм выходил и как самостоятельное произведение, и как часть полнометражки "Make Mine Music".
Данная раздача создана только ради перевода Алексея Михалёва. Михалёв не переводил полностью "Make Mine Music", но перевел несколько короткометражек, вошедших в него.
Большое спасибо [url=profile.php?mode=viewprofile&u=20793659]pupsic197[/url] за оцифровку звука с VHS. За синхронизацию звука и исходный DVD большое спасибо [url=profile.php?mode=viewprofile&u=1793838]xfiles[/url]!
Качество: DVDRip
Формат: AVI
Видео: 640x480 (1.33:1), 23.976 fps, XviD build 73 ~1773 kbps avg, 0.24 bit/pixel
Аудио: 48 kHz, AC3 Dolby Digital, 2/0 (L,R) ch, ~192 kbps - Алексей Михалёв
Аудио: 48 kHz, AC3 Dolby Digital, 2/0 (L,R) ch, ~192 kbps - Мьюзик Трейд
Аудио: 48 kHz, AC3 Dolby Digital, 2/0 (L,R) ch, ~192 kbps - DVD-Магия
Субтитры: отсутствуют

Подробные технические данные

ОбщееПолное имя : H:\Willie.the.Operatic.Whale.1946.dvdrip_[teko].aviФормат : AVIФормат/Информация : Audio Video InterleaveРазмер файла : 248 МбайтПродолжительность : 14 м.Общий поток : 2369 Кбит/секПрограмма кодирования : VirtualDubMod 1.5.10.3 | www.virtualdub-fr.org || (build 2550/release)Библиотека кодирования : VirtualDubMod build 2550/release
ВидеоИдентификатор : 0Формат : MPEG-4 VisualПрофиль формата : Advanced Simple@L5Параметр BVOP формата : 2Параметр QPel формата : НетПараметр GMC формата : Без точки переходаПараметр матрицы формата : ВыборочнаяИдентификатор кодека : XVIDИдентификатор кодека/Подсказка : XviDПродолжительность : 14 м.Битрейт : 1774 Кбит/секШирина : 640 пикселейВысота : 480 пикселейСоотношение сторон : 4:3Частота кадров : 23,976 кадра/секЦветовое пространство : YUVСубдискретизация насыщенности : 4:2:0Битовая глубина : 8 битТип развёртки : ПрогрессивнаяМетод сжатия : С потерямиБит/(Пиксели*Кадры) : 0.241Размер потока : 185 Мбайт (75%)Библиотека кодирования : XviD 73
Аудио #1Идентификатор : 1Формат : AC-3Формат/Информация : Audio Coding 3Расширение режима : CM (complete main)Параметр Endianness формата : BigИдентификатор кодека : 2000Продолжительность : 14 м.Вид битрейта : ПостоянныйБитрейт : 192 Кбит/секКаналы : 2 каналаРасположение каналов : Front: L RЧастота : 48,0 КГцБитовая глубина : 16 битМетод сжатия : С потерямиРазмер потока : 20,1 Мбайт (8%)Выравнивание : Разделение по промежуткамПродолжительность промежутка : 42 мс. (1,00 видеокадр)Время предзагрузки промежутка : 500 мс.
Аудио #2Идентификатор : 2Формат : AC-3Формат/Информация : Audio Coding 3Расширение режима : CM (complete main)Параметр Endianness формата : BigИдентификатор кодека : 2000Продолжительность : 14 м.Вид битрейта : ПостоянныйБитрейт : 192 Кбит/секКаналы : 2 каналаРасположение каналов : Front: L RЧастота : 48,0 КГцБитовая глубина : 16 битМетод сжатия : С потерямиРазмер потока : 20,1 Мбайт (8%)Выравнивание : Разделение по промежуткамПродолжительность промежутка : 42 мс. (1,00 видеокадр)Время предзагрузки промежутка : 500 мс.
Аудио #3Идентификатор : 3Формат : AC-3Формат/Информация : Audio Coding 3Расширение режима : CM (complete main)Параметр Endianness формата : BigИдентификатор кодека : 2000Продолжительность : 14 м.Вид битрейта : ПостоянныйБитрейт : 192 Кбит/секКаналы : 2 каналаРасположение каналов : Front: L RЧастота : 48,0 КГцБитовая глубина : 16 битМетод сжатия : С потерямиРазмер потока : 20,1 Мбайт (8%)Выравнивание : Разделение по промежуткамПродолжительность промежутка : 42 мс. (1,00 видеокадр)Время предзагрузки промежутка : 500 мс.
:--
[ru-zerkalo.org]_t_5171210
Torrent: Registered ·  [ 2019-05-09 21:35 ] ·  df3aabd1668ccafbc4c8b12cf8e16fd5f958a5cd

20 KB

Status: checked
Completed: 0 times
Size: 248 MB
Rating: 
(Votes: 0)
Say thanks: 0  Thanks
 
Похожие темы
[Profile] [PM]
Display posts from previous:    
Reply to topic

The time now is: Today 15:07

All times are GMT + 7 Hours



You cannot post new topics in this forum
You cannot reply to topics in this forum
You cannot edit your posts in this forum
You cannot delete your posts in this forum
You cannot vote in polls in this forum
You cannot attach files in this forum
You can download files in this forum