Register · 
Username: Password:
 ·  Forgot password?

BBC. Тайная наука. Химическое и биологическое оружие / Secret Science: Chemical And Biological Weapons (Тим Усборн / Tim Usborne) [2016, Документальный, познавательный, DVB]

Reply to topic
DL-List and Torrent activity [Update пиров]
Size:  765 MB   |    Registered:  6 months 11 days   |    Completed:  1 time

Seeder not seen: 4 months 9 days

 
   
 
 
 
Author Message

Shadow123 ®

Gender:

Longevity: 6 years 2 months

Posts: 14946

Post 29-May-2019 22:45

[Quote]

Тайная наука. Химическое и биологическое оружие / Secret Science: Chemical And Biological Weapons
Дата/Год выпуска: 2016
Страна: Великобритания, Art Lab Films for BBC
Жанр: Документальный, познавательный
Продолжительность: ~ 00:48:52
Перевод: Профессиональный (двухголосый закадровый)
Доп. инфо о переводе: Видеофильм ТВ
Режиссер: Тим Усборн / Tim Usborne
Телеканал: Наука
Описание: Документальный фильм о Porton Down, британской военной и научной базе, которая специализируется на химической и биологической войне и борьбе с глобальным терроризмом. Сверхсекретное британское военное подразделение было впервые создано в Первой мировой войне в ответ на прогресс в химической войне. Теперь он помогает бороться с биологическим оружием и глобальным терроризмом. Программа также исследует противоречия, которые поглотили Портон-Даун. Как далеко должен идти один отряд в битве против химической и биологической войны и что происходит, когда противник отказывается играть по правилам Женевской конвенции?
IMDB
Сэмпл: http://www.sendspace.com/file/7k2h7e
качество: DVB
формат: TS/M2TS
Видео: 720x576 (16:9) AVC (H.264) Main@L3.0, ~ 1888 kbps, 25fps
Аудио: Русский 48 kHz, MPEG Layer 2, 2 ch, ~192.00 kbps avg

MediaInfo

Complete name : F:\Наладки\SD-фильмы\Тайная наука_ Химическое и биологическое оружие.tsFormat : MPEG-TSFile size : 765 MiBDuration : 48 min 52 sOverall bit rate mode : VariableOverall bit rate : 2 190 kb/s
VideoID : 401 (0x191)Menu ID : 2608 (0xA30)Format : AVCFormat/Info : Advanced Video CodecFormat profile : Main@L3Format settings : CABAC / 4 Ref FramesFormat settings, CABAC : YesFormat settings, ReFrames : 4 framesCodec ID : 27Duration : 48 min 52 sBit rate : 1 888 kb/sWidth : 720 pixelsHeight : 576 pixelsDisplay aspect ratio : 16:9Frame rate : 25.000 FPSStandard : ComponentColor space : YUVChroma subsampling : 4:2:0Bit depth : 8 bitsScan type : InterlacedScan type, store method : Separated fieldsScan order : Top Field FirstBits/(Pixel*Frame) : 0.182Stream size : 660 MiB (86%)Color range : LimitedColor primaries : BT.601 PALTransfer characteristics : BT.470 System B, BT.470 System GMatrix coefficients : BT.470 System B, BT.470 System G
AudioID : 402 (0x192)Menu ID : 2608 (0xA30)Format : MPEG AudioFormat version : Version 1Format profile : Layer 2Codec ID : 3Duration : 48 min 52 sBit rate mode : ConstantBit rate : 192 kb/sChannel(s) : 2 channelsSampling rate : 48.0 kHzFrame rate : 41.667 FPS (1152 SPF)Compression mode : LossyDelay relative to video : -120 msStream size : 67.1 MiB (9%)Language : Russian

Скриншоты 720x576

Скриншоты анаморф: 1047x576


[ru-zerkalo.org]_t_5736830
Torrent: Registered ·  [ 2019-05-29 22:41 ] ·  149ed2ee744d7af561cbed3bafdc5aa93db0293a

15 KB

Status: checked
Completed: 1 times
Size: 765 MB
Rating: 
(Votes: 0)
Say thanks: 0  Thanks
 
Похожие темы
[Profile] [PM]
Display posts from previous:    
Reply to topic

The time now is: Today 02:28

All times are GMT + 7 Hours



You cannot post new topics in this forum
You cannot reply to topics in this forum
You cannot edit your posts in this forum
You cannot delete your posts in this forum
You cannot vote in polls in this forum
You cannot attach files in this forum
You can download files in this forum