Register · 
Username: Password:
 ·  Forgot password?

(Fusion) [CD] Divje Jezero [Discography 2CD]: 2015-2017, FLAC (tracks+.cue), lossless

Reply to topic
DL-List and Torrent activity [Update пиров]
Size:  782 MB   |    Registered:  5 months 14 days   |    Completed:  0 times

Seeder not seen: Never

 
   
 
 
 
Author Message

Shadow123 ®

Gender:

Longevity: 6 years 1 month

Posts: 14768

Post 06-Jun-2019 03:46

[Quote]


DIVJE JEZERO
Discography [2CD]: 2015-2017
Жанр: Fusion | Jazz-Rock Годы издания дисков: 2015, 2017 | Страна: Slovenia
Label: Celinka | Sazas Тип рипа: tracks+.cue | Битрейт аудио: lossless | Источник: свои рипы
Продолжительность: 60:00 | 50:41

2015 - Mestni Vrvež [Mestni Vrvez][Celinka | Sazas / CEL CD 086]

Треклист:
1. Policijska Patrulja. 4:52
2. Skrivnost. 5:46
3. Mestni Vrvež. 3:44
4. Zlobne Gobe. 6:39
5. Uvertura XIX. 8:57
6. Kapljica. 4:57
7. Po Dežju. 5:22
8. Nomad. 8:24
9. Šnita Kruha. 5:16
10. Burkina Faso. 6:02
Total Time: 60:00
Музыканты:
- Alan Bogataj / bas kitara
- Luka Čibej / bobni, tolkala
- Aleš Golja / el. kitara
- David Križaj / klaviature, harmonika
- Tomi Peljhan / saxofon
Gost:
- Ana Bogataj / flavta

EAC log

Exact Audio Copy V1.0 beta 4 from 7. December 2014
EAC extraction logfile from 4. June 2019, 16:57
Divje Jezero / Mestni Vrvež
Used drive : ATAPI iHAS124 F Adapter: 1 ID: 0
Read mode : SecureUtilize accurate stream : YesDefeat audio cache : YesMake use of C2 pointers : No
Read offset correction : 6Overread into Lead-In and Lead-Out : NoFill up missing offset samples with silence : YesDelete leading and trailing silent blocks : NoNull samples used in CRC calculations : YesUsed interface : Native Win32 interface for Win NT & 2000Gap handling : Appended to previous track
Used output format : User Defined EncoderSelected bitrate : 896 kBit/sQuality : HighAdd ID3 tag : NoCommand line compressor : C:\Program Files\flac-1.3.2-win\win64\flac.exeAdditional command line options : -8 -V -T "ARTIST=%artist%" -T "TITLE=%title%" -T "ALBUM=%albumtitle%" -T "DATE=%year%" -T "TRACKNUMBER=%tracknr%" -T "GENRE=%genre%" -T "COMMENT=ripped by vp_sunset" %source% -o %dest%
TOC of the extracted CD
Track | Start | Length | Start sector | End sector --------------------------------------------------------- 1 | 0:00.00 | 4:52.27 | 0 | 21926 2 | 4:52.27 | 5:46.23 | 21927 | 47899 3 | 10:38.50 | 3:44.00 | 47900 | 64699 4 | 14:22.50 | 6:39.37 | 64700 | 94661 5 | 21:02.12 | 8:56.65 | 94662 | 134926 6 | 29:59.02 | 4:56.72 | 134927 | 157198 7 | 34:55.74 | 5:21.70 | 157199 | 181343 8 | 40:17.69 | 8:24.08 | 181344 | 219151 9 | 48:42.02 | 5:15.57 | 219152 | 242833 10 | 53:57.59 | 6:01.67 | 242834 | 269975
Track 1
Filename C:\_EAC\01. Policijska Patrulja.wav
Pre-gap length 0:00:02.00
Peak level 97.6 % Extraction speed 5.4 X Track quality 100.0 % Test CRC 343B3420 Copy CRC 343B3420 Accurately ripped (confidence 1) [23ADD99A] (AR v2) Copy OK
Track 2
Filename C:\_EAC\02. Skrivnost.wav
Pre-gap length 0:00:01.93
Peak level 97.5 % Extraction speed 6.3 X Track quality 100.0 % Test CRC 5CC5CDF5 Copy CRC 5CC5CDF5 Accurately ripped (confidence 1) [16047900] (AR v2) Copy OK
Track 3
Filename C:\_EAC\03. Mestni Vrvež.wav
Pre-gap length 0:00:02.00
Peak level 97.6 % Extraction speed 6.6 X Track quality 100.0 % Test CRC 7FB8400B Copy CRC 7FB8400B Accurately ripped (confidence 1) [C368C9F6] (AR v2) Copy OK
Track 4
Filename C:\_EAC\04. Zlobne Gobe.wav
Pre-gap length 0:00:02.00
Peak level 97.6 % Extraction speed 7.6 X Track quality 100.0 % Test CRC 8680C514 Copy CRC 8680C514 Accurately ripped (confidence 1) [FE5822D5] (AR v2) Copy OK
Track 5
Filename C:\_EAC\05. Uvertura XIX.wav
Pre-gap length 0:00:02.00
Peak level 97.6 % Extraction speed 7.9 X Track quality 99.9 % Test CRC 01060B4E Copy CRC 01060B4E Accurately ripped (confidence 1) [824CAE3B] (AR v2) Copy OK
Track 6
Filename C:\_EAC\06. Kapljica.wav
Pre-gap length 0:00:02.00
Peak level 97.5 % Extraction speed 8.9 X Track quality 100.0 % Test CRC 9AA4DB28 Copy CRC 9AA4DB28 Accurately ripped (confidence 1) [04E3E811] (AR v2) Copy OK
Track 7
Filename C:\_EAC\07. Po Dežju.wav
Pre-gap length 0:00:02.00
Peak level 97.5 % Extraction speed 9.4 X Track quality 100.0 % Test CRC 18EA41CB Copy CRC 18EA41CB Accurately ripped (confidence 1) [29B524B4] (AR v2) Copy OK
Track 8
Filename C:\_EAC\08. Nomad.wav
Pre-gap length 0:00:02.00
Peak level 97.6 % Extraction speed 10.3 X Track quality 100.0 % Test CRC FEF1CE41 Copy CRC FEF1CE41 Accurately ripped (confidence 1) [B9CF1249] (AR v2) Copy OK
Track 9
Filename C:\_EAC\09. Šnita Kruha.wav
Pre-gap length 0:00:02.00
Peak level 97.5 % Extraction speed 10.3 X Track quality 100.0 % Test CRC AB8A5FDF Copy CRC AB8A5FDF Accurately ripped (confidence 1) [DBB2ED9C] (AR v2) Copy OK
Track 10
Filename C:\_EAC\10. Burkina Faso.wav
Pre-gap length 0:00:01.93
Peak level 97.6 % Extraction speed 9.4 X Track quality 99.9 % Test CRC 422C1B3B Copy CRC 422C1B3B Accurately ripped (confidence 1) [222394D7] (AR v2) Copy OK
All tracks accurately ripped
No errors occurred
End of status report
---- CUETools DB Plugin V2.1.4
[CTDB TOCID: q1x2fPZX0mXa5uDN1.iJU.rATn4-] foundSubmit result: q1x2fPZX0mXa5uDN1.iJU.rATn4- has been confirmedTrack | CTDB Status 1 | (2/2) Accurately ripped 2 | (2/2) Accurately ripped 3 | (2/2) Accurately ripped 4 | (2/2) Accurately ripped 5 | (2/2) Accurately ripped 6 | (2/2) Accurately ripped 7 | (2/2) Accurately ripped 8 | (2/2) Accurately ripped 9 | (2/2) Accurately ripped 10 | (2/2) Accurately ripped
==== Log checksum 3DBF9DAF0EEB81EA8A2AEDD12F1F1EEE22A6DE5A5A029EBE084A0B042182C214 ====

CUE sheet

REM GENRE FusionREM DATE 2015REM DISCID 880E0F0AREM COMMENT "ExactAudioCopy v1.0b4"PERFORMER "Divje Jezero"TITLE "Mestni Vrvež"FILE "01. Policijska Patrulja.wav" WAVE TRACK 01 AUDIO TITLE "Policijska Patrulja" PERFORMER "Divje Jezero" FLAGS DCP INDEX 01 00:00:00 TRACK 02 AUDIO TITLE "Skrivnost" PERFORMER "Divje Jezero" FLAGS DCP INDEX 00 04:50:32FILE "02. Skrivnost.wav" WAVE INDEX 01 00:00:00 TRACK 03 AUDIO TITLE "Mestni Vrvež" PERFORMER "Divje Jezero" FLAGS DCP INDEX 00 05:44:23FILE "03. Mestni Vrvež.wav" WAVE INDEX 01 00:00:00 TRACK 04 AUDIO TITLE "Zlobne Gobe" PERFORMER "Divje Jezero" FLAGS DCP INDEX 00 03:42:00FILE "04. Zlobne Gobe.wav" WAVE INDEX 01 00:00:00 TRACK 05 AUDIO TITLE "Uvertura XIX" PERFORMER "Divje Jezero" FLAGS DCP INDEX 00 06:37:37FILE "05. Uvertura XIX.wav" WAVE INDEX 01 00:00:00 TRACK 06 AUDIO TITLE "Kapljica" PERFORMER "Divje Jezero" FLAGS DCP INDEX 00 08:54:65FILE "06. Kapljica.wav" WAVE INDEX 01 00:00:00 TRACK 07 AUDIO TITLE "Po Dežju" PERFORMER "Divje Jezero" FLAGS DCP INDEX 00 04:54:72FILE "07. Po Dežju.wav" WAVE INDEX 01 00:00:00 TRACK 08 AUDIO TITLE "Nomad" PERFORMER "Divje Jezero" FLAGS DCP INDEX 00 05:19:70FILE "08. Nomad.wav" WAVE INDEX 01 00:00:00 TRACK 09 AUDIO TITLE "Šnita Kruha" PERFORMER "Divje Jezero" FLAGS DCP INDEX 00 08:22:08FILE "09. Šnita Kruha.wav" WAVE INDEX 01 00:00:00 TRACK 10 AUDIO TITLE "Burkina Faso" PERFORMER "Divje Jezero" FLAGS DCP INDEX 00 05:13:62FILE "10. Burkina Faso.wav" WAVE INDEX 01 00:00:00

Лог проверки качества

-----------------------
DON'T MODIFY THIS FILE
-----------------------
PERFORMER: auCDtect Task Manager, ver. 1.6.0 RC1 build 1.6.0.1Copyright (c) 2008-2010 y-soft. All rights reservedhttp://y-soft.org
ANALYZER: auCDtect: CD records authenticity detector, version 0.8.2Copyright (c) 2004 Oleg Berngardt. All rights reserved.Copyright (c) 2004 Alexander Djourik. All rights reserved.
FILE: 01. Policijska Patrulja.flac Size: 34830930 Hash: C1F3043EC851F746890478EBF22454CB Accuracy: -m0 Conclusion: CDDA 100% Signature: C9900704FB83C0FA18A643C8FAF5E67A3B8DEFD4FILE: 02. Skrivnost.flac Size: 37908903 Hash: 2624FB2C9D514E315530238D9499DE01 Accuracy: -m0 Conclusion: CDDA 100% Signature: 286D66557504BABA885C6583A489F2D6A668DFF7FILE: 03. Mestni Vrvež.flac Size: 25702847 Hash: 064A1BEDDCAAF25B6B1B30A1ABF365AF Accuracy: -m0 Conclusion: CDDA 100% Signature: B5A301B4D33E36728EA7673790B84702A2E2D8B1FILE: 04. Zlobne Gobe.flac Size: 44652367 Hash: 38D9E35170D6F85BFFC94122DCEA4B00 Accuracy: -m0 Conclusion: CDDA 100% Signature: 3FE2AF14EACEEC855C6D12368334242531BFBCB3FILE: 05. Uvertura XIX.flac Size: 58179145 Hash: 7EA1DA1E9805FB811766CDD9A7CCDCFE Accuracy: -m0 Conclusion: CDDA 100% Signature: AD8BC3CC02B20770ED4AC9CC51EB06EB1FA39EB2FILE: 06. Kapljica.flac Size: 29170359 Hash: 0D28FC57F6DFEA6F4D2DA69B85E66D10 Accuracy: -m0 Conclusion: CDDA 100% Signature: 26C50C637C8B68E2C41AF2E740DD6572DE861C05FILE: 07. Po Dežju.flac Size: 36420626 Hash: 72D5532B7BA3E06F7C25A8BF208B8CD9 Accuracy: -m0 Conclusion: CDDA 100% Signature: 5AD6F2E290CDDFBC9E03EE45A3437D710D2DD479FILE: 08. Nomad.flac Size: 55389639 Hash: 47CC0483FA16B265A8D9A96C0B42B69D Accuracy: -m0 Conclusion: CDDA 100% Signature: 39FA584756970DB7C0E33B57CA4CD80062C4672EFILE: 09. Šnita Kruha.flac Size: 34903154 Hash: 463395DBFAE8912EA323FBCFA0F1909F Accuracy: -m0 Conclusion: CDDA 100% Signature: 44475E811D7E78A2309264F02CBE8AE33A7DD047FILE: 10. Burkina Faso.flac Size: 37861222 Hash: CCEA688A728EAD153ECCB4ECA153B8E0 Accuracy: -m0 Conclusion: CDDA 100% Signature: BF235FC60CF61C9CC7B7E6F6B5376A0A38566B81

DRM.log

foobar2000 1.4.2 / Замер динамического диапазона (DR) 1.1.1Дата отчёта: 2019-06-04 18:29:11
--------------------------------------------------------------------------------Анализ: Divje Jezero / Mestni Vrvež--------------------------------------------------------------------------------
DR Пики RMS Продолжительность трека--------------------------------------------------------------------------------DR9 -0.21 дБ -10.86 дБ 4:52 01-Policijska PatruljaDR7 -0.21 дБ -10.10 дБ 5:46 02-SkrivnostDR8 -0.21 дБ -9.14 дБ 3:44 03-Mestni VrvežDR8 -0.21 дБ -10.01 дБ 6:39 04-Zlobne GobeDR8 -0.21 дБ -10.63 дБ 8:57 05-Uvertura XIXDR9 -0.21 дБ -12.26 дБ 4:57 06-KapljicaDR10 -0.21 дБ -10.92 дБ 5:22 07-Po DežjuDR9 -0.20 дБ -11.52 дБ 8:24 08-NomadDR9 -0.21 дБ -11.01 дБ 5:16 09-Šnita KruhaDR9 -0.21 дБ -11.96 дБ 6:02 10-Burkina Faso--------------------------------------------------------------------------------
Количество треков: 10Реальные значения DR: DR9
Частота: 44100 ГцКаналов: 2Разрядность: 16Битрейт: 834 кбит/сКодек: FLAC================================================================================

2017 - Pobeg iz blodnjaka / Escape From The Maze [Celinka | Sazas / CEL CD 120]

Треклист:
1. Pobeg iz blodnjaka / Escape From the Maze. 5:32
2. Milano. 6:19
3. Jutranji ples / Morning Dance. 7:07
4. Noč in dan / Night & Day. 7:30
5. Mornarska zmeda / Sailor's Mess. 7:00
6. Žirafe / Giraffes. 4:34
7. Vzemi si trenutek / Take a Moment. 3:53
8. Marakeška tržnica / Marrakesh Market. 7:17
9. Ob pravem času / On Time (Reprise). 1:05
Total Time: 50:41
Музыканты:
- Alan Bogataj / bass kitara
- Luka Čibej / bobni, tolkala
- Aleš Golja / el. kitara
- David Križaj / klaviature, harmonika
- Tomi Peljhan / saxofon, klarinet

EAC log

Exact Audio Copy V1.0 beta 4 from 7. December 2014
EAC extraction logfile from 4. June 2019, 17:59
Divje Jezero / Pobeg iz blodnjaka - Escape From the Maze
Used drive : ATAPI iHAS124 F Adapter: 1 ID: 0
Read mode : SecureUtilize accurate stream : YesDefeat audio cache : YesMake use of C2 pointers : No
Read offset correction : 6Overread into Lead-In and Lead-Out : NoFill up missing offset samples with silence : YesDelete leading and trailing silent blocks : NoNull samples used in CRC calculations : YesUsed interface : Native Win32 interface for Win NT & 2000Gap handling : Appended to previous track
Used output format : User Defined EncoderSelected bitrate : 896 kBit/sQuality : HighAdd ID3 tag : NoCommand line compressor : C:\Program Files\flac-1.3.2-win\win64\flac.exeAdditional command line options : -8 -V -T "ARTIST=%artist%" -T "TITLE=%title%" -T "ALBUM=%albumtitle%" -T "DATE=%year%" -T "TRACKNUMBER=%tracknr%" -T "GENRE=%genre%" -T "COMMENT=ripped by vp_sunset" %source% -o %dest%
TOC of the extracted CD
Track | Start | Length | Start sector | End sector --------------------------------------------------------- 1 | 0:00.00 | 5:34.49 | 0 | 25098 2 | 5:34.49 | 6:21.57 | 25099 | 53730 3 | 11:56.31 | 7:09.55 | 53731 | 85960 4 | 19:06.11 | 7:36.19 | 85961 | 120179 5 | 26:42.30 | 7:02.36 | 120180 | 151865 6 | 33:44.66 | 4:36.00 | 151866 | 172565 7 | 38:20.66 | 3:55.72 | 172566 | 190262 8 | 42:16.63 | 7:19.03 | 190263 | 223190 9 | 49:35.66 | 1:05.60 | 223191 | 228125
Track 1
Filename C:\_EAC\01. Pobeg iz blodnjaka - Escape From the Maze.wav
Pre-gap length 0:00:02.00
Peak level 99.9 % Extraction speed 4.9 X Track quality 99.9 % Test CRC 2E0C0F9D Copy CRC 2E0C0F9D Track not present in AccurateRip database Copy OK
Track 2
Filename C:\_EAC\02. Milano.wav
Pre-gap length 0:00:02.00
Peak level 99.9 % Extraction speed 5.8 X Track quality 99.9 % Test CRC 7AFC3D10 Copy CRC 7AFC3D10 Track not present in AccurateRip database Copy OK
Track 3
Filename C:\_EAC\03. Jutranji ples - Morning Dance.wav
Pre-gap length 0:00:02.00
Peak level 99.9 % Extraction speed 7.4 X Track quality 100.0 % Test CRC 910DA84B Copy CRC 910DA84B Track not present in AccurateRip database Copy OK
Track 4
Filename C:\_EAC\04. Noč in dan - Night & Day.wav
Pre-gap length 0:00:02.00
Peak level 99.9 % Extraction speed 8.3 X Track quality 100.0 % Test CRC D3C7C755 Copy CRC D3C7C755 Track not present in AccurateRip database Copy OK
Track 5
Filename C:\_EAC\05. Mornarska zmeda - Sailor's Mess.wav
Pre-gap length 0:00:02.00
Peak level 99.9 % Extraction speed 8.9 X Track quality 100.0 % Test CRC 8D4C39DF Copy CRC 8D4C39DF Track not present in AccurateRip database Copy OK
Track 6
Filename C:\_EAC\06. Žirafe - Giraffes.wav
Pre-gap length 0:00:02.00
Peak level 99.9 % Extraction speed 9.1 X Track quality 100.0 % Test CRC 419CA6D9 Copy CRC 419CA6D9 Track not present in AccurateRip database Copy OK
Track 7
Filename C:\_EAC\07. Vzemi si trenutek - Take a Moment.wav
Pre-gap length 0:00:02.00
Peak level 99.9 % Extraction speed 9.2 X Track quality 100.0 % Test CRC D59A8A14 Copy CRC D59A8A14 Track not present in AccurateRip database Copy OK
Track 8
Filename C:\_EAC\08. Marakeška tržnica - Marrakesh Market.wav
Pre-gap length 0:00:02.00
Peak level 99.9 % Extraction speed 10.3 X Track quality 100.0 % Test CRC 1B750F0F Copy CRC 1B750F0F Track not present in AccurateRip database Copy OK
Track 9
Filename C:\_EAC\09. Ob pravem času - On Time (Reprise).wav
Pre-gap length 0:00:02.00
Peak level 99.9 % Extraction speed 7.5 X Track quality 100.0 % Test CRC B34E3F5C Copy CRC B34E3F5C Track not present in AccurateRip database Copy OK
None of the tracks are present in the AccurateRip database
No errors occurred
End of status report
---- CUETools DB Plugin V2.1.4
[CTDB TOCID: oyfWFmjrNV3d9v94i1pwf08M0pY-] foundSubmit result: oyfWFmjrNV3d9v94i1pwf08M0pY- has been confirmedTrack | CTDB Status 1 | (1/1) Accurately ripped 2 | (1/1) Accurately ripped 3 | (1/1) Accurately ripped 4 | (1/1) Accurately ripped 5 | (1/1) Accurately ripped 6 | (1/1) Accurately ripped 7 | (1/1) Accurately ripped 8 | (1/1) Accurately ripped 9 | (1/1) Accurately ripped
==== Log checksum B6C1F329A636EE95C8A47F4E1563F826EA43C4EDA7AD172DDEC8D9AEE61C67C6 ====

CUE sheet

REM GENRE FusionREM DATE 2017REM DISCID 730BE109REM COMMENT "ExactAudioCopy v1.0b4"PERFORMER "Divje Jezero"TITLE "Pobeg iz blodnjaka. -. Escape From the Maze"FILE "01. Pobeg iz blodnjaka - Escape From the Maze.wav" WAVE TRACK 01 AUDIO TITLE "Pobeg iz blodnjaka - Escape From the Maze" PERFORMER "Divje Jezero" INDEX 01 00:00:00 TRACK 02 AUDIO TITLE "Milano" PERFORMER "Divje Jezero" INDEX 00 05:32:49FILE "02. Milano.wav" WAVE INDEX 01 00:00:00 TRACK 03 AUDIO TITLE "Jutranji ples - Morning Dance" PERFORMER "Divje Jezero" INDEX 00 06:19:57FILE "03. Jutranji ples - Morning Dance.wav" WAVE INDEX 01 00:00:00 TRACK 04 AUDIO TITLE "Noč in dan - Night & Day" PERFORMER "Divje Jezero" INDEX 00 07:07:55FILE "04. Noč in dan - Night & Day.wav" WAVE INDEX 01 00:00:00 TRACK 05 AUDIO TITLE "Mornarska zmeda - Sailor's Mess" PERFORMER "Divje Jezero" INDEX 00 07:34:19FILE "05. Mornarska zmeda - Sailor's Mess.wav" WAVE INDEX 01 00:00:00 TRACK 06 AUDIO TITLE "Žirafe - Giraffes" PERFORMER "Divje Jezero" INDEX 00 07:00:36FILE "06. Žirafe - Giraffes.wav" WAVE INDEX 01 00:00:00 TRACK 07 AUDIO TITLE "Vzemi si trenutek - Take a Moment" PERFORMER "Divje Jezero" INDEX 00 04:34:00FILE "07. Vzemi si trenutek - Take a Moment.wav" WAVE INDEX 01 00:00:00 TRACK 08 AUDIO TITLE "Marakeška tržnica - Marrakesh Market" PERFORMER "Divje Jezero" INDEX 00 03:53:72FILE "08. Marakeška tržnica - Marrakesh Market.wav" WAVE INDEX 01 00:00:00 TRACK 09 AUDIO TITLE "Ob pravem času - On Time (Reprise)" PERFORMER "Divje Jezero" INDEX 00 07:17:03FILE "09. Ob pravem času - On Time (Reprise).wav" WAVE INDEX 01 00:00:00

Лог проверки качества

-----------------------
DON'T MODIFY THIS FILE
-----------------------
PERFORMER: auCDtect Task Manager, ver. 1.6.0 RC1 build 1.6.0.1Copyright (c) 2008-2010 y-soft. All rights reservedhttp://y-soft.org
ANALYZER: auCDtect: CD records authenticity detector, version 0.8.2Copyright (c) 2004 Oleg Berngardt. All rights reserved.Copyright (c) 2004 Alexander Djourik. All rights reserved.
FILE: 01. Pobeg iz blodnjaka - Escape From the Maze.flac Size: 36457760 Hash: 67B90C2A304DCCAC7E8D6654706BF013 Accuracy: -m0 Conclusion: CDDA 100% Signature: 7B3CF500A958AFBA4DCFB6F55B3E0AC503F7396EFILE: 02. Milano.flac Size: 41226082 Hash: BC295A33E562E34FD178920514CF2803 Accuracy: -m0 Conclusion: CDDA 100% Signature: 5058F342288F23DF76B18837A487E8485A50FE90FILE: 03. Jutranji ples - Morning Dance.flac Size: 47072801 Hash: 9F2F616221376FAA0BDA8A7424C6642D Accuracy: -m0 Conclusion: CDDA 100% Signature: 2A7FEC761F51B9518125C7CE9FC1F3ABC934EDA1FILE: 04. Noč in dan - Night & Day.flac Size: 42129262 Hash: 2691891749801FDCB8AB1D6756F1DF2A Accuracy: -m0 Conclusion: CDDA 99% Signature: 80221C9A5302A6BB0F087C37525CDA8A297638D8FILE: 05. Mornarska zmeda - Sailor's Mess.flac Size: 46020548 Hash: 8A2D264652672144CEA514E4157380B5 Accuracy: -m0 Conclusion: CDDA 100% Signature: 2A64D9B22C3FE51FBE0B000ABB96196AE5367960FILE: 06. Žirafe - Giraffes.flac Size: 32526683 Hash: AFD96FC18A980C1859D3CE1C14A6FFF4 Accuracy: -m0 Conclusion: CDDA 100% Signature: E5B71FEC6746E5530DAD67D071F9D794631F90EFFILE: 07. Vzemi si trenutek - Take a Moment.flac Size: 21116526 Hash: 3410C9A54CCC2BDBB7F8E00E353B8E0D Accuracy: -m0 Conclusion: CDDA 100% Signature: D4AD908487D8595A159AE405ED401FF86A97FDCCFILE: 08. Marakeška tržnica - Marrakesh Market.flac Size: 47376656 Hash: 6EAB29721A783733E44AB87ABF9A732E Accuracy: -m0 Conclusion: CDDA 100% Signature: CDBBF5F9A4AAC7BEF6B399C63DF87C063EE68C50FILE: 09. Ob pravem času - On Time (Reprise).flac Size: 6759707 Hash: 2889223BF1CF430E6D6D04FFD08FACE0 Accuracy: -m0 Conclusion: CDDA 100% Signature: FD101B92E8374161033D4E1C05A54E6578ACB804

DRM.log

foobar2000 1.4.2 / Замер динамического диапазона (DR) 1.1.1Дата отчёта: 2019-06-04 18:22:50
--------------------------------------------------------------------------------Анализ: Divje Jezero / Pobeg iz blodnjaka - Escape From the Maze--------------------------------------------------------------------------------
DR Пики RMS Продолжительность трека--------------------------------------------------------------------------------DR8 0.00 дБ -9.47 дБ 5:35 01-Pobeg iz blodnjaka - Escape From the MazeDR8 0.00 дБ -10.40 дБ 6:22 02-MilanoDR8 0.00 дБ -9.72 дБ 7:10 03-Jutranji ples - Morning DanceDR9 0.00 дБ -12.06 дБ 7:36 04-Noč in dan - Night & DayDR8 0.00 дБ -9.72 дБ 7:02 05-Mornarska zmeda - Sailor's MessDR8 0.00 дБ -8.98 дБ 4:36 06-Žirafe - GiraffesDR9 0.00 дБ -12.34 дБ 3:56 07-Vzemi si trenutek - Take a MomentDR8 0.00 дБ -9.91 дБ 7:19 08-Marakeška tržnica - Marrakesh MarketDR10 0.00 дБ -11.74 дБ 1:06 09-Ob pravem času - On Time (Reprise)--------------------------------------------------------------------------------
Количество треков: 9Реальные значения DR: DR9
Частота: 44100 ГцКаналов: 2Разрядность: 16Битрейт: 801 кбит/сКодек: FLAC================================================================================
[ru-zerkalo.org]_t_5740943
Torrent: Registered ·  [ 2019-06-06 03:46 ] ·  85c93f44103c71daf518b0aa8c1a8c92cbffe2cc

20 KB

Status: checked
Completed: 0 times
Size: 782 MB
Rating: 
(Votes: 0)
Say thanks: 0  Thanks
 
Похожие темы
[Profile] [PM]
Display posts from previous:    
Reply to topic

The time now is: Today 00:20

All times are GMT + 7 Hours



You cannot post new topics in this forum
You cannot reply to topics in this forum
You cannot edit your posts in this forum
You cannot delete your posts in this forum
You cannot vote in polls in this forum
You cannot attach files in this forum
You can download files in this forum