Register · 
Username: Password:
 ·  Forgot password?

[TR24][OF] Donnie Vie - Beautiful Things - 2019 (Modern Rock)

Reply to topic
DL-List and Torrent activity [Update пиров]
Size:  807 MB   |    Registered:  8 months 9 days   |    Completed:  2 times

Seeder not seen: 1 month 10 days

 
   
 
 
 
Author Message

ANTON1404 ®

Gender:

Longevity: 6 years 4 months

Posts: 19017

Post 10-Jun-2019 02:14

[Quote]

Donnie Vie - Beautiful Things-- Формат записи/Источник записи: [TR24][OF]
Наличие водяных знаков: Нет
Год издания: 2019
Жанр: Modern Rock
Издатель (лейбл): Deko Music
Продолжительность: 00:35:31
Наличие сканов в содержимом раздачи: Только обложка альбома
Контейнер: FLAC (*.flac)
Тип рипа: tracks
Разрядность: 24/96
Формат: PCM
Количество каналов: 2.0
Источник (релизер): highresaudio.com-Треклист
01. Beautiful Things (03:46)
02. Plain Jane (02:40)
03. Breaking Me Down (03:12)
04. I Could Save the World (03:52)
05. Fly (03:30)
06. Tender Lights (04:04)
07. I'll Surrender (03:40)
08. Whatever (03:13)
09. Fallin' Through the Pages (03:40)
10. Back From the Blue (03:54)

Лог проверки качества

foobar2000 1.4 / Dynamic Range Meter 1.1.1log date: 2019-06-09 15:53:57
--------------------------------------------------------------------------------Analyzed: Donnie Vie / Beautiful Things--------------------------------------------------------------------------------
DR Peak RMS Duration Track--------------------------------------------------------------------------------DR7 -0.60 dB -9.60 dB 3:46 01-Beautiful ThingsDR7 -0.60 dB -8.34 dB 2:40 02-Plain JaneDR7 -0.60 dB -8.23 dB 3:12 03-Breaking Me DownDR7 -0.60 dB -9.17 dB 3:53 04-I Could Save the WorldDR9 -0.61 dB -12.28 dB 3:31 05-FlyDR7 -0.60 dB -8.64 dB 4:05 06-Tender LightsDR7 -0.60 dB -8.62 dB 3:41 07-I'll SurrenderDR7 -0.60 dB -9.29 dB 3:13 08-WhateverDR7 -0.60 dB -8.47 dB 3:41 09-Fallin' Through the PagesDR7 -0.60 dB -10.09 dB 3:55 10-Back From The Blue--------------------------------------------------------------------------------
Number of tracks: 10Official DR value: DR7Samplerate: 96000 HzChannels: 2Bits per sample: 24Bitrate: 3044 kbpsCodec: FLAC================================================================================

Об альбоме (сборнике)

Donnie Vie is one of rock's biggest secrets who has been crafting melodic power pop and rock songs for over 30 years. He and his former band Enuff Z'Nuff were instant critics' darlings. Donnie has amassed over 25 albums' worth of songs and decades of live shows to his name, both with and without his former band. Now a solo act, Vie announces the release of his new album, Beautiful Things, this November.
Without the fans and their support via Pledge Music, Beautiful Things would not have been possible explains Vie, "With the help of you, my brothers and sisters, contributions will be applied directly to the source of what it takes to create and produce a great quality record, while at the same time, all of us being hands on and connected throughout the process as its being made. For your contributions, there's a list of things I can offer in return besides a personal guarantee of 100% satisfaction of the results."
Says Vie of the new record, "The Gods left a basket of really cool ideas on my doorstep, and then it was like a build-your-own sundae out of melodies and sounds. The result was pretty magical and exceeded my hopes. There truly are some really great cats playing on this stuff."
Players on the record include: Paul Gilbert, Roger Joseph Manning, Jr., Matt Walker, Ed Breckenfeld, Jonny Polonsky, Casey McDonough, Phil Angotti, Jay O'Rourke, Alton Smith, Mike LaPond, John Monaco, Donnie Vie.
Vie's hard rocking fan base is still at its strongest. The members of this cult-like following recognize Donnie's musical genius and embrace his poetic nature with its signature hooks. His supporters remain some of his most faithful, loyal and enthusiastic out there, and it is these fans who say that "these songs will stand the test of time because his songwriting and melodies are magical.
[ru-zerkalo.org]_t_5742670
Torrent: Registered ·  [ 2019-06-10 02:14 ] ·  8e21d902b9667717ae11d5e5bf03923b7ad673eb

17 KB

Status: checked
Completed: 2 times
Size: 807 MB
Rating: 
(Votes: 0)
Say thanks: 0  Thanks
 
Похожие темы
[Profile] [PM]
Display posts from previous:    
Reply to topic

The time now is: Today 01:28

All times are GMT + 7 Hours



You cannot post new topics in this forum
You cannot reply to topics in this forum
You cannot edit your posts in this forum
You cannot delete your posts in this forum
You cannot vote in polls in this forum
You cannot attach files in this forum
You can download files in this forum