Register · 
Username: Password:
 ·  Forgot password?

(Post-Metal) [CD] Pelican - Nighttime Stories - 2019, FLAC (tracks+.cue), lossless

Reply to topic
DL-List and Torrent activity [Update пиров]
Size:  320 MB   |    Registered:  8 months 6 days   |    Completed:  0 times

Seeder not seen: Never

 
   
 
 
 
Author Message

Nestor_13 ®

Gender:

Longevity: 6 years 4 months

Posts: 21727

Post 13-Jun-2019 03:17

[Quote]

Pelican / Nighttime Stories
Жанр: Post-Metal
Носитель: CD
Страна-производитель диска (релиза): USA
Год издания: 2019
Издатель (лейбл): Southern Lord
Номер по каталогу: LORD270
Страна исполнителя (группы): USA
Аудиокодек: FLAC (*.flac)
Тип рипа: tracks+.cue
Продолжительность: 00:49:19
Источник: Получено по обмену
Наличие сканов в содержимом раздачи: да
Треклист:

01 - WST
02 - Midnight and Mescaline
03 - Abyssal Plain
04 - Cold Hope
05 - It Stared at Me
06 - Nighttime Stories
07 - Arteries of Blacktop
08 - Full Moon, Black Water

Лог создания рипа

Exact Audio Copy V1.3 from 2. September 2016
EAC extraction logfile from 12. June 2019, 11:54
Pelican / Nighttime Stories
Used drive : ATAPI DVD A DH16AASH Adapter: 1 ID: 0
Read mode : SecureUtilize accurate stream : YesDefeat audio cache : YesMake use of C2 pointers : No
Read offset correction : 6Overread into Lead-In and Lead-Out : NoFill up missing offset samples with silence : YesDelete leading and trailing silent blocks : NoNull samples used in CRC calculations : YesUsed interface : Native Win32 interface for Win NT & 2000Gap handling : Appended to previous track
Used output format : User Defined EncoderSelected bitrate : 1024 kBit/sQuality : HighAdd ID3 tag : NoCommand line compressor : C:\Program Files (x86)\Exact Audio Copy\Flac\flac.exeAdditional command line options : -8 -e -V -T "ARTIST=%artist%" -T "TITLE=%title%" -T "ALBUM=%albumtitle%" -T "DATE=%year%" -T "TRACKNUMBER=%tracknr%" -T "GENRE=%genre%" -T "PERFORMER=%albuminterpret%" -T "COMPOSER=%composer%" %haslyrics%--tag-from-file=LYRICS="%lyricsfile%"%haslyrics% -T "ALBUMARTIST=%albumartist%" -T "DISCNUMBER=%cdnumber%" -T "TOTALDISCS=%totalcds%" -T "TOTALTRACKS=%numtracks%" -T "COMMENT=%comment%" %source% -o %dest%
TOC of the extracted CD
Track | Start | Length | Start sector | End sector --------------------------------------------------------- 1 | 0:00.00 | 3:11.43 | 0 | 14367 2 | 3:11.43 | 4:56.68 | 14368 | 36635 3 | 8:08.36 | 4:48.61 | 36636 | 58296 4 | 12:57.22 | 6:57.48 | 58297 | 89619 5 | 19:54.70 | 3:22.65 | 89620 | 104834 6 | 23:17.60 | 6:35.30 | 104835 | 134489 7 | 29:53.15 | 6:33.62 | 134490 | 164026 8 | 36:27.02 | 8:01.47 | 164027 | 200148
Track 1
Filename X:\P\Pelican\2019 Nighttime Stories\01 - WST.wav
Pre-gap length 0:00:02.00
Peak level 96.6 % Extraction speed 2.5 X Track quality 99.9 % Test CRC D91C3CF2 Copy CRC D91C3CF2 Track not present in AccurateRip database Copy OK
Track 2
Filename X:\P\Pelican\2019 Nighttime Stories\02 - Midnight and Mescaline.wav
Peak level 97.2 % Extraction speed 3.8 X Track quality 100.0 % Test CRC BC33A5ED Copy CRC BC33A5ED Track not present in AccurateRip database Copy OK
Track 3
Filename X:\P\Pelican\2019 Nighttime Stories\03 - Abyssal Plain.wav
Peak level 98.0 % Extraction speed 3.5 X Track quality 99.9 % Test CRC 25A8DB81 Copy CRC 25A8DB81 Track not present in AccurateRip database Copy OK
Track 4
Filename X:\P\Pelican\2019 Nighttime Stories\04 - Cold Hope.wav
Peak level 99.3 % Extraction speed 4.2 X Track quality 99.9 % Test CRC 92DD877D Copy CRC 92DD877D Track not present in AccurateRip database Copy OK
Track 5
Filename X:\P\Pelican\2019 Nighttime Stories\05 - It Stared at Me.wav
Peak level 96.7 % Extraction speed 3.6 X Track quality 99.9 % Test CRC E75CF5F2 Copy CRC E75CF5F2 Track not present in AccurateRip database Copy OK
Track 6
Filename X:\P\Pelican\2019 Nighttime Stories\06 - Nighttime Stories.wav
Peak level 97.5 % Extraction speed 4.7 X Track quality 99.9 % Test CRC AE7C0BB9 Copy CRC AE7C0BB9 Track not present in AccurateRip database Copy OK
Track 7
Filename X:\P\Pelican\2019 Nighttime Stories\07 - Arteries of Blacktop.wav
Peak level 98.3 % Extraction speed 5.8 X Track quality 100.0 % Test CRC 3394A4E1 Copy CRC 3394A4E1 Track not present in AccurateRip database Copy OK
Track 8
Filename X:\P\Pelican\2019 Nighttime Stories\08 - Full Moon, Black Water.wav
Peak level 97.1 % Extraction speed 6.4 X Track quality 100.0 % Test CRC 4828EBC4 Copy CRC 4828EBC4 Track not present in AccurateRip database Copy OK
None of the tracks are present in the AccurateRip database
No errors occurred
End of status report
---- CUETools DB Plugin V2.1.6
[CTDB TOCID: ACUEMlQRp8YpGtpCnr1aKNL0WmY-] foundSubmit result: ACUEMlQRp8YpGtpCnr1aKNL0WmY- has been confirmedTrack | CTDB Status 1 | (5/5) Accurately ripped 2 | (5/5) Accurately ripped 3 | (5/5) Accurately ripped 4 | (5/5) Accurately ripped 5 | (5/5) Accurately ripped 6 | (5/5) Accurately ripped 7 | (5/5) Accurately ripped 8 | (5/5) Accurately ripped
==== Log checksum 730AE780AA1F3240410D0D775BF4E29470D2EBB78968F381ACE09682820B4305 ====

Содержание индексной карты (.CUE)

REM DATE 2019REM DISCID 840A6C08REM COMMENT "ExactAudioCopy v1.3"PERFORMER "Pelican"TITLE "Nighttime Stories"REM COMPOSER ""FILE "01 - WST.wav" WAVE TRACK 01 AUDIO TITLE "WST" PERFORMER "Pelican" REM COMPOSER "" ISRC UUQTA0901729 INDEX 01 00:00:00FILE "02 - Midnight and Mescaline.wav" WAVE TRACK 02 AUDIO TITLE "Midnight and Mescaline" PERFORMER "Pelican" REM COMPOSER "" ISRC UUQTA0901730 INDEX 01 00:00:00FILE "03 - Abyssal Plain.wav" WAVE TRACK 03 AUDIO TITLE "Abyssal Plain" PERFORMER "Pelican" REM COMPOSER "" ISRC UUQTA0901731 INDEX 01 00:00:00FILE "04 - Cold Hope.wav" WAVE TRACK 04 AUDIO TITLE "Cold Hope" PERFORMER "Pelican" REM COMPOSER "" ISRC UUQTA0901732 INDEX 01 00:00:00FILE "05 - It Stared at Me.wav" WAVE TRACK 05 AUDIO TITLE "It Stared at Me" PERFORMER "Pelican" REM COMPOSER "" ISRC UUQTA0901733 INDEX 01 00:00:00FILE "06 - Nighttime Stories.wav" WAVE TRACK 06 AUDIO TITLE "Nighttime Stories" PERFORMER "Pelican" REM COMPOSER "" ISRC UUQTA0901734 INDEX 01 00:00:00FILE "07 - Arteries of Blacktop.wav" WAVE TRACK 07 AUDIO TITLE "Arteries of Blacktop" PERFORMER "Pelican" REM COMPOSER "" ISRC UUQTA0901735 INDEX 01 00:00:00FILE "08 - Full Moon, Black Water.wav" WAVE TRACK 08 AUDIO TITLE "Full Moon, Black Water" PERFORMER "Pelican" REM COMPOSER "" ISRC UUQTA0901736 INDEX 01 00:00:00
[ru-zerkalo.org]_t_5743907
Torrent: Registered ·  [ 2019-06-13 03:17 ] ·  c4cf4a2572235133ee731af679eff492d18924ec

14 KB

Status: checked
Completed: 0 times
Size: 320 MB
Rating: 
(Votes: 0)
Say thanks: 0  Thanks
 
Похожие темы
[Profile] [PM]
Display posts from previous:    
Reply to topic

The time now is: Today 01:32

All times are GMT + 7 Hours



You cannot post new topics in this forum
You cannot reply to topics in this forum
You cannot edit your posts in this forum
You cannot delete your posts in this forum
You cannot vote in polls in this forum
You cannot attach files in this forum
You can download files in this forum