Register · 
Username: Password:
 ·  Forgot password?

В сенаторы с Бето / Running with Beto (Давид Модильяни / David Modigliani) [2019, документальный, WEB-DL 1080p] MVO (Amedia) + Eng + Sub Eng

Reply to topic
DL-List and Torrent activity [Update пиров]
Size:  6.55 GB   |    Registered:  4 months 28 days   |    Completed:  0 times

Seeder not seen: Never

 
   
 
 
 
Author Message

rychkalov ®

Gender:

Longevity: 6 years 1 month

Posts: 18012

Post 21-Jun-2019 04:49

[Quote]

В сенаторы с Бето / Running with Beto
Дата/Год выпуска: 2019
Страна: США
Жанр: документальный
Продолжительность: 01:31:37
Перевод: Профессиональный (многоголосый закадровый)
Доп. инфо о переводе: Amedia
Русские субтитры: английские
Оригинальная аудиодорожка: английский
Режиссер: Давид Модильяни / David Modigliani
Телеканал: HBO
Описание: Документальный рассказ о том, как малоизвестный представитель прогрессивных демократов Бето О‘Рурк стал восходящей звездой американской политической арены. В 2019-м он заявил о своем желании участвовать в грядущей президентской гонке. Режиссер целый год снимал предвыборную кампанию О’Рурка за место в сенаторы штата Техас.
Сэмпл: http://multi-up.com/1234839
качество: WEB-DL 1080p
формат: mkv
Видео: AVC, 1920x1080 (16:9), 23.976 fps, 9193 Kbps (0.185 bit/pixel)
Аудио: AC-3, 48.0 KHz, 2 ch, 192 Kbps, CBR - русский
Аудио 2: E-AC-3, 48.0 KHz, 6 ch, 640 Kbps, CBR - английский

MediaInfo

ОбщееУникальный идентификатор : 208713687133131649595694027585136593179 (0x9D04CB429F28CEF9BD1B9D52786F891B)Полное имя : F:\Running.with.Beto.2019.1080p.AMZN.WEB-DL.DDP5.1.H.264-NTG.mkvФормат : MatroskaВерсия формата : Version 2Размер файла : 6,55 ГбайтПродолжительность : 1 ч. 31 м.Общий поток : 10,2 Мбит/секНазвание фильма : В сенаторы с Бето / Running with Beto (2019)Дата кодирования : UTC 2019-06-08 16:48:18Программа кодирования : mkvmerge v8.2.0 ('World of Adventure') 64bitБиблиотека кодирования : libebml v1.3.1 + libmatroska v1.4.2
ВидеоИдентификатор : 1Формат : AVCФормат/Информация : Advanced Video CodecПрофиль формата : High@L4Настройки формата : CABAC / 4 Ref FramesПараметр CABAC формата : ДаПараметр RefFrames формата : 4 кадраИдентификатор кодека : V_MPEG4/ISO/AVCПродолжительность : 1 ч. 31 м.Вид битрейта : ПостоянныйБитрейт : 9193 Кбит/секНоминальный битрейт : 10000 Кбит/секШирина : 1920 пикселейВысота : 1080 пикселейСоотношение сторон : 16:9Режим частоты кадров : ПостоянныйЧастота кадров : 23,976 (24000/1001) кадра/секЦветовое пространство : YUVСубдискретизация насыщенности : 4:2:0Битовая глубина : 8 битТип развёртки : ПрогрессивнаяБит/(Пиксели*Кадры) : 0.185Размер потока : 5,88 Гбайт (90%)Default : ДаForced : НетЦветовой диапазон : LimitedОсновные цвета : BT.709Характеристики трансфера : BT.709Коэффициенты матрицы : BT.709
Аудио #1Идентификатор : 2Формат : AC-3Формат/Информация : Audio Coding 3Коммерческое название : Dolby DigitalИдентификатор кодека : A_AC3Продолжительность : 1 ч. 31 м.Вид битрейта : ПостоянныйБитрейт : 192 Кбит/секКаналы : 2 каналаChannel layout : L RЧастота : 48,0 КГцЧастота кадров : 31,250 кадров/сек (1536 SPF)Битовая глубина : 16 битМетод сжатия : С потерямиРазмер потока : 126 Мбайт (2%)Заголовок : Профессиональный (многоголосый, закадровый) Amedia Premium HDЯзык : RussianServiceKind/String : Complete MainDefault : ДаForced : Нет
Аудио #2Идентификатор : 3Формат : E-AC-3Формат/Информация : Enhanced AC-3Коммерческое название : Dolby Digital PlusИдентификатор кодека : A_EAC3Продолжительность : 1 ч. 31 м.Вид битрейта : ПостоянныйБитрейт : 640 Кбит/секКаналы : 6 каналовChannel layout : L R C LFE Ls RsЧастота : 48,0 КГцЧастота кадров : 31,250 кадров/сек (1536 SPF)Метод сжатия : С потерямиЗадержка видео : 28 мс.Размер потока : 419 Мбайт (6%)Язык : EnglishServiceKind/String : Complete MainDefault : НетForced : Нет
Текст #1Идентификатор : 4Формат : UTF-8Идентификатор кодека : S_TEXT/UTF8Идентификатор кодека/Информация : UTF-8 Plain TextЯзык : EnglishDefault : НетForced : Нет
Текст #2Идентификатор : 5Формат : UTF-8Идентификатор кодека : S_TEXT/UTF8Идентификатор кодека/Информация : UTF-8 Plain TextЗаголовок : SDHЯзык : EnglishDefault : НетForced : Нет

Скриншоты


[ru-zerkalo.org]_t_5745779
Torrent: Registered ·  [ 2019-06-21 04:49 ] ·  619a11190525214bd2a1aff5e434ff1f9e1a4f05

33 KB

Status: checked
Completed: 0 times
Size: 6.55 GB
Rating: 
(Votes: 0)
Say thanks: 0  Thanks
 
Похожие темы
[Profile] [PM]
Display posts from previous:    
Reply to topic

The time now is: Today 00:20

All times are GMT + 7 Hours



You cannot post new topics in this forum
You cannot reply to topics in this forum
You cannot edit your posts in this forum
You cannot delete your posts in this forum
You cannot vote in polls in this forum
You cannot attach files in this forum
You can download files in this forum