Register · 
Username: Password:
 ·  Forgot password?

Nicki Minaj feat. Beyonce - Feeling Myself [2015, Hip-Hop, R&B, Master, 1080p]

Reply to topic
DL-List and Torrent activity [Update пиров]
Size:  4.59 GB   |    Registered:  3 months 25 days   |    Completed:  0 times

Seeder not seen: Never

 
   
 
 
 
Author Message

temkin_88 ®

Gender:

Longevity: 6 years

Posts: 17316

Post 21-Jun-2019 23:06

[Quote]

Nicki Minaj feat. Beyoncé - Feeling Myself Жанр: Hip-Hop, R&B
Продолжительность: 00:03:53
Год выпуска: 2015
Доп. информация: Или клип снимался эксклюзивно для площадки Tidal, или этот мастер с тидаля подрезали. Наслаждайтесь ватермаркой.
Качество: Master
Разрешение видео/развертка: 1080p
Контейнер: MOV
Видео кодек: APCH
Аудио кодек: PCM
Видео: Apple ProRes 422 HQ, 1920x1080p, 167 Mbps, 23.976 fps
Аудио: LPCM, 2304 kbps, 48000 Hz, stereo (2 channels)

Отчёт MediaInfo / BDInfo

GeneralComplete name : C:\Downloads\Nicki Minaj&Beyoncé_Feeling Myself_USCMV1500015.movFormat : MPEG-4Format profile : QuickTimeCodec ID : qt 2005.03 (qt )File size : 4.59 GiBDuration : 3 min 53 sOverall bit rate mode : VariableOverall bit rate : 169 Mb/sEncoded date : UTC 2017-02-09 13:44:47Tagged date : UTC 2017-02-09 13:50:49Writing library : Apple QuickTime
VideoID : 1Format : ProResFormat version : Version 0Format profile : 422 HQCodec ID : apchDuration : 3 min 53 sBit rate mode : VariableBit rate : 167 Mb/sWidth : 1 920 pixelsHeight : 1 080 pixelsDisplay aspect ratio : 16:9Frame rate mode : ConstantFrame rate : 23.976 (24000/1001) FPSColor space : YUVChroma subsampling : 4:2:2Scan type : ProgressiveBits/(Pixel*Frame) : 3.350Stream size : 4.52 GiB (99%)Writing library : arh0Language : EnglishEncoded date : UTC 2017-02-09 13:44:47Tagged date : UTC 2017-02-09 13:50:49Color primaries : BT.709Transfer characteristics : BT.709Matrix coefficients : BT.709
AudioID : 2Format : PCMFormat settings : Little / SignedCodec ID : in24Duration : 3 min 53 sBit rate mode : ConstantBit rate : 2 304 kb/sChannel(s) : 2 channelsChannel layout : L RSampling rate : 48.0 kHzBit depth : 24 bitsStream size : 64.1 MiB (1%)Language : EnglishEncoded date : UTC 2017-02-09 13:44:47Tagged date : UTC 2017-02-09 13:50:51

Скриншоты

[ru-zerkalo.org]_t_5737149
Torrent: Registered ·  [ 2019-06-21 23:04 ] ·  d264395c7fb1ff6a015fdee4977e3ced22fc5d10

23 KB

Status: checked
Completed: 0 times
Size: 4.59 GB
Rating: 
(Votes: 0)
Say thanks: 0  Thanks
 
Похожие темы
[Profile] [PM]
Display posts from previous:    
Reply to topic

The time now is: Today 22:56

All times are GMT + 7 Hours



You cannot post new topics in this forum
You cannot reply to topics in this forum
You cannot edit your posts in this forum
You cannot delete your posts in this forum
You cannot vote in polls in this forum
You cannot attach files in this forum
You can download files in this forum