Register · 
Username: Password:
 ·  Forgot password?

(Ska Punk) [CDR] Assenizator\'ы - Анальные шарики - 2017, FLAC (image+.cue) lossless

Reply to topic
DL-List and Torrent activity [Update пиров]
Size:  124 MB   |    Registered:  4 months 23 days   |    Completed:  0 times

Seeder not seen: Never

 
   
 
 
 
Author Message

FragoMan ®

Gender:

Longevity: 6 years 1 month

Posts: 24480

Post 22-Jun-2019 10:31

[Quote]

Assenizator'ы / Анальные шарики
Жанр: Ska Punk
Носитель: CDR
Страна-производитель диска: Россия
Год издания диска: 2017
Издатель (лейбл): Romuald Distro
Номер по каталогу: RD: 029
Страна: Россия
Аудиокодек: FLAC
Тип рипа: image+.cue
Битрейт аудио: lossless
Продолжительность: 12:01
Источник: собственный рип
Наличие сканов в содержимом раздачи: да
Треклист:
1. Анальные шарики
2. На старт, внимание, фарш!
3. Не забывай меня
4. Рутc, бляди, Рутс

Лог создания рипа

Exact Audio Copy V1.3 from 2. September 2016
Отчёт EAC об извлечении, выполненном 4. июня 2019, 23:02
Assenizator'ы / Анальные шарики
Дисковод: ATAPI iHAS124 W Adapter: 1 ID: 0
Режим чтения : ДостоверностьИспользование точного потока : ДаОтключение кэша аудио : ДаИспользование указателей C2 : Нет
Коррекция смещения при чтении : 48Способность читать области Lead-in и Lead-out : НетЗаполнение пропущенных сэмплов тишиной : ДаУдаление блоков с тишиной в начале и конце : НетПри вычислениях CRC использовались нулевые сэмплы : ДаИнтерфейс : Встроенный Win32-интерфейс для Win NT/2000
Выходной формат : Пользовательский кодировщикВыбранный битрейт : 128 kBit/sКачество : ВысокийДобавление ID3-тега : ДаУтилита сжатия : C:\Program Files (x86)\Exact Audio Copy\Flac\flac.exeДополнительные параметры : -V -8 -T "Date=%year%" -T "Genre=%genre%" %source%
TOC извлечённого CD
Трек | Старт | Длительность | Начальный сектор | Конечный сектор --------------------------------------------------------------------- 1 | 0:00.00 | 3:50.00 | 0 | 17249 2 | 3:50.00 | 2:44.37 | 17250 | 29586 3 | 6:34.37 | 2:26.00 | 29587 | 40536 4 | 9:00.37 | 3:00.56 | 40537 | 54092
Характеристики диапазона извлечения и сообщения об ошибках
Выбранный диапазон
Имя файла C:\Users\Евгений\Desktop\Assenizator'ы - 2017 - Анальные шарики.wav
Пиковый уровень 54.2 % Скорость извлечения 5.9 X Качество диапазона 100.0 % CRC теста 85344CC6 CRC копии 85344CC6 Копирование... OK
Ошибок не произошло
Конец отчёта
---- CUETools DB Plugin V2.1.6
[CTDB TOCID: 3e5AXow5L.aXeKJ4ZdocYtSVwlE-] disk not present in databaseSubmit result: 3e5AXow5L.aXeKJ4ZdocYtSVwlE- has been uploaded
==== Контрольная сумма отчёта 8DD1D7D1BDB81F600D7F58E88C349EF5509ED93D63D3CC073C2D63A167F7A3BC ====

Содержание индексной карты (.CUE)

REM DATE 2017REM DISCID 2602D104REM COMMENT "ExactAudioCopy v1.3"PERFORMER "Assenizator'ы"TITLE "Анальные шарики"REM COMPOSER ""FILE "Assenizator'ы - 2017 - Анальные шарики.flac" WAVE TRACK 01 AUDIO TITLE "Анальные шарики" PERFORMER "Assenizator'ы" REM COMPOSER "" INDEX 01 00:00:00 TRACK 02 AUDIO TITLE "На старт, внимание, фарш!" PERFORMER "Assenizator'ы" REM COMPOSER "" INDEX 01 03:50:00 TRACK 03 AUDIO TITLE "Не забывай меня" PERFORMER "Assenizator'ы" REM COMPOSER "" INDEX 01 06:34:37 TRACK 04 AUDIO TITLE "Рутc, бляди, рутс" PERFORMER "Assenizator'ы" REM COMPOSER "" INDEX 01 09:00:37
[ru-zerkalo.org]_t_5745805
Torrent: Registered ·  [ 2019-06-22 10:31 ] ·  48f95ae7974cb938dd05f87fb4304e610c2d8d26

20 KB

Status: checked
Completed: 0 times
Size: 124 MB
Rating: 
(Votes: 0)
Say thanks: 0  Thanks
 
Похожие темы
[Profile] [PM]
Display posts from previous:    
Reply to topic

The time now is: Today 14:58

All times are GMT + 7 Hours



You cannot post new topics in this forum
You cannot reply to topics in this forum
You cannot edit your posts in this forum
You cannot delete your posts in this forum
You cannot vote in polls in this forum
You cannot attach files in this forum
You can download files in this forum