Register · 
Username: Password:
 ·  Forgot password?

(New Age) [CD] Ancient Future - Dreamchaser - 1988, FLAC (tracks+.cue), lossless

Reply to topic
DL-List and Torrent activity [Update пиров]
Size:  222 MB   |    Registered:  3 months 25 days   |    Completed:  0 times

Seeder not seen: Never

 
   
 
 
 
Author Message

Shadow123 ®

Gender:

Longevity: 6 years

Posts: 14342

Post 22-Jun-2019 13:38

[Quote]

Ancient Future / Dreamchaser
Жанр: New Age
Носитель: CD
Страна-производитель диска (релиза): USA
Год издания: 1988
Издатель (лейбл): Sona Gaia Productions
Номер по каталогу: CD-154
Аудиокодек: FLAC (*.flac)
Тип рипа: tracks+.cue
Продолжительность: 00:41:03
Источник: Получено по обмену
Наличие сканов в содержимом раздачи: да
Треклист:

1. Edge Of A Memory (05:55)
2. Chant Of The C Shell (04:58)
3. Andean Dream (04:40)
4. Gamarock (06:25)
5. So Near, So Far (05:59)
6. Promise To The River (08:08)
7. Ode To Ajanta (04:58)

Лог создания рипа

Exact Audio Copy V1.3 from 2. September 2016
EAC extraction logfile from 20. April 2019, 21:18
Ancient Future / Dreamchaser
Used drive : PLEXTOR DVDR PX-716A Adapter: 1 ID: 1
Read mode : SecureUtilize accurate stream : YesDefeat audio cache : YesMake use of C2 pointers : No
Read offset correction : 30Overread into Lead-In and Lead-Out : YesFill up missing offset samples with silence : YesDelete leading and trailing silent blocks : NoNull samples used in CRC calculations : YesUsed interface : Native Win32 interface for Win NT & 2000Gap handling : Appended to previous track
Used output format : User Defined EncoderSelected bitrate : 1024 kBit/sQuality : HighAdd ID3 tag : NoCommand line compressor : C:\Program Files (x86)\Exact Audio Copy\Flac\flac.exeAdditional command line options : -8 -e -p -V -T "ARTIST=%artist%" -T "TITLE=%title%" -T "ALBUM=%albumtitle%" -T "DATE=%year%" -T "TRACKNUMBER=%tracknr%" -T "GENRE=%genre%" -T "PERFORMER=%albuminterpret%" -T "COMPOSER=%composer%" %haslyrics%--tag-from-file=LYRICS="%lyricsfile%"%haslyrics% -T "ALBUMARTIST=%albumartist%" -T "DISCNUMBER=%cdnumber%" -T "TOTALDISCS=%totalcds%" -T "TOTALTRACKS=%numtracks%" -T "COMMENT=%comment%" %source% -o %dest%
TOC of the extracted CD
Track | Start | Length | Start sector | End sector --------------------------------------------------------- 1 | 0:00.00 | 5:57.48 | 0 | 26822 2 | 5:57.48 | 5:01.37 | 26823 | 49434 3 | 10:59.10 | 4:42.33 | 49435 | 70617 4 | 15:41.43 | 6:29.25 | 70618 | 99817 5 | 22:10.68 | 6:02.10 | 99818 | 126977 6 | 28:13.03 | 8:11.67 | 126978 | 163869 7 | 36:24.70 | 5:58.13 | 163870 | 190732
Track 1
Filename C:\rips\Ancient Future - Dreamchaser (1988) [FLAC] {CD-154}\01 - Edge of a Memory.wav
Pre-gap length 0:00:02.00
Peak level 76.7 % Extraction speed 8.6 X Track quality 100.0 % Test CRC 4521C443 Copy CRC 4521C443 Accurately ripped (confidence 3) [A08CA492] (AR v2) Copy OK
Track 2
Filename C:\rips\Ancient Future - Dreamchaser (1988) [FLAC] {CD-154}\02 - Chant of the C Shell.wav
Pre-gap length 0:00:02.64
Peak level 61.3 % Extraction speed 9.8 X Track quality 100.0 % Test CRC CA52712A Copy CRC CA52712A Accurately ripped (confidence 3) [C0AD5B8E] (AR v2) Copy OK
Track 3
Filename C:\rips\Ancient Future - Dreamchaser (1988) [FLAC] {CD-154}\03 - Andean Dream.wav
Pre-gap length 0:00:03.16
Peak level 59.6 % Extraction speed 10.7 X Track quality 100.0 % Test CRC 3F4F3A31 Copy CRC 3F4F3A31 Accurately ripped (confidence 3) [1B419B38] (AR v2) Copy OK
Track 4
Filename C:\rips\Ancient Future - Dreamchaser (1988) [FLAC] {CD-154}\04 - Gamarock.wav
Pre-gap length 0:00:02.73
Peak level 85.4 % Extraction speed 11.7 X Track quality 100.0 % Test CRC E979ABB3 Copy CRC E979ABB3 Accurately ripped (confidence 3) [8B7FADFF] (AR v2) Copy OK
Track 5
Filename C:\rips\Ancient Future - Dreamchaser (1988) [FLAC] {CD-154}\05 - So Near, So Far.wav
Pre-gap length 0:00:03.84
Peak level 67.2 % Extraction speed 12.7 X Track quality 100.0 % Test CRC CBCEC7AC Copy CRC CBCEC7AC Accurately ripped (confidence 3) [51721278] (AR v2) Copy OK
Track 6
Filename C:\rips\Ancient Future - Dreamchaser (1988) [FLAC] {CD-154}\06 - Promise to the River.wav
Pre-gap length 0:00:03.24
Peak level 66.1 % Extraction speed 13.9 X Track quality 100.0 % Test CRC 224B77DB Copy CRC 224B77DB Accurately ripped (confidence 3) [60B8A2F0] (AR v2) Copy OK
Track 7
Filename C:\rips\Ancient Future - Dreamchaser (1988) [FLAC] {CD-154}\07 - Ode to Ajanta.wav
Pre-gap length 0:00:04.13
Peak level 94.1 % Extraction speed 15.0 X Track quality 100.0 % Test CRC 441B615C Copy CRC 441B615C Accurately ripped (confidence 2) [65190878] (AR v2) Copy OK
All tracks accurately ripped
No errors occurred
End of status report
---- CUETools DB Plugin V2.1.6
[CTDB TOCID: jTKgo7bKL9R4p5sn95xsGA3IaZM-] foundSubmit result: jTKgo7bKL9R4p5sn95xsGA3IaZM- has been confirmedTrack | CTDB Status 1 | (2/2) Accurately ripped 2 | (2/2) Accurately ripped 3 | (2/2) Accurately ripped 4 | (2/2) Accurately ripped 5 | (2/2) Accurately ripped 6 | (2/2) Accurately ripped 7 | (2/2) Accurately ripped
==== Log checksum 702A5862718AA41E5662CD6B52DD0CA8EB3B4968EB433664730CB914193608BD ====

Содержание индексной карты (.CUE)

REM GENRE "New Age"REM DATE 1988REM DISCID 5F09EF07REM COMMENT "ExactAudioCopy v1.3"PERFORMER "Ancient Future"TITLE "Dreamchaser"REM COMPOSER ""FILE "01 - Edge of a Memory.wav" WAVE TRACK 01 AUDIO TITLE "Edge of a Memory" PERFORMER "Ancient Future" REM COMPOSER "" INDEX 01 00:00:00 TRACK 02 AUDIO TITLE "Chant of the C Shell" PERFORMER "Ancient Future" REM COMPOSER "" INDEX 00 05:55:00FILE "02 - Chant of the C Shell.wav" WAVE INDEX 01 00:00:00 TRACK 03 AUDIO TITLE "Andean Dream" PERFORMER "Ancient Future" REM COMPOSER "" INDEX 00 04:58:25FILE "03 - Andean Dream.wav" WAVE INDEX 01 00:00:00 TRACK 04 AUDIO TITLE "Gamarock" PERFORMER "Ancient Future" REM COMPOSER "" INDEX 00 04:39:53FILE "04 - Gamarock.wav" WAVE INDEX 01 00:00:00 TRACK 05 AUDIO TITLE "So Near, So Far" PERFORMER "Ancient Future" REM COMPOSER "" INDEX 00 06:25:37FILE "05 - So Near, So Far.wav" WAVE INDEX 01 00:00:00 TRACK 06 AUDIO TITLE "Promise to the River" PERFORMER "Ancient Future" REM COMPOSER "" INDEX 00 05:58:67FILE "06 - Promise to the River.wav" WAVE INDEX 01 00:00:00 TRACK 07 AUDIO TITLE "Ode to Ajanta" PERFORMER "Ancient Future" REM COMPOSER "" INDEX 00 08:07:57FILE "07 - Ode to Ajanta.wav" WAVE INDEX 01 00:00:00
[ru-zerkalo.org]_t_5747362
Torrent: Registered ·  [ 2019-06-22 13:38 ] ·  a495f0254cba13f3929afdad6734e40e45af75c2

19 KB

Status: checked
Completed: 0 times
Size: 222 MB
Rating: 
(Votes: 0)
Say thanks: 0  Thanks
 
[Profile] [PM]
Display posts from previous:    
Reply to topic

The time now is: Today 22:54

All times are GMT + 7 Hours



You cannot post new topics in this forum
You cannot reply to topics in this forum
You cannot edit your posts in this forum
You cannot delete your posts in this forum
You cannot vote in polls in this forum
You cannot attach files in this forum
You can download files in this forum