Register · 
Username: Password:
 ·  Forgot password?

[TR24][OF] Lushh - Lushh - 2019 (Fusion / Jazz-Rock)

Reply to topic
DL-List and Torrent activity [Update пиров]
Size:  735 MB   |    Registered:  3 months 25 days   |    Completed:  1 time

Seeder not seen: 3 months 23 days

 
   
 
 
 
Author Message

ANTON1404 ®

Gender:

Longevity: 6 years

Posts: 17696

Post 22-Jun-2019 23:25

[Quote]

Lushh / Lushh
Формат записи/Источник записи: [TR24][OF]
Наличие водяных знаков: Нет
Год издания/переиздания диска: 2019
Жанр: Fusion / Jazz-Rock
Продолжительность: 73:02 min
Наличие сканов в содержимом раздачи: Нет
Треклист:
1. Kid Stuff. 8:16
2. Come and Get Your Money. 6:46
3. Healthy Habits. 7:24
4. beat #2. 4:47
5. Go Home (Intro). 0:56
6. A Kind of Breaking Through to Glory. 6:55
7. I. Raphael. 6:10
8. II. Gabriel. 5:58
9. III. Lucifer. 7:01
10. IV. Michael. 10:02
11. Speckles of Bronze and Blonde. 8:41
Контейнер: FLAC (*.flac)
Тип рипа: tracks
Разрядность: 24/44,1
Формат: WAV (flac.ape.wv)
Количество каналов: 2.0

DRM.log

foobar2000 1.3.8 / Dynamic Range Meter 1.1.1log date: 2019-06-06 16:25:12
--------------------------------------------------------------------------------Analyzed: Lushh / Lushh--------------------------------------------------------------------------------
DR Peak RMS Duration Track--------------------------------------------------------------------------------DR10 -0.02 dB -12.38 dB 8:17 01-Kid StuffDR10 -0.02 dB -13.23 dB 6:46 02-Come and Get Your MoneyDR12 -0.02 dB -14.85 dB 7:24 03-Healthy HabitsDR11 -0.02 dB -13.64 dB 4:47 04-beat #2DR6 -11.53 dB -19.49 dB 0:56 05-Go Home (Intro)DR11 -0.02 dB -12.75 dB 6:56 06-A Kind of Breaking Through to GloryDR10 -0.67 dB -13.74 dB 6:11 07-I. RaphaelDR10 -0.08 dB -12.65 dB 5:59 08-II. GabrielDR12 -0.57 dB -15.66 dB 7:01 09-III. LuciferDR11 -0.02 dB -14.63 dB 10:03 10-IV. MichaelDR12 -0.17 dB -14.98 dB 8:42 11-Speckles of Bronze and Blonde--------------------------------------------------------------------------------
Number of tracks: 11Official DR value: DR10
Samplerate: 44100 HzChannels: 2Bits per sample: 24Bitrate: 1377 kbpsCodec: FLAC================================================================================
Источник (релизер): bandcamp.com

Состав

- Eddie Codrington / saxophone
- Grayson Nye / keyboards
- Andrew Saliba / guitar
- MJ Epperson / bass
- Madison George / drums

Об альбоме (сборнике)

Recorded by Logan Ganter at Overneath Creative Collective and Western Sound Studios
Mixed by Ian Gorman of La Luna Recording
Mastered by Anthony Gravino
released April 19, 2019
[ru-zerkalo.org]_t_5741365
Torrent: Registered ·  [ 2019-06-22 23:20 ] ·  739fc6b8cfcbe300f97709ee3525dcca06720d1e

16 KB

Status: checked
Completed: 1 times
Size: 735 MB
Rating: 
(Votes: 0)
Say thanks: 0  Thanks
 
Похожие темы
[Profile] [PM]
Display posts from previous:    
Reply to topic

The time now is: Today 23:29

All times are GMT + 7 Hours



You cannot post new topics in this forum
You cannot reply to topics in this forum
You cannot edit your posts in this forum
You cannot delete your posts in this forum
You cannot vote in polls in this forum
You cannot attach files in this forum
You can download files in this forum