Register · 
Username: Password:
 ·  Forgot password?

(Jazz Rock / Fusion) [WEB] Farmhouse Odyssey - Дискография (4 релиза) - 2015-2019, FLAC (tracks), lossless

Reply to topic
DL-List and Torrent activity [Update пиров]
Size:  1.01 GB   |    Registered:  3 months 24 days   |    Completed:  0 times

Seeder not seen: Never

 
   
 
 
 
Author Message

kadSM ®

Gender:

Longevity: 6 years

Posts: 18049

Post 22-Jun-2019 23:27

[Quote]

Farmhouse Odyssey / Дискография- -
Жанр: Jazz Rock / Fusion
Носитель: WEB
Год издания: 2015-2019
Страна исполнителя (группы): United States
Аудиокодек: FLAC (*.flac)
Тип рипа: tracks
Битрейт аудио: lossless
Источник (релизер): bandcamp
Наличие сканов в содержимом раздачи: нет

2015 - Farmhouse Odyssey [59:57]

Tracklist:
01. So It Would Seem (12:45)
02. Dante (7:33)
03. Sleeping Silent (12:48)
04. Cross the Deep (9:17)
05. Colossal Cypress (6:53)
06. A Moment To Take (10:40)
Line-up / Musicians:
- Alex Espe / vocals, keyboards
- Alex Pepe / guitars
- Aaron Laughlin / guitars, vocals
- Ian Taylor / bass guitar, vocals
- Thatcher Holvick-Norton / drums, vocals

Лог проверки качества

-----------------------
DON'T MODIFY THIS FILE
-----------------------
PERFORMER: auCDtect Task Manager, ver. 1.6.0 RC1 build 1.6.0.1Copyright (c) 2008-2010 y-soft. All rights reservedhttp://y-soft.org
ANALYZER: auCDtect: CD records authenticity detector, version 0.8.2Copyright (c) 2004 Oleg Berngardt. All rights reserved.Copyright (c) 2004 Alexander Djourik. All rights reserved.
FILE: 01. So It Would Seem.flac Size: 80444626 Hash: C0E863862A33A8D53A0EF0768860C192 Accuracy: -m0 Conclusion: CDDA 100% Signature: FFF23104F8DDA23B3111BFA0B54713F5C9632F40FILE: 02. Dante.flac Size: 49266691 Hash: 09A713B8FA3385BFC1B26405E72F9509 Accuracy: -m0 Conclusion: MPEG 95% Signature: 347C5A5C3657464F8D2795B17EBAC7FB8A0A629CFILE: 03. Sleeping Silent.flac Size: 84917903 Hash: CABABD108E0B1488457777EC15FD7972 Accuracy: -m0 Conclusion: CDDA 100% Signature: 09F090A488D935FBAF7E4FE7FFF9F712BC2E21E0FILE: 04. Cross the Deep.flac Size: 66712326 Hash: 3F160970611486AF2407A016DBF604FF Accuracy: -m0 Conclusion: CDDA 100% Signature: 816DB0DCA83A95F666A372B0E00F573F9B6E1A9BFILE: 05. Colossal Cypress.flac Size: 47440791 Hash: 43901B444556BD914AE04C658607C6F1 Accuracy: -m0 Conclusion: MPEG 95% Signature: 61F7D77E005AF4A4339FCB2083B0053F73ACFCA0FILE: 06. A Moment To Take.flac Size: 67753902 Hash: 351AE6BA0FB470C5A148681F5ACBA6A2 Accuracy: -m0 Conclusion: MPEG 95% Signature: 61B13971032607FF33A04138B22F4ECB02D85589

Скриншот спектра частот



Лог DRM

foobar2000 1.3.9 / Dynamic Range Meter 1.1.1log date: 2019-06-20 20:10:55
--------------------------------------------------------------------------------Analyzed: Farmhouse Odyssey / Farmhouse Odyssey--------------------------------------------------------------------------------
DR Peak RMS Duration Track--------------------------------------------------------------------------------DR9 0.00 dB -12.01 dB 12:45 01-So It Would SeemDR9 -0.04 dB -12.09 dB 7:33 02-DanteDR9 -0.11 dB -12.08 dB 12:48 03-Sleeping SilentDR9 -0.11 dB -11.76 dB 9:17 04-Cross the DeepDR9 -0.13 dB -12.56 dB 6:53 05-Colossal CypressDR11 -0.05 dB -13.07 dB 10:40 06-A Moment To Take--------------------------------------------------------------------------------
Number of tracks: 6Official DR value: DR9
Samplerate: 44100 HzChannels: 2Bits per sample: 16Bitrate: 844 kbpsCodec: FLAC================================================================================

2016 - Rise of the Waterfowl [1:00:15]

Tracklist:
01. Daybreak (6:30)
02. Slumberless Sun (4:30)
03. Brain Song (6:10)
04. Calligraphy (7:29)
05. Space Revealed (8:30)
06. Shipwreck (5:48)
07. Speedbump Catalyst: Upon the Wheel, Blessing in Disguise, Energetic Tides, The Road Alone (15:57)
08. Safe Passage (1:10)
09. From the Night Sky (4:12)
Line-up / Musicians:
- Alex Espe / vocals, keyboards
- Aaron Laughlin / guitar, vocals
- Alex Pepe / guitar
- Ian Taylor / bass
- Thatcher Holvick-Norton / drums

Лог проверки качества

-----------------------
DON'T MODIFY THIS FILE
-----------------------
PERFORMER: auCDtect Task Manager, ver. 1.6.0 RC1 build 1.6.0.1Copyright (c) 2008-2010 y-soft. All rights reservedhttp://y-soft.org
ANALYZER: auCDtect: CD records authenticity detector, version 0.8.2Copyright (c) 2004 Oleg Berngardt. All rights reserved.Copyright (c) 2004 Alexander Djourik. All rights reserved.
FILE: 01. Daybreak.flac Size: 40927549 Hash: A86902A6096BAE5B0205674286935589 Accuracy: -m0 Conclusion: CDDA 100% Signature: 5339664CBE33B2F6A325D29723F676DDCE40D331FILE: 02. Slumberless Sun.flac Size: 29344545 Hash: AC91056573EA6072A7624414ACD2611D Accuracy: -m0 Conclusion: CDDA 100% Signature: 86610A8DBCD099AF579DC862962092D25831AA77FILE: 03. Brain Song.flac Size: 38962131 Hash: B5B95BD6067606EE7015B679BBFC2960 Accuracy: -m0 Conclusion: CDDA 100% Signature: 3C79090AF934100B74BC448DC88401AF8C1AA787FILE: 04. Calligraphy.flac Size: 50107763 Hash: 0C2D7494AD2C562219AC8F218223B43F Accuracy: -m0 Conclusion: CDDA 100% Signature: 3D2780D8B3A3A6161D0DA1B4C0964C8B38307260FILE: 05. Space Revealed.flac Size: 53933571 Hash: E0DF9E1E16EB0E1145CAD3586BBCBD91 Accuracy: -m0 Conclusion: CDDA 100% Signature: 89B72346DB9E13738566A3EF6F309C8EEEC31CA3FILE: 06. Shipwreck.flac Size: 38829134 Hash: 2543D4EB7F28C18738A25BBAC9342653 Accuracy: -m0 Conclusion: CDDA 100% Signature: 88B7AE912E29F92746115448B06BCFEEEC5E3B70FILE: 07. Speedbump Catalyst Upon the Wheel, Blessing in Disguise, Energetic Tides, The Road Alone.flac Size: 101390318 Hash: AE9735413F404AC0F878C86A8128DED6 Accuracy: -m0 Conclusion: CDDA 100% Signature: DEDDA6FA6DE545FB942601B736F8847A6BAE219DFILE: 08. Safe Passage.flac Size: 5536417 Hash: BF850305E915CDD954C86958C9C561A9 Accuracy: -m0 Conclusion: CDDA 100% Signature: B695E8455F7FE1D67EFB6963B36C0594BCA2505DFILE: 09. From the Night Sky.flac Size: 23916726 Hash: 90D9C98024E3B8A771F6F413BE7E4A25 Accuracy: -m0 Conclusion: CDDA 100% Signature: 78AE588D3DAAECA112ED8ED8D9AF4BC52037FFF9

Скриншот спектра частот



Лог DRM

foobar2000 1.3.9 / Dynamic Range Meter 1.1.1log date: 2019-06-20 20:11:27
--------------------------------------------------------------------------------Analyzed: Farmhouse Odyssey / Rise of the Waterfowl--------------------------------------------------------------------------------
DR Peak RMS Duration Track--------------------------------------------------------------------------------DR9 -0.19 dB -10.87 dB 6:30 01-DaybreakDR10 -0.20 dB -12.17 dB 4:30 02-Slumberless SunDR9 -0.19 dB -12.05 dB 6:10 03-Brain SongDR10 -0.19 dB -12.41 dB 7:29 04-CalligraphyDR9 -0.20 dB -12.22 dB 8:30 05-Space RevealedDR9 -0.19 dB -10.86 dB 5:48 06-ShipwreckDR10 -0.20 dB -14.01 dB 15:57 07-Speedbump Catalyst: Upon the Wheel, Blessing in Disguise, Energetic Tides, The Road AloneDR11 -5.78 dB -18.32 dB 1:10 08-Safe PassageDR10 -0.19 dB -14.48 dB 4:12 09-From the Night Sky--------------------------------------------------------------------------------
Number of tracks: 9Official DR value: DR10
Samplerate: 44100 HzChannels: 2Bits per sample: 16Bitrate: 751 kbpsCodec: FLAC================================================================================

2016 - Back In N.Y.C. (Single) [29:23]

Tracklist:
01. Back In N.Y.C. (5:55)
Line-up / Musicians:
- Alex Espe / vocals, keyboards
- Aaron Laughlin / guitar, vocals
- Alex Pepe / guitar
- Ian Taylor / bass
- Thatcher Holvick-Norton / drums

Лог проверки качества

-----------------------
DON'T MODIFY THIS FILE
-----------------------
PERFORMER: auCDtect Task Manager, ver. 1.6.0 RC1 build 1.6.0.1Copyright (c) 2008-2010 y-soft. All rights reservedhttp://y-soft.org
ANALYZER: auCDtect: CD records authenticity detector, version 0.8.2Copyright (c) 2004 Oleg Berngardt. All rights reserved.Copyright (c) 2004 Alexander Djourik. All rights reserved.
FILE: 01. Back In N.Y.C..flac Size: 41804174 Hash: E2770C8952D72325D5C422B4DD7CE4CF Accuracy: -m0 Conclusion: CDDA 100% Signature: 702FA5EB08E9D0D6FF935F85AC2391606A0181A1

Лог DRM

foobar2000 1.3.9 / Dynamic Range Meter 1.1.1log date: 2019-06-20 20:30:43
--------------------------------------------------------------------------------Statistics for: 01-Back In N.Y.C.Number of samples: 15666747Duration: 5:55--------------------------------------------------------------------------------
Left Right
Peak Value: 0.00 dB --- -0.14 dBAvg RMS: -10.38 dB --- -11.14 dBDR channel: 8.50 dB --- 8.94 dB--------------------------------------------------------------------------------
Official DR Value: DR9
Samplerate: 44100 HzChannels: 2Bits per sample: 16Bitrate: 938 kbpsCodec: FLAC================================================================================

2019 - Fertile Ground [39:08]

Tracklist:
01. The Call (4:31)
02. Out of the Fog (12:34)
03. Betwixt and Between (8:49)
04. Ancient Yet Eternal (6:50)
05. Verve (6:25)
Line-up / Musicians:
- Alex Espe / Vocals, Piano, Rhodes, Moog, Organ, Mellotron
- Aaron Laughlin / Vocals, Guitars, Mandolin, Mellotron
- Alex Pepe / Guitars
- Ian Taylor / Bass, Synth Bass
- Thatcher Norton / Drums

Лог проверки качества

-----------------------
DON'T MODIFY THIS FILE
-----------------------
PERFORMER: auCDtect Task Manager, ver. 1.6.0 RC1 build 1.6.0.1Copyright (c) 2008-2010 y-soft. All rights reservedhttp://y-soft.org
ANALYZER: auCDtect: CD records authenticity detector, version 0.8.2Copyright (c) 2004 Oleg Berngardt. All rights reserved.Copyright (c) 2004 Alexander Djourik. All rights reserved.
FILE: 05. Verve.flac Size: 42669311 Hash: 48090DEC2FD4CC93A50E663D07667253 Accuracy: -m0 Conclusion: CDDA 100% Signature: 143CC5CE3FA678937B07930407D9ACE73878F1D1FILE: 04. Ancient Yet Eternal.flac Size: 44882782 Hash: BA4D5A23A94935E6C0B311B815E24CC2 Accuracy: -m0 Conclusion: CDDA 100% Signature: 6119647DB53A92123809297CC5C5CF9F908F600AFILE: 03. Betwixt and Between.flac Size: 57437665 Hash: 44AA7BCD021C1A3C1799D7653D9C2BE3 Accuracy: -m0 Conclusion: CDDA 100% Signature: 06D831782663AFAC943E5A7228F4486078964511FILE: 02. Out of the Fog.flac Size: 81285130 Hash: 043D298CB707D8FCD6372E63F2F2D42E Accuracy: -m0 Conclusion: CDDA 100% Signature: 0F2EBEB2B3B238D8CF7E67A99BBAA0413D202670FILE: 01. The Call.flac Size: 28502587 Hash: A758B8EDA6991AA7EFA516969A4FC123 Accuracy: -m0 Conclusion: CDDA 100% Signature: 755A43B0E6C1732EC5A1FD5653EDE97BB072AF8E

Лог DRM

foobar2000 1.3.9 / Dynamic Range Meter 1.1.1log date: 2019-06-20 20:30:25
--------------------------------------------------------------------------------Analyzed: Farmhouse Odyssey / Fertile Ground--------------------------------------------------------------------------------
DR Peak RMS Duration Track--------------------------------------------------------------------------------DR10 -0.89 dB -14.70 dB 4:31 01-The CallDR10 -0.87 dB -13.43 dB 12:34 02-Out of the FogDR10 -0.94 dB -13.94 dB 8:49 03-Betwixt and BetweenDR10 -0.77 dB -13.73 dB 6:50 04-Ancient Yet EternalDR10 -0.95 dB -12.98 dB 6:25 05-Verve--------------------------------------------------------------------------------
Number of tracks: 5Official DR value: DR10
Samplerate: 44100 HzChannels: 2Bits per sample: 16Bitrate: 881 kbpsCodec: FLAC================================================================================
-Раздача обновлена 20.06.2019 г.
Добавлен альбом 2019 - Fertile Ground.
- группы:
-
[ru-zerkalo.org]_t_5216575
Torrent: Registered ·  [ 2019-06-22 23:20 ] ·  2b4cb603a8f188abf9bd386329871d2d950629d4

13 KB

Status: checked
Completed: 0 times
Size: 1.01 GB
Rating: 
(Votes: 0)
Say thanks: 0  Thanks
 
Похожие темы
[Profile] [PM]
Display posts from previous:    
Reply to topic

The time now is: Today 22:56

All times are GMT + 7 Hours



You cannot post new topics in this forum
You cannot reply to topics in this forum
You cannot edit your posts in this forum
You cannot delete your posts in this forum
You cannot vote in polls in this forum
You cannot attach files in this forum
You can download files in this forum