Register · 
Username: Password:
 ·  Forgot password?

[TR24][OF] Stefania Kaye - Traces - 2019 (Pop)

Reply to topic
DL-List and Torrent activity [Update пиров]
Size:  364 MB   |    Registered:  3 months 24 days   |    Completed:  0 times

Seeder not seen: 2 months 14 days

 
   
 
 
 
Author Message

Dimas28 ®

Gender:

Longevity: 6 years

Posts: 28126

Post 23-Jun-2019 00:59

[Quote]

Stefania Kaye - Traces-- Формат записи/Источник записи: [TR24][OF]
Наличие водяных знаков: Нет
Год издания: 2019
Жанр: Pop
Издатель (лейбл): Weltrekords
Продолжительность: 00:30:02
Наличие сканов в содержимом раздачи: Только обложка альбома
Контейнер: FLAC (*.flac)
Тип рипа: tracks
Разрядность: 24/44.1
Формат: PCM
Количество каналов: 2.0
Источник (релизер): qobuz.com-Треклист
01. Hear the Ocean Call
02. Same Piece of Wood
03. Before I Do
04. Shining Through the Rain
05. I Know Its True
06. Leave the World Outside
07. Unkissed
08. Turned the Bad Times to Good
09. Keep on Running (Radio Edit)

Лог проверки качества

foobar2000 1.4 / Dynamic Range Meter 1.1.1log date: 2019-06-22 17:54:17
--------------------------------------------------------------------------------Analyzed: Stefania Kaye / Traces--------------------------------------------------------------------------------
DR Peak RMS Duration Track--------------------------------------------------------------------------------DR6 -0.10 dB -7.60 dB 3:12 01-Hear the Ocean CallDR6 -0.10 dB -6.89 dB 2:55 02-Same Piece of WoodDR6 -0.10 dB -7.35 dB 3:32 03-Before I DoDR6 -0.10 dB -7.37 dB 3:21 04-Shining Through the RainDR6 -0.10 dB -7.33 dB 3:27 05-I Know Its TrueDR5 -0.10 dB -6.29 dB 3:13 06-Leave the World OutsideDR6 -0.10 dB -7.16 dB 3:46 07-UnkissedDR5 -0.10 dB -6.35 dB 3:32 08-Turned the Bad Times to GoodDR5 -0.10 dB -7.51 dB 3:09 09-Keep on Running--------------------------------------------------------------------------------
Number of tracks: 9Official DR value: DR6Samplerate: 44100 HzChannels: 2Bits per sample: 24Bitrate: 1661 kbpsCodec: FLAC================================================================================
[ru-zerkalo.org]_t_5747717
Torrent: Registered ·  [ 2019-06-23 00:53 ] ·  c011992342eb27ef2866f8d4c1dfb7c541f32af5

15 KB

Status: checked
Completed: 0 times
Size: 364 MB
Rating: 
(Votes: 0)
Say thanks: 1  Thanks   (list)
 
Похожие темы
[Profile] [PM]
Display posts from previous:    
Reply to topic

The time now is: Today 23:12

All times are GMT + 7 Hours



You cannot post new topics in this forum
You cannot reply to topics in this forum
You cannot edit your posts in this forum
You cannot delete your posts in this forum
You cannot vote in polls in this forum
You cannot attach files in this forum
You can download files in this forum