Register · 
Username: Password:
 ·  Forgot password?

[TR24][OF] Quantic - Atlantic Oscillations - 2019 (Nu-Jazz, Nu-Disco, Funk)

Reply to topic
DL-List and Torrent activity [Update пиров]
Size:  610 MB   |    Registered:  4 months 21 day   |    Completed:  1 time

Seeder not seen: 4 months 20 days

 
   
 
 
 
Author Message

ANTON1404 ®

Gender:

Longevity: 6 years 1 month

Posts: 18158

Post 23-Jun-2019 20:53

[Quote]

Quantic / Atlantic Oscillations
Формат записи/Источник записи: [TR24][OF]
Год издания/переиздания диска: 2019
Жанр: Nu-Jazz, Nu-Disco, Funk
Издатель (лейбл): Tru Thoughts (UK)
Продолжительность: 00:55:30
Наличие сканов в содержимом раздачи: Только обложка альбома
Треклист:
01. Divergence
02. Incendium
03. September Blues
04. You Used To Love Me (feat. Denitia)
05. Atlantic Oscillations
06. Now Or Never (feat. Alice Russell)
07. Orquídea (feat. Sly5thAve)
08. Tierra Mama (feat. Nidia Góngora)
09. Motivic Retrograde
10. La Reflexión
11. Is It Your Intention
Контейнер: FLAC (*.flac)
Тип рипа: tracks
Разрядность: 24/44,1
Формат: PCM
Количество каналов: 2.0

Лог проверки качества

foobar2000 1.4.4 / Замер динамического диапазона (DR) 1.1.1Дата отчёта: 2019-06-23 14:58:45
--------------------------------------------------------------------------------Анализ: Quantic / Atlantic Oscillations--------------------------------------------------------------------------------
DR Пики RMS Продолжительность трека--------------------------------------------------------------------------------DR8 -0.20 дБ -11.07 дБ 3:30 01-DivergenceDR9 0.00 дБ -10.24 дБ 4:45 02-IncendiumDR8 -0.02 дБ -8.75 дБ 5:06 03-September BluesDR7 0.00 дБ -8.79 дБ 6:18 04-You Used To Love Me (feat. Denitia)DR8 0.00 дБ -8.67 дБ 5:51 05-Atlantic OscillationsDR9 -0.16 дБ -10.49 дБ 5:30 06-Now Or Never (feat. Alice Russell)DR9 0.00 дБ -9.64 дБ 5:25 07-Orquídea (feat. Sly5thAve)DR8 -0.05 дБ -9.50 дБ 6:55 08-Tierra Mama (feat. Nidia Góngora)DR11 -0.07 дБ -11.91 дБ 3:57 09-Motivic RetrogradeDR8 0.00 дБ -8.84 дБ 4:22 10-La ReflexiónDR8 0.00 дБ -9.42 дБ 3:36 11-Is It Your Intention--------------------------------------------------------------------------------
Количество треков: 11Реальные значения DR: DR8
Частота: 44100 ГцКаналов: 2Разрядность: 24Битрейт: 1514 кбит/сКодек: FLAC================================================================================
Источник (релизер): Qobuz
[ru-zerkalo.org]_t_5748095
Torrent: Registered ·  [ 2019-06-23 20:53 ] ·  d9b24cbe2bb6d96f05cc3fcc3b5633ccdb099d2a

13 KB

Status: checked
Completed: 1 times
Size: 610 MB
Rating: 
(Votes: 0)
Say thanks: 0  Thanks
 
Похожие темы
[Profile] [PM]
Display posts from previous:    
Reply to topic

The time now is: Today 14:59

All times are GMT + 7 Hours



You cannot post new topics in this forum
You cannot reply to topics in this forum
You cannot edit your posts in this forum
You cannot delete your posts in this forum
You cannot vote in polls in this forum
You cannot attach files in this forum
You can download files in this forum