Register · 
Username: Password:
 ·  Forgot password?

(Fusion) [CD] Djabe - Táncolnak a kazlak - 2003 (Gramy), FLAC (tracks+.cue), lossless

Reply to topic
DL-List and Torrent activity [Update пиров]
Size:  551 MB   |    Registered:  3 months 23 days   |    Completed:  0 times

Seeder not seen: Never

 
   
 
 
 
Author Message

Shadow123 ®

Gender:

Longevity: 6 years

Posts: 14342

Post 24-Jun-2019 02:14

[Quote]

----Djabe - Táncolnak a kazlak - 2003 (Gramy)-- Жанр: Fusion
Носитель: CD (Digibook)
Страна-производитель диска (релиза): Hungary
Год издания оригинала: 2003
Издатель (лейбл): GRAMY
Номер по каталогу: CR-039
Страна исполнителя (группы) : Hungary
Аудио кодек: FLAC (*.flac)
Тип рипа: (tracks + .cue)
Битрейт аудио: lossless
Корректность рипа: В оригинале не было применено сжатие при конвертировании во Флак (FLAC Level 0). Для приведения в соответствие правилам пережато во FLAC Level 8 с сохранением тэгов
Наличие сканов в содержимом раздачи: full scans, jpeg png, 300 dpi
Продолжительность: 1:15:31
Источник (релизер): Naftamusic
Трэклист:
01 - Táncolnak a kazlak
02 - Tájak
A- Lengyelország felett,
B- Alkony a tengerparton
03 - Hajdúböszörményi utcarész
04 - Ház a dombtetőn
05 - Téli Hortobágy
06 - Hóviharban
07 - Fátyol mögött
08 - Beszélgetők
09 - Szemrehányás
10 - Thiérachei emlék
11 - Gyimesi hegyek
12 - Repülés
13 - Jégvilág
14 - Virágcsendélet

ЛогиЛог создания рипа

Exact Audio Copy V1.3 from 2. September 2016
EAC extraction logfile from 20. April 2019, 15:43
Djabe / Táncolnak a kazlak
Used drive : PLEXTOR DVDR PX-L890SA Adapter: 1 ID: 1
Read mode : SecureUtilize accurate stream : YesDefeat audio cache : YesMake use of C2 pointers : No
Read offset correction : 6Overread into Lead-In and Lead-Out : NoFill up missing offset samples with silence : YesDelete leading and trailing silent blocks : NoNull samples used in CRC calculations : YesUsed interface : Native Win32 interface for Win NT & 2000Gap handling : Appended to previous track
Used output format : User Defined EncoderSelected bitrate : 1024 kBit/sQuality : HighAdd ID3 tag : NoCommand line compressor : C:\Program Files (x86)\Exact Audio Copy\Flac\flac.exeAdditional command line options : -0 -V -T "ARTIST=%artist%" -T "TITLE=%title%" -T "ALBUM=%albumtitle%" -T "DATE=%year%" -T "TRACKNUMBER=%tracknr%" -T "TOTALTRACKS=%numtracks%" -T "GENRE=%genre%" -T "COMMENT=Naftamusic Release!" %source%
TOC of the extracted CD
Track | Start | Length | Start sector | End sector --------------------------------------------------------- 1 | 0:00.00 | 5:39.00 | 0 | 25424 2 | 5:39.00 | 8:29.00 | 25425 | 63599 3 | 14:08.00 | 7:05.00 | 63600 | 95474 4 | 21:13.00 | 6:19.00 | 95475 | 123899 5 | 27:32.00 | 6:53.00 | 123900 | 154874 6 | 34:25.00 | 5:17.00 | 154875 | 178649 7 | 39:42.00 | 4:37.00 | 178650 | 199424 8 | 44:19.00 | 3:42.00 | 199425 | 216074 9 | 48:01.00 | 7:01.00 | 216075 | 247649 10 | 55:02.00 | 5:23.00 | 247650 | 271874 11 | 60:25.00 | 3:43.00 | 271875 | 288599 12 | 64:08.00 | 1:54.20 | 288600 | 297169 13 | 66:02.20 | 6:36.55 | 297170 | 326924 14 | 72:39.00 | 2:52.00 | 326925 | 339824
Track 1
Filename D:\Nafta Releases\Djabe - Táncolnak a kazlak (2003) [FLAC] - Naftamusic\01 - Táncolnak a kazlak.wav
Pre-gap length 0:00:02.00
Peak level 99.3 % Extraction speed 3.5 X Track quality 99.9 % Test CRC 7F223CC1 Copy CRC 7F223CC1 Accurately ripped (confidence 2) [B3CEB684] (AR v1) Copy OK
Track 2
Filename D:\Nafta Releases\Djabe - Táncolnak a kazlak (2003) [FLAC] - Naftamusic\02 - Tájak A- Lengyelország felett, B- Alkony a tengerparton.wav
Pre-gap length 0:00:03.00
Peak level 99.5 % Extraction speed 5.0 X Track quality 100.0 % Test CRC F981C2E5 Copy CRC F981C2E5 Accurately ripped (confidence 2) [5F680BA3] (AR v1) Copy OK
Track 3
Filename D:\Nafta Releases\Djabe - Táncolnak a kazlak (2003) [FLAC] - Naftamusic\03 - Hajdúböszörményi utcarész.wav
Pre-gap length 0:00:03.00
Peak level 99.9 % Extraction speed 5.6 X Track quality 100.0 % Test CRC 20BBCE53 Copy CRC 20BBCE53 Accurately ripped (confidence 2) [44FF884A] (AR v1) Copy OK
Track 4
Filename D:\Nafta Releases\Djabe - Táncolnak a kazlak (2003) [FLAC] - Naftamusic\04 - Ház a dombtetőn.wav
Pre-gap length 0:00:03.00
Peak level 98.8 % Extraction speed 5.9 X Track quality 100.0 % Test CRC CF1886F4 Copy CRC CF1886F4 Accurately ripped (confidence 2) [C18E5B02] (AR v1) Copy OK
Track 5
Filename D:\Nafta Releases\Djabe - Táncolnak a kazlak (2003) [FLAC] - Naftamusic\05 - Téli Hortobágy.wav
Pre-gap length 0:00:03.00
Peak level 99.3 % Extraction speed 5.6 X Track quality 99.9 % Test CRC 4294F6EB Copy CRC 4294F6EB Accurately ripped (confidence 2) [4AA082A0] (AR v1) Copy OK
Track 6
Filename D:\Nafta Releases\Djabe - Táncolnak a kazlak (2003) [FLAC] - Naftamusic\06 - Hóviharban.wav
Pre-gap length 0:00:03.00
Peak level 98.2 % Extraction speed 6.6 X Track quality 100.0 % Test CRC 83B6CA41 Copy CRC 83B6CA41 Accurately ripped (confidence 2) [228177C7] (AR v2) Copy OK
Track 7
Filename D:\Nafta Releases\Djabe - Táncolnak a kazlak (2003) [FLAC] - Naftamusic\07 - Fátyol mögött.wav
Pre-gap length 0:00:03.00
Peak level 99.8 % Extraction speed 6.8 X Track quality 100.0 % Test CRC 7C071A94 Copy CRC 7C071A94 Accurately ripped (confidence 2) [3286F225] (AR v1) Copy OK
Track 8
Filename D:\Nafta Releases\Djabe - Táncolnak a kazlak (2003) [FLAC] - Naftamusic\08 - Beszélgetők.wav
Pre-gap length 0:00:03.00
Peak level 95.8 % Extraction speed 6.8 X Track quality 100.0 % Test CRC BE68A06A Copy CRC BE68A06A Accurately ripped (confidence 2) [E83000D2] (AR v1) Copy OK
Track 9
Filename D:\Nafta Releases\Djabe - Táncolnak a kazlak (2003) [FLAC] - Naftamusic\09 - Szemrehányás.wav
Peak level 99.6 % Extraction speed 7.5 X Track quality 100.0 % Test CRC 5D856C68 Copy CRC 5D856C68 Accurately ripped (confidence 2) [075CB477] (AR v2) Copy OK
Track 10
Filename D:\Nafta Releases\Djabe - Táncolnak a kazlak (2003) [FLAC] - Naftamusic\10 - Thiérachei emlék.wav
Pre-gap length 0:00:03.00
Peak level 99.4 % Extraction speed 6.4 X Track quality 99.9 % Test CRC 16FD90F5 Copy CRC 16FD90F5 Accurately ripped (confidence 2) [B13CE4A2] (AR v1) Copy OK
Track 11
Filename D:\Nafta Releases\Djabe - Táncolnak a kazlak (2003) [FLAC] - Naftamusic\11 - Gyimesi hegyek.wav
Pre-gap length 0:00:03.00
Peak level 96.7 % Extraction speed 7.6 X Track quality 100.0 % Test CRC 6A605D9A Copy CRC 6A605D9A Accurately ripped (confidence 2) [E261B19D] (AR v1) Copy OK
Track 12
Filename D:\Nafta Releases\Djabe - Táncolnak a kazlak (2003) [FLAC] - Naftamusic\12 - Repülés.wav
Pre-gap length 0:00:03.00
Peak level 63.8 % Extraction speed 6.7 X Track quality 100.0 % Test CRC 107DB6C2 Copy CRC 107DB6C2 Accurately ripped (confidence 2) [1551C1AC] (AR v1) Copy OK
Track 13
Filename D:\Nafta Releases\Djabe - Táncolnak a kazlak (2003) [FLAC] - Naftamusic\13 - Jégvilág.wav
Peak level 98.1 % Extraction speed 7.2 X Track quality 99.9 % Test CRC DF611EEC Copy CRC DF611EEC Accurately ripped (confidence 2) [053D64FF] (AR v1) Copy OK
Track 14
Filename D:\Nafta Releases\Djabe - Táncolnak a kazlak (2003) [FLAC] - Naftamusic\14 - Virágcsendélet.wav
Pre-gap length 0:00:03.00
Peak level 79.4 % Extraction speed 5.7 X Track quality 99.9 % Test CRC B0BFC252 Copy CRC B0BFC252 Accurately ripped (confidence 2) [5C5A5BE9] (AR v1) Copy OK
All tracks accurately ripped
No errors occurred
End of status report
==== Log checksum A46FF07D79A223C8A6C919ECB857BFA67AF8F064F0AE3C6BDA68DC894BDC3E72 ====

Содержание индексной карты (.CUE):

REM GENRE WorldREM DATE 2003REM DISCID CA11B30EREM COMMENT "ExactAudioCopy v1.3"FILE "01 - Táncolnak a kazlak.wav" WAVE TRACK 01 AUDIO INDEX 01 00:00:00 TRACK 02 AUDIO INDEX 00 05:36:00FILE "02 - Tájak A- Lengyelország felett, B- Alkony a tengerparton.wav" WAVE INDEX 01 00:00:00 TRACK 03 AUDIO INDEX 00 08:26:00FILE "03 - Hajdúböszörményi utcarész.wav" WAVE INDEX 01 00:00:00 TRACK 04 AUDIO INDEX 00 07:02:00FILE "04 - Ház a dombtetőn.wav" WAVE INDEX 01 00:00:00 TRACK 05 AUDIO INDEX 00 06:16:00FILE "05 - Téli Hortobágy.wav" WAVE INDEX 01 00:00:00 TRACK 06 AUDIO INDEX 00 06:50:00FILE "06 - Hóviharban.wav" WAVE INDEX 01 00:00:00 TRACK 07 AUDIO INDEX 00 05:14:00FILE "07 - Fátyol mögött.wav" WAVE INDEX 01 00:00:00 TRACK 08 AUDIO INDEX 00 04:34:00FILE "08 - Beszélgetők.wav" WAVE INDEX 01 00:00:00FILE "09 - Szemrehányás.wav" WAVE TRACK 09 AUDIO INDEX 01 00:00:00 TRACK 10 AUDIO INDEX 00 06:58:00FILE "10 - Thiérachei emlék.wav" WAVE INDEX 01 00:00:00 TRACK 11 AUDIO INDEX 00 05:20:00FILE "11 - Gyimesi hegyek.wav" WAVE INDEX 01 00:00:00 TRACK 12 AUDIO INDEX 00 03:40:00FILE "12 - Repülés.wav" WAVE INDEX 01 00:00:00FILE "13 - Jégvilág.wav" WAVE TRACK 13 AUDIO INDEX 01 00:00:00 TRACK 14 AUDIO INDEX 00 06:33:55FILE "14 - Virágcsendélet.wav" WAVE INDEX 01 00:00:00

Лог проверки качества

-----------------------
DON'T MODIFY THIS FILE
-----------------------
PERFORMER: auCDtect Task Manager, ver. 1.6.0 RC1 build 1.6.0.1Copyright (c) 2008-2010 y-soft. All rights reservedhttp://y-soft.org
ANALYZER: auCDtect: CD records authenticity detector, version 0.8.2Copyright (c) 2004 Oleg Berngardt. All rights reserved.Copyright (c) 2004 Alexander Djourik. All rights reserved.
FILE: 14 - Virágcsendélet.flac Size: 16767585 Hash: B3D99674BC9AB08FE49917D4677FF9CD Accuracy: -m0 Conclusion: CDDA 100% Signature: 74C28F28A8C09EE7C7CB5C447B412D4E5D000FC5FILE: 13 - Jégvilág.flac Size: 47512292 Hash: 0E688859A6A9F59965ABA3DDAD2FD748 Accuracy: -m0 Conclusion: CDDA 100% Signature: 8760BA6514A572F67FF8B40801C01084EAB0A39BFILE: 12 - Repülés.flac Size: 10045148 Hash: 220A9BF13EA5F2AD1EB4E06D2DE9C1A0 Accuracy: -m0 Conclusion: CDDA 100% Signature: 1143D2F23292A0A86B19E12EEADAB67118B9C89CFILE: 11 - Gyimesi hegyek.flac Size: 24080600 Hash: 39EE18A9FBEDE79E0E732DBD0BB1A456 Accuracy: -m0 Conclusion: CDDA 99% Signature: 7EDD8747F6B04F96A9B009D35F445B27EB4874D4FILE: 10 - Thiérachei emlék.flac Size: 39078473 Hash: 583E7073797A3E0E301C4E809004CA85 Accuracy: -m0 Conclusion: CDDA 100% Signature: 0F394DCC07329585A27A12757FE8B441EB639FB8FILE: 09 - Szemrehányás.flac Size: 52480594 Hash: 20B6A8ED7A0F205E289E752E7159E010 Accuracy: -m0 Conclusion: CDDA 100% Signature: 484490CBD3FD004EA9A8AB1FBFF2ECE7BEB82D7AFILE: 08 - Beszélgetők.flac Size: 17742444 Hash: 43711B38F1471CBB79F1582C3BF2F447 Accuracy: -m0 Conclusion: CDDA 99% Signature: 8E23311E6D245875FA92703F5CB0A355DA2BACC7FILE: 07 - Fátyol mögött.flac Size: 34282402 Hash: 02192C707C8CDFF967CE6272AD3930AE Accuracy: -m0 Conclusion: CDDA 100% Signature: CA752D1652F8058680E58A8BD1BA0B18166A480CFILE: 06 - Hóviharban.flac Size: 36934474 Hash: 455AAAB5B984FB34CFAEBEFC7997A433 Accuracy: -m0 Conclusion: CDDA 100% Signature: 62324D52A3DC20121ECC5037C29F8897DC1DB1EDFILE: 05 - Téli Hortobágy.flac Size: 47858646 Hash: 8BFAF36E17758B990FFC315BEBE7F995 Accuracy: -m0 Conclusion: CDDA 100% Signature: 1248F3A026F9D636908516DEF30F77C614AB44E7FILE: 04 - Ház a dombtetőn.flac Size: 46802432 Hash: 71E6F87BF58016E4A4EED11265423E41 Accuracy: -m0 Conclusion: CDDA 100% Signature: F0B4B0CD9EDDB58AB1D1058EAC0967B396942252FILE: 03 - Hajdúböszörményi utcarész.flac Size: 50095158 Hash: 28394C22856B077C2B81D70CCEAADD7E Accuracy: -m0 Conclusion: CDDA 99% Signature: 7DD9337FF67BACFE7646BF931D03D10B33FCCA85FILE: 02 - Tájak A- Lengyelország felett, B- Alkony a tengerparton.flac Size: 62576458 Hash: C9C7EA7FE164728CAD656870DF83984F Accuracy: -m0 Conclusion: CDDA 100% Signature: 1B71946366640DDEE1880BE15D858497494A1F55FILE: 01 - Táncolnak a kazlak.flac Size: 42842094 Hash: AE4F50370003031EBD48DE32395F164B Accuracy: -m0 Conclusion: CDDA 100% Signature: F89F02CB0874BE52A0598D44957BC0D0D2590A16

Лог CUETools*.accurip

[CUETools log; Date: 6/22/2019 7:06:33 PM; Version: 2.1.5][CTDB TOCID: JwFfrdyr2QLVDhFwnnVVEPhk.jg-] found.Track | CTDB Status 1 | (2/2) Accurately ripped 2 | (2/2) Accurately ripped 3 | (2/2) Accurately ripped 4 | (2/2) Accurately ripped 5 | (2/2) Accurately ripped 6 | (2/2) Accurately ripped 7 | (2/2) Accurately ripped 8 | (2/2) Accurately ripped 9 | (2/2) Accurately ripped 10 | (2/2) Accurately ripped 11 | (2/2) Accurately ripped 12 | (2/2) Accurately ripped 13 | (2/2) Accurately ripped 14 | (2/2) Accurately ripped[AccurateRip ID: 002b2c9e-01c11402-ca11b30e] found.Track [ CRC | V2 ] Status 01 [b3ceb684|db940b1f] (2+2/4) Accurately ripped 02 [5f680ba3|1aa1f7f9] (2+2/4) Accurately ripped 03 [44ff884a|40a73808] (2+2/4) Accurately ripped 04 [c18e5b02|4c1b8a0c] (2+2/4) Accurately ripped 05 [4aa082a0|44edd362] (2+2/4) Accurately ripped 06 [0864296e|228177c7] (2+3/5) Accurately ripped 07 [3286f225|c3272131] (2+2/4) Accurately ripped 08 [e83000d2|209e1de7] (2+2/4) Accurately ripped 09 [d3e24960|075cb477] (2+3/5) Accurately ripped 10 [b13ce4a2|df520967] (2+2/4) Accurately ripped 11 [e261b19d|d6651aca] (2+2/4) Accurately ripped 12 [1551c1ac|fdab8d9b] (2+2/4) Accurately ripped 13 [053d64ff|0d294273] (2+2/4) Accurately ripped 14 [5c5a5be9|9b18878d] (2+2/4) Accurately ripped
Track Peak [ CRC32 ] [W/O NULL] [ LOG ] -- 99.9 [619FE750] [8C33F767] 01 99.3 [7F223CC1] [D9F8AD8C] CRC32 02 99.5 [F981C2E5] [C1F0694B] CRC32 03 99.9 [20BBCE53] [4C2696F3] CRC32 04 98.8 [CF1886F4] [F2C79801] CRC32 05 99.3 [4294F6EB] [7BCF1D02] CRC32 06 98.2 [83B6CA41] [BB682740] CRC32 07 99.8 [7C071A94] [ABA211FD] CRC32 08 95.8 [BE68A06A] [F32F25AB] CRC32 09 99.6 [5D856C68] [FCC3D73B] CRC32 10 99.4 [16FD90F5] [C1249D1D] CRC32 11 96.7 [6A605D9A] [E3227E86] CRC32 12 63.8 [107DB6C2] [86631561] CRC32 13 98.1 [DF611EEC] [0DF3B8F3] CRC32 14 79.4 [B0BFC252] [334D3887] CRC32

*.toc

Track | Start | Length | Start sector | End sector --------------------------------------------------------- 1 | 0:00.00 | 5:39.00 | 0 | 25424 2 | 5:39.00 | 8:29.00 | 25425 | 63599 3 | 14:08.00 | 7:05.00 | 63600 | 95474 4 | 21:13.00 | 6:19.00 | 95475 | 123899 5 | 27:32.00 | 6:53.00 | 123900 | 154874 6 | 34:25.00 | 5:17.00 | 154875 | 178649 7 | 39:42.00 | 4:37.00 | 178650 | 199424 8 | 44:19.00 | 3:42.00 | 199425 | 216074 9 | 48:01.00 | 7:01.00 | 216075 | 247649 10 | 55:02.00 | 5:23.00 | 247650 | 271874 11 | 60:25.00 | 3:43.00 | 271875 | 288599 12 | 64:08.00 | 1:54.20 | 288600 | 297169 13 | 66:02.20 | 6:36.55 | 297170 | 326924 14 | 72:39.00 | 2:52.00 | 326925 | 339824

Замер динамического диапазона

foobar2000 1.4 / Dynamic Range Meter 1.1.1log date: 2019-04-20 15:47:14
--------------------------------------------------------------------------------Analyzed: Djabe / Táncolnak a kazlak--------------------------------------------------------------------------------
DR Peak RMS Duration Track--------------------------------------------------------------------------------DR10 -0.06 dB -12.15 dB 5:39 01-Táncolnak a kazlakDR11 -0.04 dB -13.04 dB 8:29 02-Tájak A: Lengyelország felett, B: Alkony a tengerpartonDR11 0.00 dB -13.51 dB 7:05 03-Hajdúböszörményi utcarészDR11 -0.10 dB -13.40 dB 6:19 04-Ház a dombtetőnDR12 -0.05 dB -14.74 dB 6:53 05-Téli HortobágyDR11 -0.16 dB -13.97 dB 5:17 06-HóviharbanDR9 -0.01 dB -12.25 dB 4:37 07-Fátyol mögöttDR13 -0.37 dB -19.43 dB 3:42 08-BeszélgetőkDR9 -0.03 dB -12.03 dB 7:01 09-SzemrehányásDR11 -0.05 dB -12.94 dB 5:23 10-Thiérachei emlékDR13 -0.29 dB -16.17 dB 3:43 11-Gyimesi hegyekDR14 -3.90 dB -22.73 dB 1:54 12-RepülésDR10 -0.16 dB -12.70 dB 6:37 13-JégvilágDR11 -2.00 dB -15.99 dB 2:52 14-Virágcsendélet--------------------------------------------------------------------------------
Number of tracks: 14Official DR value: DR11
Samplerate: 44100 HzChannels: 2Bits per sample: 16Bitrate: 779 kbpsCodec: FLAC================================================================================
-

Back

Диск

Матрица

Состав

Bass Guitar – Barabás Tamás
Drums – Banai Szilárd
Guitar – Steve Hackett, Égerházi Attila
Keyboards – Kovács Zoltán (5)
Percussion, Vocals – Sipos András (2)
Trumpet, Cornet, Violin, Vocals – Kovács Ferenc
Vocals – Herczeg Judit
Guests:
Saxophone – Ben Castle
Guitar – Steve Hackett
-Если нет сидов - пришлите мне ЛС
[ru-zerkalo.org]_t_5748162
Torrent: Registered ·  [ 2019-06-24 02:14 ] ·  02c8ca1231baf8d6fe15e211195635653d4f4c91

13 KB

Status: checked
Completed: 0 times
Size: 551 MB
Rating: 
(Votes: 0)
Say thanks: 0  Thanks
 
Похожие темы
[Profile] [PM]
Display posts from previous:    
Reply to topic

The time now is: Today 22:14

All times are GMT + 7 Hours



You cannot post new topics in this forum
You cannot reply to topics in this forum
You cannot edit your posts in this forum
You cannot delete your posts in this forum
You cannot vote in polls in this forum
You cannot attach files in this forum
You can download files in this forum