Register · 
Username: Password:
 ·  Forgot password?

(Black/ Speed Metal) [2CD] Venom - In Nomine Satanas (Deluxe Edition, Remaster) - 2019, FLAC (image+.cue), lossless

Reply to topic
DL-List and Torrent activity [Update пиров]
Size:  1.01 GB   |    Registered:  4 months 25 days   |    Completed:  0 times

Seeder not seen: Never

 
   
 
 
 
Author Message

FragoMan ®

Gender:

Longevity: 6 years 1 month

Posts: 23750

Post 25-Jun-2019 02:03

[Quote]

Venom - In Nomine Satanas-
Жанр: Black/ Speed Metal | Носитель: CD | Страна-производитель диска: EU | Год издания: 2019
Издатель-лейбл: BMG | Номер по каталогу: BMGCAT666DCD | Страна исполнителя: UK
Аудиокодек: FLAC (*.flac) | Тип рипа: image+.cue | Битрейт аудио: lossless
Thanks: SHI & vampiro | | Наличие сканов: да

Треклист:

Disc 01

01. Welcome To Hell (3:11)
02. Angel Dust (2:37)
03. In League With Satan (3:31)
04. In Nomine Satanas (3:27)
05. One Thousand Days In Sodom (4:31)
06. Blood Lust (2:59)
07. Black Metal (3:43)
08. Buried Alive (4:19)
09. Countess Bathory (3:48)
10. Teacher’s Pet (4:44)
11. At War With Satan (2:20)
12. Die Hard (3:05)
13. Stand Up (And Be Counted) (3:30)
14. Women, Leather And Hell (3:22)
15. Warhead (3:32)
16. Lady Lust (2:46)
17. Woman (2:55)
18. Manitou (3:41)
19. Satanachist (2:45)
20. Too Loud (For The Crowd) (2:58)
21. Possessed (4:54)
22. Nightmare (3:53)

Лог создания рипа

Exact Audio Copy V1.3 from 2. September 2016
EAC extraction logfile from 4. June 2019, 17:02
Venom / In Nomine Satanas-The Neat Anthology
Used drive : PLEXTOR DVDR PX-891SA Adapter: 1 ID: 0
Read mode : SecureUtilize accurate stream : YesDefeat audio cache : YesMake use of C2 pointers : No
Read offset correction : 6Overread into Lead-In and Lead-Out : NoFill up missing offset samples with silence : YesDelete leading and trailing silent blocks : NoNull samples used in CRC calculations : YesUsed interface : Native Win32 interface for Win NT & 2000
Used output format : User Defined EncoderSelected bitrate : 896 kBit/sQuality : HighAdd ID3 tag : NoCommand line compressor : C:\Program Files (x86)\Exact Audio Copy\Flac\flac.exeAdditional command line options : -6 -V %source%
TOC of the extracted CD
Track | Start | Length | Start sector | End sector --------------------------------------------------------- 1 | 0:00.00 | 3:10.54 | 0 | 14303 2 | 3:10.54 | 2:37.36 | 14304 | 26114 3 | 5:48.15 | 3:31.04 | 26115 | 41943 4 | 9:19.19 | 3:26.60 | 41944 | 57453 5 | 12:46.04 | 4:30.65 | 57454 | 77768 6 | 17:16.69 | 2:59.08 | 77769 | 91201 7 | 20:16.02 | 3:43.35 | 91202 | 107961 8 | 23:59.37 | 4:19.30 | 107962 | 127416 9 | 28:18.67 | 3:47.53 | 127417 | 144494 10 | 32:06.45 | 4:43.69 | 144495 | 165788 11 | 36:50.39 | 2:20.32 | 165789 | 176320 12 | 39:10.71 | 3:04.42 | 176321 | 190162 13 | 42:15.38 | 3:29.42 | 190163 | 205879 14 | 45:45.05 | 3:21.63 | 205880 | 221017 15 | 49:06.68 | 3:31.49 | 221018 | 236891 16 | 52:38.42 | 2:46.30 | 236892 | 249371 17 | 55:24.72 | 2:54.39 | 249372 | 262460 18 | 58:19.36 | 3:40.46 | 262461 | 279006 19 | 62:00.07 | 2:45.29 | 279007 | 291410 20 | 64:45.36 | 2:58.06 | 291411 | 304766 21 | 67:43.42 | 4:53.55 | 304767 | 326796 22 | 72:37.22 | 3:53.00 | 326797 | 344271
Range status and errors
Selected range
Filename D:\MeTaLMaDNeSS.TeaM\Venom (UK) - In Nomine Satanas (2CD)\CD1-Venom - In Nomine Satanas-The Neat Anthology.wav
Peak level 95.9 % Extraction speed 6.6 X Range quality 100.0 % Test CRC 4499E5BD Copy CRC 4499E5BD Copy OK
No errors occurred
AccurateRip summary
Track 1 not present in databaseTrack 2 not present in databaseTrack 3 not present in databaseTrack 4 not present in databaseTrack 5 not present in databaseTrack 6 not present in databaseTrack 7 not present in databaseTrack 8 not present in databaseTrack 9 not present in databaseTrack 10 not present in databaseTrack 11 not present in databaseTrack 12 not present in databaseTrack 13 not present in databaseTrack 14 not present in databaseTrack 15 not present in databaseTrack 16 not present in databaseTrack 17 not present in databaseTrack 18 not present in databaseTrack 19 not present in databaseTrack 20 not present in databaseTrack 21 not present in databaseTrack 22 not present in database
None of the tracks are present in the AccurateRip database
End of status report
---- CUETools DB Plugin V2.1.6
[CTDB TOCID: XFPOv9tvOoYE_FnRuLsUNb9Qtwo-] foundSubmit result: XFPOv9tvOoYE_FnRuLsUNb9Qtwo- has been confirmedTrack | CTDB Status 1 | (2/2) Accurately ripped 2 | (2/2) Accurately ripped 3 | (2/2) Accurately ripped 4 | (2/2) Accurately ripped 5 | (2/2) Accurately ripped 6 | (2/2) Accurately ripped 7 | (2/2) Accurately ripped 8 | (2/2) Accurately ripped 9 | (2/2) Accurately ripped 10 | (2/2) Accurately ripped 11 | (2/2) Accurately ripped 12 | (2/2) Accurately ripped 13 | (2/2) Accurately ripped 14 | (2/2) Accurately ripped 15 | (2/2) Accurately ripped 16 | (2/2) Accurately ripped 17 | (2/2) Accurately ripped 18 | (2/2) Accurately ripped 19 | (2/2) Accurately ripped 20 | (2/2) Accurately ripped 21 | (2/2) Accurately ripped 22 | (2/2) Accurately ripped
==== Log checksum 13F01D05CC8BA360CB0114C61C8D0A7107CC790D2509A81FBF2B6C9EFD3FC244 ====

CUETools

[CUETools log; Date: 24.06.2019 19:22:13; Version: 2.1.6][CTDB TOCID: XFPOv9tvOoYE_FnRuLsUNb9Qtwo-] found.Track | CTDB Status 1 | (6/6) Accurately ripped 2 | (6/6) Accurately ripped 3 | (6/6) Accurately ripped 4 | (6/6) Accurately ripped 5 | (6/6) Accurately ripped 6 | (6/6) Accurately ripped 7 | (6/6) Accurately ripped 8 | (6/6) Accurately ripped 9 | (6/6) Accurately ripped 10 | (6/6) Accurately ripped 11 | (6/6) Accurately ripped 12 | (6/6) Accurately ripped 13 | (6/6) Accurately ripped 14 | (6/6) Accurately ripped 15 | (6/6) Accurately ripped 16 | (6/6) Accurately ripped 17 | (6/6) Accurately ripped 18 | (6/6) Accurately ripped 19 | (6/6) Accurately ripped 20 | (6/6) Accurately ripped 21 | (6/6) Accurately ripped 22 | (6/6) Accurately ripped[AccurateRip ID: 003c299c-03c32d7b-3211ee16] disk not present in database.
Track Peak [ CRC32 ] [W/O NULL] [ LOG ] -- 95,9 [4499E5BD] [49AC80BB] CRC32 01 95,9 [A7894B73] [174BD61C] 02 95,1 [E5D495F9] [787D60E0] 03 95,2 [A1B13C26] [E97B2A74] 04 94,5 [AB1275D3] [BD866F59] 05 95,3 [4D3D5E9B] [C901B7A7] 06 94,5 [BE6FF774] [EEB9F35C] 07 94,5 [4BB6D819] [77F71700] 08 94,5 [CD1DBE72] [11F97DE5] 09 94,5 [0E139E06] [AAE5617F] 10 94,5 [A98CDE20] [C165F9B6] 11 94,5 [85663934] [4D47306E] 12 94,5 [DAD80ED3] [8B569A48] 13 94,5 [4AFEF9E3] [3A99F217] 14 94,5 [939F8FD5] [67BA9D24] 15 94,5 [6F3C63AE] [4E873F8D] 16 94,5 [29E7F6EE] [A81EAB63] 17 94,5 [C8F6AC9F] [BEDE15AA] 18 94,5 [6C02D938] [B5962DD4] 19 95,7 [C7C0C82F] [32C18A09] 20 95,8 [2BB69C6F] [7E7ECA73] 21 95,5 [FB0B6697] [8519C524] 22 94,5 [39317326] [494CC374]

DR

foobar2000 1.4.4 / Замер динамического диапазона (DR) 1.1.1Дата отчёта: 2019-06-24 19:21:24
--------------------------------------------------------------------------------Анализ: Venom / In Nomine Satanas-The Neat Anthology--------------------------------------------------------------------------------
DR Пики RMS Продолжительность трека--------------------------------------------------------------------------------DR8 -0.36 дБ -9.59 дБ 3:11 01-Welcome To HellDR6 -0.43 дБ -7.97 дБ 2:37 02-Angel DustDR8 -0.43 дБ -10.71 дБ 3:31 03-In League With SatanDR8 -0.48 дБ -10.19 дБ 3:27 04-In Nomine SatanasDR8 -0.41 дБ -9.18 дБ 4:31 05-One Thousand Days In SodomDR8 -0.48 дБ -9.82 дБ 2:59 06-Blood LustDR9 -0.48 дБ -10.63 дБ 3:43 07-Black MetalDR8 -0.48 дБ -11.88 дБ 4:19 08-Buried AliveDR9 -0.48 дБ -10.24 дБ 3:48 09-Countess BathoryDR9 -0.48 дБ -10.38 дБ 4:44 10-Teacher’s PetDR8 -0.48 дБ -10.04 дБ 2:20 11-At War With SatanDR7 -0.48 дБ -9.34 дБ 3:05 12-Die HardDR7 -0.48 дБ -8.95 дБ 3:30 13-Stand Up (And Be Counted)DR8 -0.48 дБ -9.21 дБ 3:22 14-Women, Leather And HellDR8 -0.48 дБ -10.22 дБ 3:32 15-WarheadDR7 -0.48 дБ -9.44 дБ 2:46 16-Lady LustDR8 -0.48 дБ -9.12 дБ 2:55 17-WomanDR8 -0.48 дБ -9.34 дБ 3:41 18-ManitouDR8 -0.38 дБ -9.59 дБ 2:45 19-SatanachistDR8 -0.37 дБ -9.48 дБ 2:58 20-Too Loud (For The Crowd)DR7 -0.40 дБ -10.03 дБ 4:54 21-PossessedDR9 -0.48 дБ -10.38 дБ 3:53 22-Nightmare--------------------------------------------------------------------------------
Количество треков: 22Реальные значения DR: DR8
Частота: 44100 ГцКаналов: 2Разрядность: 16Битрейт: 926 кбит/сКодек: FLAC================================================================================

Disc 02

01. Sons of Satan (Demo) (3:23)
02. Raise the Dead (Demo) (3:28)
03. Red Light Fever (Demo) (4:47)
04. Live Like an Angel (Demo) (3:18)
05. F.O.A.D. (3:03)
06. Chanting of the Priests (Live) (4:53)
07. Sadist (Mistress of the Whip) (2:39)
08. Witching Hour (Live) (4:18)
09. Dead of Nite (3:49)
10. Acid Queen (2:28)
11. Bursting Out (2:58)
12. Bitch Witch (3:05)
13. 7 Gates of Hell (5:27)
14. Dead on Arrival (3:06)
15. Hounds of Hell (3:21)
16. Schizo (Live) (3:25)
17. Leave Me in Hell (3:36)
18. Senile Decay (Outtake) (3:30)
19. Snot's Shit (2:07)
20. Aaaaarrghh (2:24)
21. Venom (4:14)

Лог создания рипа

Exact Audio Copy V1.3 from 2. September 2016
EAC extraction logfile from 4. June 2019, 17:27
Venom / In Nomine Satanas-The Neat Anthology
Used drive : PLEXTOR DVDR PX-891SA Adapter: 1 ID: 0
Read mode : SecureUtilize accurate stream : YesDefeat audio cache : YesMake use of C2 pointers : No
Read offset correction : 6Overread into Lead-In and Lead-Out : NoFill up missing offset samples with silence : YesDelete leading and trailing silent blocks : NoNull samples used in CRC calculations : YesUsed interface : Native Win32 interface for Win NT & 2000
Used output format : User Defined EncoderSelected bitrate : 896 kBit/sQuality : HighAdd ID3 tag : NoCommand line compressor : C:\Program Files (x86)\Exact Audio Copy\Flac\flac.exeAdditional command line options : -6 -V %source%
TOC of the extracted CD
Track | Start | Length | Start sector | End sector --------------------------------------------------------- 1 | 0:00.00 | 3:22.51 | 0 | 15200 2 | 3:22.51 | 3:27.67 | 15201 | 30792 3 | 6:50.43 | 4:46.74 | 30793 | 52316 4 | 11:37.42 | 3:17.69 | 52317 | 67160 5 | 14:55.36 | 3:03.14 | 67161 | 80899 6 | 17:58.50 | 4:52.50 | 80900 | 102849 7 | 22:51.25 | 2:39.35 | 102850 | 114809 8 | 25:30.60 | 4:18.17 | 114810 | 134176 9 | 29:49.02 | 3:49.15 | 134177 | 151366 10 | 33:38.17 | 2:28.02 | 151367 | 162468 11 | 36:06.19 | 2:58.28 | 162469 | 175846 12 | 39:04.47 | 3:05.00 | 175847 | 189721 13 | 42:09.47 | 5:26.62 | 189722 | 214233 14 | 47:36.34 | 3:06.34 | 214234 | 228217 15 | 50:42.68 | 3:21.14 | 228218 | 243306 16 | 54:04.07 | 3:24.73 | 243307 | 258679 17 | 57:29.05 | 3:36.00 | 258680 | 274879 18 | 61:05.05 | 3:30.22 | 274880 | 290651 19 | 64:35.27 | 2:06.74 | 290652 | 300175 20 | 66:42.26 | 2:23.61 | 300176 | 310961 21 | 69:06.12 | 4:14.02 | 310962 | 330013
Range status and errors
Selected range
Filename D:\MeTaLMaDNeSS.TeaM\Venom (UK) - In Nomine Satanas (2CD)\CD2-Venom - In Nomine Satanas-The Neat Anthology.wav
Peak level 94.5 % Extraction speed 6.4 X Range quality 100.0 % Test CRC 23BF865D Copy CRC 23BF865D Copy OK
No errors occurred
AccurateRip summary
Track 1 not present in databaseTrack 2 not present in databaseTrack 3 not present in databaseTrack 4 not present in databaseTrack 5 not present in databaseTrack 6 not present in databaseTrack 7 not present in databaseTrack 8 not present in databaseTrack 9 not present in databaseTrack 10 not present in databaseTrack 11 not present in databaseTrack 12 not present in databaseTrack 13 not present in databaseTrack 14 not present in databaseTrack 15 not present in databaseTrack 16 not present in databaseTrack 17 not present in databaseTrack 18 not present in databaseTrack 19 not present in databaseTrack 20 not present in databaseTrack 21 not present in database
None of the tracks are present in the AccurateRip database
End of status report
---- CUETools DB Plugin V2.1.6
[CTDB TOCID: DBh3YkDguzQntO8FV9ZvGD43PdA-] foundSubmit result: DBh3YkDguzQntO8FV9ZvGD43PdA- has been confirmedTrack | CTDB Status 1 | (4/4) Accurately ripped 2 | (4/4) Accurately ripped 3 | (4/4) Accurately ripped 4 | (4/4) Accurately ripped 5 | (4/4) Accurately ripped 6 | (4/4) Accurately ripped 7 | (4/4) Accurately ripped 8 | (4/4) Accurately ripped 9 | (4/4) Accurately ripped 10 | (4/4) Accurately ripped 11 | (4/4) Accurately ripped 12 | (4/4) Accurately ripped 13 | (4/4) Accurately ripped 14 | (4/4) Accurately ripped 15 | (4/4) Accurately ripped 16 | (4/4) Accurately ripped 17 | (4/4) Accurately ripped 18 | (4/4) Accurately ripped 19 | (4/4) Accurately ripped 20 | (4/4) Accurately ripped 21 | (4/4) Accurately ripped
==== Log checksum 5AEEC0698066A2DC4282EC3E0829F5734EA7F6A0F5A0686005A886DDB4E0EB60 ====

CUETools

[CUETools log; Date: 24.06.2019 19:22:32; Version: 2.1.6][CTDB TOCID: DBh3YkDguzQntO8FV9ZvGD43PdA-] found.Track | CTDB Status 1 | (7/7) Accurately ripped 2 | (7/7) Accurately ripped 3 | (7/7) Accurately ripped 4 | (7/7) Accurately ripped 5 | (7/7) Accurately ripped 6 | (7/7) Accurately ripped 7 | (7/7) Accurately ripped 8 | (7/7) Accurately ripped 9 | (7/7) Accurately ripped 10 | (7/7) Accurately ripped 11 | (7/7) Accurately ripped 12 | (7/7) Accurately ripped 13 | (7/7) Accurately ripped 14 | (7/7) Accurately ripped 15 | (7/7) Accurately ripped 16 | (7/7) Accurately ripped 17 | (7/7) Accurately ripped 18 | (7/7) Accurately ripped 19 | (7/7) Accurately ripped 20 | (7/7) Accurately ripped 21 | (7/7) Accurately ripped[AccurateRip ID: 0038e561-036385ad-29113015] disk not present in database.
Track Peak [ CRC32 ] [W/O NULL] [ LOG ] -- 94,5 [23BF865D] [5E1902B7] CRC32 01 94,5 [07574DCF] [12DC9952] 02 94,5 [1416B766] [BB0E6563] 03 94,5 [081594EC] [1F904F00] 04 94,5 [03794575] [47456E8A] 05 94,5 [E9315993] [FF75E568] 06 94,5 [2147B89F] [60FC71A5] 07 94,5 [B7E8930F] [ADB314E6] 08 94,5 [976D4DDB] [56F831F6] 09 94,5 [EAFD0E4C] [75F4CA6B] 10 94,5 [393D26F7] [B8D19FF5] 11 94,5 [D5F9730D] [7B4D09A6] 12 92,9 [90C112E3] [A3E892C3] 13 94,5 [663E16FC] [1DFD0684] 14 94,5 [AE454BD7] [CF25FED1] 15 94,5 [BA5742B6] [45349C1D] 16 94,5 [CCCB07BC] [8188A58A] 17 94,5 [092DAFE4] [697375B9] 18 94,5 [A035048D] [3CFBC9B4] 19 94,5 [0F0E1E5B] [5A0A8A57] 20 94,5 [E5B419C6] [D0E10975] 21 94,5 [5FC9D13B] [C1549AC7]

DR

foobar2000 1.4.4 / Замер динамического диапазона (DR) 1.1.1Дата отчёта: 2019-06-24 19:16:18
--------------------------------------------------------------------------------Анализ: Venom / In Nomine Satanas-The Neat Anthology--------------------------------------------------------------------------------
DR Пики RMS Продолжительность трека--------------------------------------------------------------------------------DR8 -0.36 дБ -9.59 дБ 3:11 01-Welcome To HellDR6 -0.43 дБ -7.97 дБ 2:37 02-Angel DustDR8 -0.43 дБ -10.71 дБ 3:31 03-In League With SatanDR8 -0.48 дБ -10.19 дБ 3:27 04-In Nomine SatanasDR8 -0.41 дБ -9.18 дБ 4:31 05-One Thousand Days In SodomDR8 -0.48 дБ -9.82 дБ 2:59 06-Blood LustDR9 -0.48 дБ -10.63 дБ 3:43 07-Black MetalDR8 -0.48 дБ -11.88 дБ 4:19 08-Buried AliveDR9 -0.48 дБ -10.24 дБ 3:48 09-Countess BathoryDR9 -0.48 дБ -10.38 дБ 4:44 10-Teacher’s PetDR8 -0.48 дБ -10.04 дБ 2:20 11-At War With SatanDR7 -0.48 дБ -9.34 дБ 3:05 12-Die HardDR7 -0.48 дБ -8.95 дБ 3:30 13-Stand Up (And Be Counted)DR8 -0.48 дБ -9.21 дБ 3:22 14-Women, Leather And HellDR8 -0.48 дБ -10.22 дБ 3:32 15-WarheadDR7 -0.48 дБ -9.44 дБ 2:46 16-Lady LustDR8 -0.48 дБ -9.12 дБ 2:55 17-WomanDR8 -0.48 дБ -9.34 дБ 3:41 18-ManitouDR8 -0.38 дБ -9.59 дБ 2:45 19-SatanachistDR8 -0.37 дБ -9.48 дБ 2:58 20-Too Loud (For The Crowd)DR7 -0.40 дБ -10.03 дБ 4:54 21-PossessedDR9 -0.48 дБ -10.38 дБ 3:53 22-Nightmare--------------------------------------------------------------------------------
Количество треков: 22Реальные значения DR: DR8
Частота: 44100 ГцКаналов: 2Разрядность: 16Битрейт: 926 кбит/сКодек: FLAC================================================================================
--------------------------------------------------------------------------------Анализ: Venom / In Nomine Satanas-The Neat Anthology--------------------------------------------------------------------------------
DR Пики RMS Продолжительность трека--------------------------------------------------------------------------------DR7 -0.49 дБ -9.18 дБ 3:23 01-Sons of Satan (Demo)DR7 -0.48 дБ -8.88 дБ 3:28 02-Raise the Dead (Demo)DR7 -0.48 дБ -8.78 дБ 4:47 03-Red Light Fever (Demo)DR8 -0.49 дБ -9.72 дБ 3:18 04-Live Like an Angel (Demo)DR7 -0.48 дБ -9.50 дБ 3:03 05-F.O.A.D.DR8 -0.48 дБ -9.15 дБ 4:53 06-Chanting of the Priests (Live)DR7 -0.48 дБ -8.14 дБ 2:39 07-Sadist (Mistress of the Whip)DR7 -0.48 дБ -9.38 дБ 4:18 08-Witching Hour (Live)DR8 -0.48 дБ -9.84 дБ 3:49 09-Dead of NiteDR7 -0.48 дБ -8.65 дБ 2:28 10-Acid QueenDR8 -0.48 дБ -9.42 дБ 2:58 11-Bursting OutDR9 -0.63 дБ -10.49 дБ 3:05 12-Bitch WitchDR7 -0.48 дБ -9.26 дБ 5:27 13-7 Gates of HellDR8 -0.48 дБ -10.44 дБ 3:06 14-Dead on ArrivalDR8 -0.48 дБ -9.56 дБ 3:21 15-Hounds of HellDR9 -0.48 дБ -10.55 дБ 3:25 16-Schizo (Live)DR7 -0.48 дБ -8.87 дБ 3:36 17-Leave Me in HellDR6 -0.48 дБ -8.76 дБ 3:30 18-Senile Decay (Outtake)DR7 -0.48 дБ -10.82 дБ 2:07 19-Snot's ShitDR8 -0.48 дБ -11.17 дБ 2:24 20-AaaaarrghhDR8 -0.48 дБ -9.70 дБ 4:14 21-Venom--------------------------------------------------------------------------------
Количество треков: 21Реальные значения DR: DR7
Частота: 44100 ГцКаналов: 2Разрядность: 16Битрейт: 941 кбит/сКодек: FLAC================================================================================
[ru-zerkalo.org]_t_5748440
Torrent: Registered ·  [ 2019-06-25 02:03 ] ·  e5429dd527a22b0ae7f1cbca689c707bfdc2f1a8

12 KB

Status: checked
Completed: 0 times
Size: 1.01 GB
Rating: 
(Votes: 0)
Say thanks: 0  Thanks
 
Похожие темы
[Profile] [PM]
Display posts from previous:    
Reply to topic

The time now is: Today 00:21

All times are GMT + 7 Hours



You cannot post new topics in this forum
You cannot reply to topics in this forum
You cannot edit your posts in this forum
You cannot delete your posts in this forum
You cannot vote in polls in this forum
You cannot attach files in this forum
You can download files in this forum