Register · 
Username: Password:
 ·  Forgot password?

(Melodic Hard Rock) [WEB] David Glen Eisley - Tattered Torn and Worn - 2019, FLAC (tracks), lossless

Reply to topic
DL-List and Torrent activity [Update пиров]
Size:  538 MB   |    Registered:  3 months 22 days   |    Completed:  1 time

Seeder not seen: 2 months 19 days

 
   
 
 
 
Author Message

FragoMan ®

Gender:

Longevity: 6 years

Posts: 23912

Post 25-Jun-2019 03:06

[Quote]

David Glen Eisley - Tattered Torn and Worn- Жанр: Melodic Hard Rock
Носитель: WEB
Год издания: 2019-06-18
Издатель-лейбл: Ol' Boothill Records
Страна исполнителя: USA
Аудиокодек: FLAC (*.flac)
Тип рипа: tracks
Битрейт аудио: lossless
Продолжительность: 01:13:07
Источник: интернет
Наличие сканов: нет

Треклист:
01. Y.M.I. (At All) (6:17)
02. Ain't No Turning Back (Floatin' in the Flood) (7:12)
03. Hard to Lose (4:35)
04. Blood, Guts and Games (Tall Tales) (5:16)
05. Darkside of Sunrise (5:43)
06. Grace of God (4:59)
07. 1964 (5:43)
08. The Storm Will Come a Risin' (5:33)
09. Devils and Diamonds (4:38)
10. Before My Eyes (4:39)
11. Red Raven Blue (4:56)
12. Tattered and Torn (8:11)
13. Ain't No Turning Back (5:25)

auCDtect

CUE Corrector v. 8.3.5 / b. 921 (Jun. 22, 2019)————————————————————————————————————————————————————————————————————————David Glen Eisley / Tattered, Torn and Worn
Folder: David Glen Eisley - 2019 - Tattered Torn and Worn [FLAC]Audio files: 01 Y.M.I. (At All).flac [06:17.093; FLAC • 1061 kbps • 16 bit \ 44100 Hz • stereo; 47.72 MB (50 041 164 B)] 02 Ain't No Turning Back (Floatin' in the Flood).flac [07:12.053; FLAC • 925 kbps • 16 bit \ 44100 Hz • stereo; 47.69 MB (50 007 441 B)] 03 Hard to Lose.flac [04:34.587; FLAC • 1145 kbps • 16 bit \ 44100 Hz • stereo; 37.50 MB (39 323 400 B)] 04 Blood Guts and Games (Tall Tales).flac [05:16.400; FLAC • 1035 kbps • 16 bit \ 44100 Hz • stereo; 39.07 MB (40 968 475 B)] 05 Darkside of Sunrise.flac [05:43.427; FLAC • 1007 kbps • 16 bit \ 44100 Hz • stereo; 41.27 MB (43 271 316 B)] 06 Grace of God.flac [04:58.973; FLAC • 1095 kbps • 16 bit \ 44100 Hz • stereo; 39.04 MB (40 940 127 B)] 07 1964.flac [05:43.373; FLAC • 996 kbps • 16 bit \ 44100 Hz • stereo; 40.77 MB (42 754 586 B)] 08 The Storm Will Come a Risin'.flac [05:33.307; FLAC • 1059 kbps • 16 bit \ 44100 Hz • stereo; 42.09 MB (44 135 908 B)] 09 Devils and Diamonds.flac [04:37.880; FLAC • 1007 kbps • 16 bit \ 44100 Hz • stereo; 33.39 MB (35 011 482 B)] 10 Before My Eyes.flac [04:39.147; FLAC • 1057 kbps • 16 bit \ 44100 Hz • stereo; 35.20 MB (36 914 685 B)] 11 Red Raven Blue.flac [04:56.267; FLAC • 1023 kbps • 16 bit \ 44100 Hz • stereo; 36.14 MB (37 895 623 B)] 12 Tattered and Torn.flac [08:10.587; FLAC • 992 kbps • 16 bit \ 44100 Hz • stereo; 58.03 MB (60 848 101 B)] 13 Ain't No Turning Back.flac [05:24.800; FLAC • 1045 kbps • 16 bit \ 44100 Hz • stereo; 40.47 MB (42 431 074 B)]
Accuracy: -m0
File 01 Y.M.I. (At All) - 100% CDDA [06:17:07]File 02 Ain't No Turning Back (Floatin' in the Flood) - 100% CDDA [07:12:04]File 03 Hard to Lose - 86% CDDA [04:34:44]File 04 Blood Guts and Games (Tall Tales) - 100% CDDA [05:16:30]File 05 Darkside of Sunrise - 100% CDDA [05:43:32]File 06 Grace of God - 100% CDDA [04:58:73]File 07 1964 - 100% CDDA [05:43:28]File 08 The Storm Will Come a Risin' - 100% CDDA [05:33:23]File 09 Devils and Diamonds - 100% CDDA [04:37:66]File 10 Before My Eyes - 100% CDDA [04:39:11]File 11 Red Raven Blue - 100% CDDA [04:56:20]File 12 Tattered and Torn - 100% CDDA [08:10:44]File 13 Ain't No Turning Back - 100% CDDA [05:24:60]————— Summary: —————These tracks looks like CDDA with probability 100%.————————————————————————————————————————————————————————————————————————
ANALYZER: auCDtect: CD records authenticity detector, version 0.8.2 Copyright (c) 2004 Oleg Berngardt. All rights reserved. Copyright (c) 2004 Alexander Djourik. All rights reserved.
Time elapsed: 3 m 32 sLog created at June 24, 2019 18:02:03
=== DAF3564F2808A368720176CBFDD66F4E61382242A090E891E1FF4BDE5D03B808 ===

CUETools

[CUETools log; Date: 24.06.2019 17:57:57; Version: 2.1.6][CTDB TOCID: ChaKmpjXelKnifz00ZY47D63YeE-] disk not present in database.[AccurateRip ID: 00235079-015e26bc-c211230d] disk not present in database.
Track Peak [ CRC32 ] [W/O NULL] -- 100,0 [F92418C6] [7BB478EC] 01 100,0 [8088186F] [E9A0B7DC] 02 100,0 [229CA233] [FE469BE9] 03 100,0 [6C43FF94] [8DD95589] 04 100,0 [1C95756E] [8FD2B4CF] 05 100,0 [B3FE9515] [2553A653] 06 100,0 [C36B6078] [EF1C7E31] 07 100,0 [C7D4D0D7] [EE4B9C90] 08 100,0 [14C50C3D] [F17E6C2E] 09 100,0 [AB078C60] [D265FA5D] 10 100,0 [303F2912] [1AFAB7AE] 11 100,0 [F338B846] [B6BFB96B] 12 100,0 [199A7D56] [401DCB3D] 13 100,0 [C79DD9B4] [8A3375BE]

DR

foobar2000 1.4.4 / Замер динамического диапазона (DR) 1.1.1Дата отчёта: 2019-06-24 17:57:23
--------------------------------------------------------------------------------Анализ: David Glen Eisley / Tattered, Torn and Worn--------------------------------------------------------------------------------
DR Пики RMS Продолжительность трека--------------------------------------------------------------------------------DR5 0.00 дБ -5.35 дБ 6:17 01-Y.M.I. (At All)DR5 0.00 дБ -6.56 дБ 7:12 02-Ain't No Turning Back (Floatin' in the Flood)DR5 0.00 дБ -5.74 дБ 4:35 03-Hard to LoseDR5 0.00 дБ -5.73 дБ 5:16 04-Blood, Guts and Games (Tall Tales)DR6 0.00 дБ -6.69 дБ 5:43 05-Darkside of SunriseDR5 0.00 дБ -5.74 дБ 4:59 06-Grace of GodDR5 0.00 дБ -6.69 дБ 5:43 07-1964DR5 0.00 дБ -5.67 дБ 5:33 08-The Storm Will Come a Risin'DR6 0.00 дБ -7.57 дБ 4:38 09-Devils and DiamondsDR5 0.00 дБ -5.51 дБ 4:39 10-Before My EyesDR5 0.00 дБ -6.35 дБ 4:56 11-Red Raven BlueDR5 0.00 дБ -7.45 дБ 8:11 12-Tattered and TornDR5 0.00 дБ -5.48 дБ 5:25 13-Ain't No Turning Back--------------------------------------------------------------------------------
Количество треков: 13Реальные значения DR: DR5
Частота: 44100 ГцКаналов: 2Разрядность: 16Битрейт: 1033 кбит/сКодек: FLAC================================================================================
[ru-zerkalo.org]_t_5748437
Torrent: Registered ·  [ 2019-06-25 03:06 ] ·  353a5890a2263529ba68a7e399a7279b79b5d989

12 KB

Status: checked
Completed: 1 times
Size: 538 MB
Rating: 
(Votes: 0)
Say thanks: 0  Thanks
 
Похожие темы
[Profile] [PM]
Display posts from previous:    
Reply to topic

The time now is: Today 22:17

All times are GMT + 7 Hours



You cannot post new topics in this forum
You cannot reply to topics in this forum
You cannot edit your posts in this forum
You cannot delete your posts in this forum
You cannot vote in polls in this forum
You cannot attach files in this forum
You can download files in this forum