Register · 
Username: Password:
 ·  Forgot password?

(Progressive rock) [CD] Western Vacation - Steve Vai Presents: Western Vacation - 1986 (2010, Favored Nations), FLAC (tracks+.cue), lossless

Reply to topic
DL-List and Torrent activity [Update пиров]
Size:  267 MB   |    Registered:  3 months 22 days   |    Completed:  1 time

Seeder not seen: 16 days

 
   
 
 
 
Author Message

kadSM ®

Gender:

Longevity: 6 years

Posts: 18049

Post 25-Jun-2019 06:13

[Quote]

--Western Vacation - Steve Vai Presents: Western Vacation - 1986 (2010, Favored Nations)-- Steve Vai: "Марти Шварц - мой очень близкий друг и великолепный гитарист. Он превратил гараж в моем доме в Сильмаре в убежище для музыкальной несправедливости и поселился в нем. Иногда он заходил в мою студию и записывал в ней что-то. Созданный им альбом стал очень вдохновенным. Я сыграл безумное соло в песне "Western Vacation" и записал его на свою портативную студию во время турне. ".
Жанр: Progressive rock
Носитель: CD (compilation, archival)
Страна-производитель диска (релиза): US
Год издания оригинала: 1986
Год переиздания: 2010
Издатель (лейбл): Favored Nations
Номер по каталогу: FN2650-2
Страна исполнителя (группы) : US
Аудио кодек: FLAC (*.flac)
Тип рипа: (tracks + .cue)
Битрейт аудио: lossless
Наличие сканов в содержимом раздачи: full scans
Продолжительность: 38:30
Источник (релизер): REDacted
Трэклист:
1. Western Vacation (M. Schwartz) - 6:55
2. Nocturnal Emissions (M. Schwartz) - 2:05
3. Fast Note People (B. Harris, M. Schwartz) - 4:01
4. Send Us More Light (B. Harris, M. Schwartz) - 4:22
5. Patty (M. Schwartz) - 4:44
6. The Velvet Line (B. Harris, M. Schwartz) - 5:31
7. Delicious (T. Mars) - 3:12
8. Borrowed Time (B. Harris, M. Schwartz) - 4:30
9. Burning Flame (B. Harris, M. Schwartz) - 3:07

ЛогиЛог создания рипа

Exact Audio Copy V1.3 from 2. September 2016
EAC extraction logfile from 23. June 2017, 2:16
Western Vacation / Steve Vai Presents: Western Vacation (2010 Reissue)
Used drive : HL-DT-STDVDRAM GP57ES40 Adapter: 1 ID: 0
Read mode : SecureUtilize accurate stream : YesDefeat audio cache : YesMake use of C2 pointers : No
Read offset correction : 6Overread into Lead-In and Lead-Out : NoFill up missing offset samples with silence : YesDelete leading and trailing silent blocks : NoNull samples used in CRC calculations : YesUsed interface : Native Win32 interface for Win NT & 2000Gap handling : Appended to previous track
Used output format : User Defined EncoderSelected bitrate : 1024 kBit/sQuality : HighAdd ID3 tag : NoCommand line compressor : C:\Program Files (x86)\Exact Audio Copy\FLAC\FLAC.EXEAdditional command line options : -8 -e -p -V -T "ARTIST=%artist%" -T "TITLE=%title%" -T "ALBUM=%albumtitle%" -T "DATE=%year%" -T "TRACKNUMBER=%tracknr%" -T "GENRE=%genre%" -T "PERFORMER=%albuminterpret%" -T "COMPOSER=%composer%" %haslyrics%--tag-from-file=LYRICS="%lyricsfile%"%haslyrics% -T "ALBUMARTIST=%albumartist%" -T "DISCNUMBER=%cdnumber%" -T "TOTALDISCS=%totalcds%" -T "TOTALTRACKS=%numtracks%" -T "COMMENT=%comment%" %source% -o %dest%
TOC of the extracted CD
Track | Start | Length | Start sector | End sector --------------------------------------------------------- 1 | 0:00.00 | 6:54.73 | 0 | 31122 2 | 6:54.73 | 2:05.20 | 31123 | 40517 3 | 9:00.18 | 4:01.29 | 40518 | 58621 4 | 13:01.47 | 4:22.24 | 58622 | 78295 5 | 17:23.71 | 4:44.66 | 78296 | 99661 6 | 22:08.62 | 5:31.50 | 99662 | 124536 7 | 27:40.37 | 3:12.46 | 124537 | 138982 8 | 30:53.08 | 4:30.42 | 138983 | 159274 9 | 35:23.50 | 3:07.15 | 159275 | 173314
Track 1
Filename D:\Western Vacation (1986) - Steve Vai Presents Western Vacation (2010 Reissue) {FN2650-2} {FLAC]\01 - Western Vacation.wav
Pre-gap length 0:00:02.00
Peak level 100.0 % Extraction speed 1.3 X Track quality 99.9 % Test CRC 78C9D6D2 Copy CRC 78C9D6D2 Cannot be verified as accurate (confidence 4) [FD051888], AccurateRip returned [7BC0CE52] (AR v2) Copy OK
Track 2
Filename D:\Western Vacation (1986) - Steve Vai Presents Western Vacation (2010 Reissue) {FN2650-2} {FLAC]\02 - Nocturnal Emissions.wav
Peak level 100.0 % Extraction speed 1.3 X Track quality 100.0 % Test CRC 0B160E23 Copy CRC 0B160E23 Cannot be verified as accurate (confidence 4) [16B8D4BF], AccurateRip returned [7CE46F58] (AR v2) Copy OK
Track 3
Filename D:\Western Vacation (1986) - Steve Vai Presents Western Vacation (2010 Reissue) {FN2650-2} {FLAC]\03 - Fast Note People.wav
Peak level 100.0 % Extraction speed 1.5 X Track quality 100.0 % Test CRC BBC16EA8 Copy CRC BBC16EA8 Cannot be verified as accurate (confidence 4) [C4FB8A8C], AccurateRip returned [A07895D5] (AR v2) Copy OK
Track 4
Filename D:\Western Vacation (1986) - Steve Vai Presents Western Vacation (2010 Reissue) {FN2650-2} {FLAC]\04 - Send Us More Lights.wav
Peak level 100.0 % Extraction speed 1.6 X Track quality 100.0 % Test CRC 2B57CF6D Copy CRC 2B57CF6D Cannot be verified as accurate (confidence 4) [AB0B99F4], AccurateRip returned [55E838C3] (AR v2) Copy OK
Track 5
Filename D:\Western Vacation (1986) - Steve Vai Presents Western Vacation (2010 Reissue) {FN2650-2} {FLAC]\05 - Patty.wav
Peak level 100.0 % Extraction speed 1.6 X Track quality 99.9 % Test CRC 1FA4D41D Copy CRC 1FA4D41D Cannot be verified as accurate (confidence 4) [36DFA359], AccurateRip returned [207520F9] (AR v2) Copy OK
Track 6
Filename D:\Western Vacation (1986) - Steve Vai Presents Western Vacation (2010 Reissue) {FN2650-2} {FLAC]\06 - The Velvet Line.wav
Peak level 100.0 % Extraction speed 1.8 X Track quality 99.9 % Test CRC 99D3604C Copy CRC 99D3604C Cannot be verified as accurate (confidence 4) [EF12F01E], AccurateRip returned [B7F6E42E] (AR v2) Copy OK
Track 7
Filename D:\Western Vacation (1986) - Steve Vai Presents Western Vacation (2010 Reissue) {FN2650-2} {FLAC]\07 - Delicious.wav
Peak level 100.0 % Extraction speed 1.9 X Track quality 100.0 % Test CRC 98E3D955 Copy CRC 98E3D955 Cannot be verified as accurate (confidence 4) [B10FD4D2], AccurateRip returned [DADF2EB0] (AR v2) Copy OK
Track 8
Filename D:\Western Vacation (1986) - Steve Vai Presents Western Vacation (2010 Reissue) {FN2650-2} {FLAC]\08 - Borrowed Time.wav
Peak level 100.0 % Extraction speed 1.8 X Track quality 99.9 % Test CRC E5505909 Copy CRC E5505909 Cannot be verified as accurate (confidence 4) [890F794D], AccurateRip returned [8498DB89] (AR v2) Copy OK
Track 9
Filename D:\Western Vacation (1986) - Steve Vai Presents Western Vacation (2010 Reissue) {FN2650-2} {FLAC]\09 - Burning Flame.wav
Peak level 100.0 % Extraction speed 2.0 X Track quality 100.0 % Test CRC C1E95E3E Copy CRC C1E95E3E Cannot be verified as accurate (confidence 4) [13BA7D79], AccurateRip returned [1D15CB3B] (AR v2) Copy OK
No tracks could be verified as accurateYou may have a different pressing from the one(s) in the database
No errors occurred
End of status report
---- CUETools DB Plugin V2.1.6
[CTDB TOCID: _98LDo1Ft7EaiTy6Des74T4odg0-] foundSubmit result: _98LDo1Ft7EaiTy6Des74T4odg0- has been submittedTrack | CTDB Status 1 | (6/6) Differs in 23 samples @06:54:72 2 | (6/6) Differs in 73 samples @02:05:19 3 | (6/6) Differs in 64 samples @04:01:28 4 | (6/6) Differs in 14 samples @04:22:23 5 | (6/6) Differs in 68 samples @04:44:65 6 | (6/6) Differs in 62 samples @05:31:49 7 | (6/6) Differs in 56 samples @03:12:45 8 | (6/6) Differs in 71 samples @04:30:41 9 | (6/6) Accurately rippedIf you are sure that your rip contains errors, you can use CUETools to repair it.
==== Log checksum 66E0E062B8DF5E4E44B66FD70CF44ACA7277DDD2A260AFA02229F0DE9BD9AEEB ====

Содержание индексной карты (.CUE):

REM GENRE "Progressive Rock"REM DATE 1986REM DISCID 67090609REM COMMENT "ExactAudioCopy v1.3"PERFORMER "Western Vacation"TITLE "Steve Vai Presents: Western Vacation (2010 Reissue)"REM COMPOSER ""FILE "01 - Western Vacation.wav" WAVE TRACK 01 AUDIO TITLE "Western Vacation" PERFORMER "Western Vacation" REM COMPOSER "" INDEX 01 00:00:00FILE "02 - Nocturnal Emissions.wav" WAVE TRACK 02 AUDIO TITLE "Nocturnal Emissions" PERFORMER "Western Vacation" REM COMPOSER "" INDEX 01 00:00:00FILE "03 - Fast Note People.wav" WAVE TRACK 03 AUDIO TITLE "Fast Note People" PERFORMER "Western Vacation" REM COMPOSER "" INDEX 01 00:00:00FILE "04 - Send Us More Lights.wav" WAVE TRACK 04 AUDIO TITLE "Send Us More Lights" PERFORMER "Western Vacation" REM COMPOSER "" INDEX 01 00:00:00FILE "05 - Patty.wav" WAVE TRACK 05 AUDIO TITLE "Patty" PERFORMER "Western Vacation" REM COMPOSER "" INDEX 01 00:00:00FILE "06 - The Velvet Line.wav" WAVE TRACK 06 AUDIO TITLE "The Velvet Line" PERFORMER "Western Vacation" REM COMPOSER "" INDEX 01 00:00:00FILE "07 - Delicious.wav" WAVE TRACK 07 AUDIO TITLE "Delicious" PERFORMER "Western Vacation" REM COMPOSER "" INDEX 01 00:00:00FILE "08 - Borrowed Time.wav" WAVE TRACK 08 AUDIO TITLE "Borrowed Time" PERFORMER "Western Vacation" REM COMPOSER "" INDEX 01 00:00:00FILE "09 - Burning Flame.wav" WAVE TRACK 09 AUDIO TITLE "Burning Flame" PERFORMER "Western Vacation" REM COMPOSER "" INDEX 01 00:00:00

Лог проверки качества

-----------------------
DON'T MODIFY THIS FILE
-----------------------
PERFORMER: auCDtect Task Manager, ver. 1.6.0 RC1 build 1.6.0.1Copyright (c) 2008-2010 y-soft. All rights reservedhttp://y-soft.org
ANALYZER: auCDtect: CD records authenticity detector, version 0.8.2Copyright (c) 2004 Oleg Berngardt. All rights reserved.Copyright (c) 2004 Alexander Djourik. All rights reserved.
FILE: 09 - Burning Flame.flac Size: 22454303 Hash: 96EFA3CD97BC4D0BC5EADA4AC56D7606 Accuracy: -m0 Conclusion: MPEG 100% Signature: 511BB6146D3EF6885CD2ADFABAE63371540828BDFILE: 08 - Borrowed Time.flac Size: 31868260 Hash: 0BC3515D74E3B4462F10E5AD187859E2 Accuracy: -m0 Conclusion: CDDA 100% Signature: 5814F883A100C75DA2C5F0CAEE23442356F040E8FILE: 07 - Delicious.flac Size: 19399840 Hash: 361AA09654C3ECF7BFFD2EE606216ADB Accuracy: -m0 Conclusion: CDDA 100% Signature: ABBA3519393288685CA7815E61910CDD275162C4FILE: 06 - The Velvet Line.flac Size: 39152887 Hash: 8ADD871303E845286083089B75791B08 Accuracy: -m0 Conclusion: CDDA 100% Signature: 0CD0F951DE771643B3A0030AB38BDCB7DA288D3DFILE: 05 - Patty.flac Size: 33869656 Hash: 7C55387E8539C188A89FB055B9D2757B Accuracy: -m0 Conclusion: CDDA 100% Signature: BE0399DC3290FF6EA455E8E21120A496F509EF8AFILE: 04 - Send Us More Lights.flac Size: 30542548 Hash: 3E534DA6FCC9B52990C8139A7007D7ED Accuracy: -m0 Conclusion: CDDA 100% Signature: 17BC388C5AAFB0D2346C6EBF5A36A0998FD6523DFILE: 03 - Fast Note People.flac Size: 29363977 Hash: CFF0C148718D1CFC087C8EBDA7EED6AE Accuracy: -m0 Conclusion: CDDA 100% Signature: EDBF860D2E61CCD93D116EF1FB5E8A452AA9F57EFILE: 02 - Nocturnal Emissions.flac Size: 13614833 Hash: 9BEB45952CE20D045205BA87ADCAAB3C Accuracy: -m0 Conclusion: CDDA 100% Signature: 99C4CB8454B298BB914FB407CD8726A581BB7BF3FILE: 01 - Western Vacation.flac Size: 48101714 Hash: 4C1EEF898BA3E613931AC4A6DE364633 Accuracy: -m0 Conclusion: CDDA 100% Signature: 963034E42A72FB55D45C0BEB2397AB770C2AD3C8

Спектрограммы сомнительных треков

Лог CUETools*.accurip

[CUETools log; Date: 6/24/2019 9:13:54 AM; Version: 2.1.5][CTDB TOCID: _98LDo1Ft7EaiTy6Des74T4odg0-] database access error: The operation has timed out.[AccurateRip ID: 000dcc8b-00641125-67090609] found.Track [ CRC | V2 ] Status 01 [bd6cfd4e|fd051888] (00+02/10) Accurately ripped 02 [61c023e9|16b8d4bf] (00+02/10) Accurately ripped 03 [81a122ad|c4fb8a8c] (00+02/10) Accurately ripped 04 [552197a4|ab0b99f4] (00+02/10) Accurately ripped 05 [54c5f4bd|36dfa359] (00+02/10) Accurately ripped 06 [d5159d73|ef12f01e] (00+02/10) Accurately ripped 07 [ad0c8514|b10fd4d2] (00+02/10) Accurately ripped 08 [abdcabb1|890f794d] (00+02/10) Accurately ripped 09 [7d0378a1|13ba7d79] (00+02/10) Accurately rippedOffsetted by -766: 01 [c7cfb50c] (02/10) Accurately ripped 02 [c00507e4] (00/10) No match (V2 was not tested) 03 [8dc569c4] (00/10) No match (V2 was not tested) 04 [9e86486d] (00/10) No match (V2 was not tested) 05 [4f5604d0] (00/10) No match (V2 was not tested) 06 [1dbeb59f] (00/10) No match (V2 was not tested) 07 [42d1cb39] (00/10) No match (V2 was not tested) 08 [0e8ce6ff] (00/10) No match (V2 was not tested) 09 [80145725] (00/10) No match (V2 was not tested)
Track Peak [ CRC32 ] [W/O NULL] [ LOG ] -- 100.0 [4D84C604] [6E6AB8FE] 01 100.0 [78C9D6D2] [96015B8B] CRC32 02 100.0 [0B160E23] [18E1B455] CRC32 03 100.0 [BBC16EA8] [1BC5A4EB] CRC32 04 100.0 [2B57CF6D] [EDC29749] CRC32 05 100.0 [1FA4D41D] [EA09B01C] CRC32 06 100.0 [99D3604C] [CAE9A8A8] CRC32 07 100.0 [98E3D955] [2D2574E2] CRC32 08 100.0 [E5505909] [E5087907] CRC32 09 100.0 [C1E95E3E] [130D9EF7] CRC32

*.toc

Track | Start | Length | Start sector | End sector --------------------------------------------------------- 1 | 0:00.00 | 6:54.73 | 0 | 31122 2 | 6:54.73 | 2:05.20 | 31123 | 40517 3 | 9:00.18 | 4:01.29 | 40518 | 58621 4 | 13:01.47 | 4:22.24 | 58622 | 78295 5 | 17:23.71 | 4:44.66 | 78296 | 99661 6 | 22:08.62 | 5:31.50 | 99662 | 124536 7 | 27:40.37 | 3:12.46 | 124537 | 138982 8 | 30:53.08 | 4:30.42 | 138983 | 159274 9 | 35:23.50 | 3:07.15 | 159275 | 173314

Замер динамического диапазона

foobar2000 1.3.10 / Замер динамического диапазона (DR) 1.1.1Дата отчёта: 2019-06-24 11:47:11
--------------------------------------------------------------------------------Анализ: Western Vacation / Steve Vai Presents: Western Vacation (2010 Reissue)--------------------------------------------------------------------------------
DR Пики RMS Продолжительность трека--------------------------------------------------------------------------------DR10 0.00 дБ -11.61 дБ 6:55 01-Western VacationDR12 0.00 дБ -13.91 дБ 2:05 02-Nocturnal EmissionsDR10 0.00 дБ -11.39 дБ 4:01 03-Fast Note PeopleDR12 0.00 дБ -14.34 дБ 4:22 04-Send Us More LightsDR11 0.00 дБ -12.41 дБ 4:45 05-PattyDR12 0.00 дБ -14.48 дБ 5:32 06-The Velvet LineDR8 0.00 дБ -11.05 дБ 3:13 07-DeliciousDR10 0.00 дБ -12.01 дБ 4:31 08-Borrowed TimeDR9 0.00 дБ -10.95 дБ 3:07 09-Burning Flame--------------------------------------------------------------------------------
Количество треков: 9Реальные значения DR: DR10
Частота: 44100 ГцКаналов: 2Разрядность: 16Битрейт: 959 кбит/сКодек: FLAC================================================================================
-

Back

Диск

Об альбоме:

In the early 1980’s, just after Steve had moved to California, friend and Berklee College of Music classmate Marty Schwartz wrote and recorded Western Vacation in Steve’s garage in Sylmar, California. This record captures the harmony and energy of the amazing musicians, friends, family & chicken coop of Steve’s first California house.
Western Vacation features Zappa alumni Bob Harris, Tommy Mars and features an amazing guitar solo by Steve “Reckless Fable” Vai. Western Vacation has been fully remixed and remastered and is being met with rave reviews. It is available today for download through iTunes and Amazon.com.
”Western Vacation” takes you on a progressive musical journey with uplifting melodic textures and dynamic musicianship! Bob Harris’s voice is as sweet as a red velvet cupcake and the melodies on this record are so delicious. This album has been beautifully re-mastered in the ”Audio Laundry Mastering Lab” in Steve’s Encino studio, from the original 8 track tapes! This deluxe reissue features a wonderful booklet featuring a essay from Steve Vai and legendary writer and publicist Laurel Fishman.
Listen to Western Vacation and see if you can be transported to the idyllic 1980’s in Sylmar. ”This captures that time and place with those wonderful friends,”
-Steve Vai.

Состав

Backing Vocals – Suzannah Harris (1)
Bass – Jac Mihanovic (1,3,5,6,8)
Bass – Stu Hamm (2,4)
Drums, Percussion – Chris Frazier (1,2,3)
Acoustic Guitar, Electric Guitar, Voice [Cowboys] - Martin Schwartz
Soloist [1st] – Martin Schwartz (1)
Keyboards, Backing Vocals – Tommy Mars
Saxophone – Ric Cunningham (1)
Soloist [Long Guitar Solo] – Reckless Fable [Steve Vai] (1)
Vocals [Lead & Background] – Bob Harris (1)
Voice [Cowboys] – Mike O'Brien (1)
Backing Vocals – Jarrett Renshaw, Suzannah Harris
Vocals – Bob Harris
Backing Vocals – Bob Harris
Marimba – Brad Dutz (3)
Saxophone – Ric Cunningham (6)
Keyboards – Scott Collard (8)
Trumpet – Bob Harris (8)
-Если нет сидов - пришлите мне ЛС
[ru-zerkalo.org]_t_5748394
Torrent: Registered ·  [ 2019-06-25 06:13 ] ·  5b35ffc96aefd213a22860ab892474cac1f14a0b

12 KB

Status: checked
Completed: 1 times
Size: 267 MB
Rating: 
(Votes: 0)
Say thanks: 0  Thanks
 
Похожие темы
[Profile] [PM]
Display posts from previous:    
Reply to topic

The time now is: Today 22:14

All times are GMT + 7 Hours



You cannot post new topics in this forum
You cannot reply to topics in this forum
You cannot edit your posts in this forum
You cannot delete your posts in this forum
You cannot vote in polls in this forum
You cannot attach files in this forum
You can download files in this forum